David Byron (ex.Uriah Heep) - 7 альбомов (1975 - 1984) дискография [FLAC|Lossless]<Hard Rock, Classic Rock>


Статистика раздачи
Размер: 2.36 ГБ | Добавлен: 27 фев 2016, 14:30 | Скачали: 14
Сидеров: 46  [0 байт/сек]    Личеров: 71  [0 байт/сек]

Сообщение Гость » 16 мар 2014, 00:01

David Byron (ex.Uriah Heep) - Дискография, (1975 - 1984)



Дискография, 1975 - 1984
Страна: UK
Жанр: Hard Rock, Classic Rock
Аудиокодек: FLAC
Тип рипа: image+.cue
Битрейт: lossless
Продолжительность: 06:22:07

Дэвид Байрон (David Byron, настоящее имя David Garrick — род. 29 января 1947 год а в Эппинге, Эссексe
(умер 28 февраля 1985 года) — английский музыкант, певец и автор песен, начинавший в Spice (1967—1969),
но всемирную известность получивший как вокалист хард-рок-группы Uriah Heep (1969—1976), с которой записал
10 первых студийных альбомов. После ухода из Uriah Heep Байрон безуспешно пытался начать сольную карьеру,
в какой-то момент отклонил приглашение вернуться в состав UH, а умер в 1985 году от последствий тяжелой
формы алкоголизма.[/center]


Germany Repertoire Rec. REP 4283

Продолжительность: 00:40:36

Треклист:

01. Man Full Of Yesterdays (5:39)
02. Sweet Rock 'N' Roll (2:51)
03. Steamin' Along (5:12)
04. Silver White Man (3:31)
05. Love Song (2:59)
06. Midnight Flyer (5:57)
07. Saturday Night (2:18)
08. Roller Coaster (4:00)
09. Stop (Think What You're Doing) (4:16)
10. Hit Me With A White One (3:54)
Код:
Код: Выделить всё
Exact Audio Copy V0.99 prebeta 4 from 23. January 2008

Отчёт EAC об извлечении, выполненном 3. февраля 2009, 16:54

David Byron / Take No Prisoners

Дисковод: SONY    DVD-ROM DDU1615   Adapter: 0  ID: 1

Режим чтения                 : Достоверность
Использование точного потока : Да
Отключение кэша аудио        : Да
Использование указателей C2  : Нет

Коррекция смещения при чтении                     : 6
Способность читать области Lead-in и Lead-out     : Нет
Заполнение пропущенных сэмплов тишиной            : Да
Удаление блоков с тишиной в начале и конце        : Нет
При вычислениях CRC использовались нулевые сэмплы : Да
Интерфейс                                         : Установленный внешний ASPI-интерфейс

Выходной формат          : Пользовательский кодировщик
Выбранный битрейт        : 768 kBit/s
Качество                 : Высокий
Добавление ID3-тэга      : Нет
Утилита сжатия           : C:\Program Files\Exact Audio Copy\FLAC\FLAC.EXE
Дополнительные параметры : -6 -V -T "ARTIST=%a" -T "TITLE=%t" -T "ALBUM=%g" -T "DATE=%y" -T "TRACKNUMBER=%n" -T "GENRE=%m" -T "COMMENT=%e" %s -o %d

TOC извлечённого CD

     Трек |   Старт  | Длительность | Начальный сектор | Конечный сектор
    ---------------------------------------------------------------------
       1  |  0:00.00 |    5:38.60   |           0      |      25409
       2  |  5:38.60 |    2:50.65   |       25410      |      38224
       3  |  8:29.50 |    5:11.55   |       38225      |      61604
       4  | 13:41.30 |    3:30.67   |       61605      |      77421
       5  | 17:12.22 |    2:58.43   |       77422      |      90814
       6  | 20:10.65 |    5:56.62   |       90815      |     117576
       7  | 26:07.52 |    2:18.00   |      117577      |     127926
       8  | 28:25.52 |    4:00.25   |      127927      |     145951
       9  | 32:26.02 |    4:16.35   |      145952      |     165186
      10  | 36:42.37 |    3:53.38   |      165187      |     182699

Характеристики диапазона извлечения и сообщения об ошибках

Выбранный диапазон

     Имя файла E:  David Byron - Take No Prisoners.wav

     Пиковый уровень 99.2 %
     Качество диапазона 99.9 %
     CRC копии C3485C59
     Копирование... OK

Ошибок не произошло

Конец отчёта
Код:
Код: Выделить всё
REM GENRE Rock
REM DATE 1975
REM DISCID 6D09840A
REM COMMENT "ExactAudioCopy v0.99pb4"
PERFORMER "David Byron"
TITLE "Take No Prisoners"
FILE "David Byron - Take No Prisoners.flac" WAVE
  TRACK 01 AUDIO
    TITLE "Man Full Of Yesterdays"
    PERFORMER "David Byron"
    INDEX 01 00:00:00
  TRACK 02 AUDIO
    TITLE "Sweet Rock 'N' Roll"
    PERFORMER "David Byron"
    INDEX 00 05:36:65
    INDEX 01 05:38:60
  TRACK 03 AUDIO
    TITLE "Steamin' Along"
    PERFORMER "David Byron"
    INDEX 00 08:28:00
    INDEX 01 08:29:50
  TRACK 04 AUDIO
    TITLE "Silver White Man"
    PERFORMER "David Byron"
    INDEX 00 13:39:05
    INDEX 01 13:41:30
  TRACK 05 AUDIO
    TITLE "Love Song"
    PERFORMER "David Byron"
    INDEX 00 17:10:37
    INDEX 01 17:12:22
  TRACK 06 AUDIO
    TITLE "Midnight Flyer"
    PERFORMER "David Byron"
    INDEX 00 20:08:57
    INDEX 01 20:10:65
  TRACK 07 AUDIO
    TITLE "Saturday Night"
    PERFORMER "David Byron"
    INDEX 00 26:06:12
    INDEX 01 26:07:52
  TRACK 08 AUDIO
    TITLE "Roller Coaster"
    PERFORMER "David Byron"
    INDEX 00 28:23:71
    INDEX 01 28:25:52
  TRACK 09 AUDIO
    TITLE "Stop (Think What You're Doing)"
    PERFORMER "David Byron"
    INDEX 00 32:24:10
    INDEX 01 32:26:02
  TRACK 10 AUDIO
    TITLE "Hit Me With A White One"
    PERFORMER "David Byron"
    INDEX 01 36:42:37
Код:
Код: Выделить всё
-----------------------

DON'T MODIFY THIS FILE

-----------------------

PERFORMER: auCDtect Task Manager, ver. 1.5.1RC4 build 1.5.1.5
Copyright (c) 2008-2010 y-soft. All rights reserved
http:/y-soft.org

ANALYZER: auCDtect: CD records authenticity detector, version 0.8.2
Copyright (c) 2004 Oleg Berngardt. All rights reserved.
Copyright (c) 2004 Alexander Djourik. All rights reserved.

FILE: David Byron - Take No Prisoners.flac
  Size: 260235708 Hash: 6EAF4CA6ABF791F452CDA37303895DC0 Accuracy: -m0
  Conclusion: CDDA 100%
  Signature: 0760B9CFC223F4E5B2C3F2E76E1121FF5DD1B9DB


ARISTA BMG

Продолжительность: 00:53:04

Треклист:

01. Baby faced killer (3:12)
02. Rich man's killer (3:52)
03. Sleepless nights (3:50)
04. African breeze (4:14)
05. Every body's start (4:22)
06. Heaven or hell (4:45)
07. Only you can do it (4:06)
08. Don't let me down (3:21)
09. Acetylene jean (3:21)
10. I remember (4:08)
Код:
Код: Выделить всё
Отчёт EAC об извлечении, выполненном 11. декабря 2007, 10:58 для диска:
David Byron / Baby faced killer

Дисковод: PLEXTOR CD-ROM PX-40TS   Adapter: 3  ID: 5
Режим чтения: Достоверный (C2: нет, Точный поток: да, Отключение кэша: да)
Коррекция смещения при чтении: 676
Способность читать области Lead-in и Lead-out : Да

Выходной формат: Monkey's Audio Lossless Encoder v3.99 DLL
                     Fast Lossless Compression

Другие параметры:
    Заполнение пропущенных сэмплов тишиной : Да
    Удаление блоков с тишиной в начале и конце : Нет
    Встроенный Win32-интерфейс для Win NT/2000

Характеристики диапазона извлечения и сообщения об ошибках
Выбранный диапазон
     Имя файла D:\Temp\David Byron - Baby faced killer.ape

     Пиковый уровень 100.0 %
     Качество диапазона 100.0 %
     CRC 8CEF956E
     Копирование... OK

Ошибок не произошло

Конец отчёта
Код:
Код: Выделить всё
REM DISCID 73092F0A
REM COMMENT "ExactAudioCopy v0.95b4"
PERFORMER "David Byron"
TITLE "Baby faced killer"
FILE "David Byron - Baby faced killer.wav" WAVE
  TRACK 01 AUDIO
    TITLE "Baby faced killer"
    PERFORMER "David Byron"
    INDEX 00 00:00:00
    INDEX 01 00:00:33
  TRACK 02 AUDIO
    TITLE "Rich man's killer"
    PERFORMER "David Byron"
    INDEX 00 03:10:23
    INDEX 01 03:12:40
  TRACK 03 AUDIO
    TITLE "Sleepless nights"
    PERFORMER "David Byron"
    INDEX 00 07:02:08
    INDEX 01 07:05:00
  TRACK 04 AUDIO
    TITLE "African breeze"
    PERFORMER "David Byron"
    INDEX 00 10:53:20
    INDEX 01 10:54:65
  TRACK 05 AUDIO
    TITLE "Every body's start"
    PERFORMER "David Byron"
    INDEX 00 15:06:19
    INDEX 01 15:08:35
  TRACK 06 AUDIO
    TITLE "Heaven or hell"
    PERFORMER "David Byron"
    INDEX 00 19:28:14
    INDEX 01 19:30:15
  TRACK 07 AUDIO
    TITLE "Only you can do it"
    PERFORMER "David Byron"
    INDEX 00 24:12:44
    INDEX 01 24:14:63
  TRACK 08 AUDIO
    TITLE "Don't let me down"
    PERFORMER "David Byron"
    INDEX 00 28:18:58
    INDEX 01 28:20:63
  TRACK 09 AUDIO
    TITLE "Acetylene jean"
    PERFORMER "David Byron"
    INDEX 00 31:39:18
    INDEX 01 31:42:18
  TRACK 10 AUDIO
    TITLE "I remember"
    PERFORMER "David Byron"
    INDEX 00 35:00:63
    INDEX 01 35:03:28
Код:
Код: Выделить всё
-----------------------

DON'T MODIFY THIS FILE

-----------------------

PERFORMER: auCDtect Task Manager, ver. 1.5.1RC4 build 1.5.1.5
Copyright (c) 2008-2010 y-soft. All rights reserved
http:/y-soft.org

ANALYZER: auCDtect: CD records authenticity detector, version 0.8.2
Copyright (c) 2004 Oleg Berngardt. All rights reserved.
Copyright (c) 2004 Alexander Djourik. All rights reserved.

FILE: David Byron - Baby faced killer.flac
  Size: 251344329 Hash: 5EEE2FAD9B314D7F906730BE386CDA14 Accuracy: -m0
  Conclusion: CDDA 99%
  Signature: 37EA75313C58B808D82D655CAE36AB7BD9190383


CHA Promotions

Продолжительность: 00:13:14

Треклист:

01. That Was Only Yesterday / That Was Only Yesterday (5:31)
02. Waiting For The Sun / Waiting For The Sun (3:48)
03. Pride And Joy / Pride And Joy (3:55)
Код:
Код: Выделить всё
EAC extraction logfile from 15. May 2008, 20:58 for CD
David Byron / That Was Only Yesterday

Used drive  : HL-DT-STDVDRAM GSA-H42N   Adapter: 1  ID: 0
Read mode   : Secure with NO C2, accurate stream, disable cache
Read offset correction : 667
Overread into Lead-In and Lead-Out : No

Used output format : Internal WAV Routines
                     44.100 Hz; 16 Bit; Stereo

Other options      :
    Fill up missing offset samples with silence : Yes
    Delete leading and trailing silent blocks : No
    Native Win32 interface for Win NT & 2000

Range status and errors
Selected range
     Filename D:\David Byron - That Was Only Yesterday\David Byron - That Was Only Yesterday.wav

     Peak level 100.0 %
     Range quality 100.0 %
     CRC 042C29A6
     Copy OK

No errors occured

End of status report
Код:
Код: Выделить всё
REM GENRE Rock
REM DATE 2008
REM DISCID 15031903
REM COMMENT "ExactAudioCopy v0.95b4"
PERFORMER "David Byron"
TITLE "That Was Only Yesterday"
FILE "David Byron - That Was Only Yesterday.wav" WAVE
  TRACK 01 AUDIO
    TITLE "That Was Only Yesterday / That Was Only Yesterday"
    PERFORMER "David Byron"
    FLAGS DCP
    INDEX 01 00:00:00
  TRACK 02 AUDIO
    TITLE "Waiting For The Sun / Waiting For The Sun"
    PERFORMER "David Byron"
    FLAGS DCP
    INDEX 00 05:28:66
    INDEX 01 05:30:66
  TRACK 03 AUDIO
    TITLE "Pride And Joy / Pride And Joy"
    PERFORMER "David Byron"
    FLAGS DCP
    INDEX 00 09:16:64
    INDEX 01 09:18:64
Код:
Код: Выделить всё
-----------------------

DON'T MODIFY THIS FILE

-----------------------

PERFORMER: auCDtect Task Manager, ver. 1.5.1RC4 build 1.5.1.5
Copyright (c) 2008-2010 y-soft. All rights reserved
http:/y-soft.org

ANALYZER: auCDtect: CD records authenticity detector, version 0.8.2
Copyright (c) 2004 Oleg Berngardt. All rights reserved.
Copyright (c) 2004 Alexander Djourik. All rights reserved.

FILE: David Byron - That Was Only Yesterday.flac
  Size: 84642736 Hash: 28932DCC4C14712726A7A09D9D8E037C Accuracy: -m0
  Conclusion: CDDA 100%
  Signature: 60DEAEA0B0AF46948A0C9F36506698755C619F48


Germany Repertoire Records REP 4341-WY

Продолжительность: 00:53:04

Треклист:

01. Rebecca (3:58)
02. Bad Girl (4:54)
03. How Do You Sleep ? (6:10)
04. Little By Little (3:55)
05. Start Believing (4:04)
06. Never Say Die (4:26)
07. King (3:40)
08. Piece Of My Love (6:48)
09. Every Inch Of The Way (short version) (3:27)
10. Routine (3:55)
11. Tired Eyes (2:42)
12. Every Inch Of The Way (long version) (5:04)
Код:
Код: Выделить всё
Exact Audio Copy V0.99 prebeta 5 from 4. May 2009

Отчёт EAC об извлечении, выполненном 29. сентября 2009, 13:27

The Byron Band / On The Rocks

Дисковод: Optiarc DVD RW AD-7201S   Adapter: 1  ID: 1

Режим чтения                 : Достоверность
Использование точного потока : Да
Отключение кэша аудио        : Да
Использование указателей C2  : Нет

Коррекция смещения при чтении                     : 48
Способность читать области Lead-in и Lead-out     : Нет
Заполнение пропущенных сэмплов тишиной            : Да
Удаление блоков с тишиной в начале и конце        : Нет
При вычислениях CRC использовались нулевые сэмплы : Да
Интерфейс                                         : Установленный внешний ASPI-интерфейс

Выходной формат : Внутренние WAV-операции
Формат сэмплов  : 44.100 Гц; 16 бит; стерео

TOC извлечённого CD

     Трек |   Старт  | Длительность | Начальный сектор | Конечный сектор
    ---------------------------------------------------------------------
       1  |  0:00.00 |    3:57.65   |           0      |      17839
       2  |  3:57.65 |    4:53.60   |       17840      |      39874
       3  |  8:51.50 |    6:09.45   |       39875      |      67594
       4  | 15:01.20 |    3:55.20   |       67595      |      85239
       5  | 18:56.40 |    4:04.20   |       85240      |     103559
       6  | 23:00.60 |    4:26.05   |      103560      |     123514
       7  | 27:26.65 |    3:39.70   |      123515      |     140009
       8  | 31:06.60 |    6:48.35   |      140010      |     170644
       9  | 37:55.20 |    3:27.35   |      170645      |     186204
      10  | 41:22.55 |    3:55.30   |      186205      |     203859
      11  | 45:18.10 |    2:41.65   |      203860      |     215999
      12  | 48:00.00 |    5:04.15   |      216000      |     238814

Характеристики диапазона извлечения и сообщения об ошибках

Выбранный диапазон

     Имя файла D:\Documents and Settings\Rodexx\Рабочий стол\Byron Band, The - On The Rocks\The Byron Band - On The Rocks.wav

     Пиковый уровень 99.0 %
     Качество диапазона 100.0 %
     CRC теста FCC1163A
     CRC копии FCC1163A
     Копирование... OK

Ошибок не произошло

AccurateRip: сводка

Трек  1  нет в базе данных
Трек  2  нет в базе данных
Трек  3  нет в базе данных
Трек  4  нет в базе данных
Трек  5  нет в базе данных
Трек  6  нет в базе данных
Трек  7  нет в базе данных
Трек  8  нет в базе данных
Трек  9  нет в базе данных
Трек 10  нет в базе данных
Трек 11  нет в базе данных
Трек 12  нет в базе данных

Ни одного трека нет в базе AccurateRip

Конец отчёта
Код:
Код: Выделить всё
REM ACCURATERIPID 00184f48-00e1c059-af0c700c
REM GENRE "Rock"
REM DATE 1981
REM DISCID AF0C700C
REM COMMENT "ExactAudioCopy v0.99pb5"
PERFORMER "The Byron Band"
TITLE "On The Rocks"
FILE "The Byron Band - On The Rocks.flac" WAVE
  TRACK 01 AUDIO
    TITLE "Rebecca"
    PERFORMER "The Byron Band"
    FLAGS DCP
    INDEX 01 00:00:00
  TRACK 02 AUDIO
    TITLE "Bad Girl"
    PERFORMER "The Byron Band"
    FLAGS DCP
    INDEX 01 03:57:65
  TRACK 03 AUDIO
    TITLE "How Do You Sleep ?"
    PERFORMER "The Byron Band"
    FLAGS DCP
    INDEX 01 08:51:50
  TRACK 04 AUDIO
    TITLE "Little By Little"
    PERFORMER "The Byron Band"
    FLAGS DCP
    INDEX 01 15:01:20
  TRACK 05 AUDIO
    TITLE "Start Believing"
    PERFORMER "The Byron Band"
    FLAGS DCP
    INDEX 01 18:56:40
  TRACK 06 AUDIO
    TITLE "Never Say Die"
    PERFORMER "The Byron Band"
    FLAGS DCP
    INDEX 01 23:00:60
  TRACK 07 AUDIO
    TITLE "King"
    PERFORMER "The Byron Band"
    FLAGS DCP
    INDEX 01 27:26:65
  TRACK 08 AUDIO
    TITLE "Piece Of My Love"
    PERFORMER "The Byron Band"
    FLAGS DCP
    INDEX 01 31:06:60
  TRACK 09 AUDIO
    TITLE "Every Inch Of The Way (short version)"
    PERFORMER "The Byron Band"
    FLAGS DCP
    INDEX 01 37:55:20
  TRACK 10 AUDIO
    TITLE "Routine"
    PERFORMER "The Byron Band"
    FLAGS DCP
    INDEX 01 41:22:55
  TRACK 11 AUDIO
    TITLE "Tired Eyes"
    PERFORMER "The Byron Band"
    FLAGS DCP
    INDEX 01 45:18:10
  TRACK 12 AUDIO
    TITLE "Every Inch Of The Way (long version)"
    PERFORMER "The Byron Band"
    FLAGS DCP
    INDEX 01 48:00:00
Код:
Код: Выделить всё
-----------------------

DON'T MODIFY THIS FILE

-----------------------

PERFORMER: auCDtect Task Manager, ver. 1.5.1RC4 build 1.5.1.5
Copyright (c) 2008-2010 y-soft. All rights reserved
http:/y-soft.org

ANALYZER: auCDtect: CD records authenticity detector, version 0.8.2
Copyright (c) 2004 Oleg Berngardt. All rights reserved.
Copyright (c) 2004 Alexander Djourik. All rights reserved.

FILE: The Byron Band - On The Rocks.flac
  Size: 378664099 Hash: BB49FD5E373852ABDAAD3626D49ABC11 Accuracy: -m0
  Conclusion: CDDA 100%
  Signature: A94980E1DA0BFF29B73CC568FDBB0FA39A4A311A


Angel Air Records SJPCD312

Продолжительность: 01:52:24

Треклист:
Продолжительность: 00:37:51

01. Bad Girl (5:13)
02. Fool For A Pretty Face (3:07)
03. Need Love (4:24)
04. Safety In Numbers (3:53)
05. Still Wanna Hold You (5:59)
06. Gets A Little Crazy (4:13)
07. Learn The Dance (3:15)
08. What's You Game (3:31)
09. One Minute More (4:15)
Код:
Код: Выделить всё
Exact Audio Copy V0.99 prebeta 5 from 4. May 2009

Отчёт EAC об извлечении, выполненном 13. ноября 2010, 21:32

DAVID  BYRON  BAND / Lost  And  Found

Дисковод: TSSTcorpCD/DVDW SH-W162C   Adapter: 5  ID: 0

Режим чтения                 : Достоверность
Использование точного потока : Да
Отключение кэша аудио        : Да
Использование указателей C2  : Нет

Коррекция смещения при чтении                     : 6
Способность читать области Lead-in и Lead-out     : Нет
Заполнение пропущенных сэмплов тишиной            : Да
Удаление блоков с тишиной в начале и конце        : Нет
При вычислениях CRC использовались нулевые сэмплы : Да
Интерфейс                                         : Установленный внешний ASPI-интерфейс

Выходной формат : Внутренние WAV-операции
Формат сэмплов  : 44.100 Гц; 16 бит; стерео

TOC извлечённого CD

     Трек |   Старт  | Длительность | Начальный сектор | Конечный сектор
    ---------------------------------------------------------------------
       1  |  0:00.00 |    5:13.20   |           0      |      23494
       2  |  5:13.20 |    3:07.18   |       23495      |      37537
       3  |  8:20.38 |    4:24.07   |       37538      |      57344
       4  | 12:44.45 |    3:53.22   |       57345      |      74841
       5  | 16:37.67 |    5:59.04   |       74842      |     101770
       6  | 22:36.71 |    4:13.22   |      101771      |     120767
       7  | 26:50.18 |    3:14.68   |      120768      |     135385
       8  | 30:05.11 |    3:31.11   |      135386      |     151221
       9  | 33:36.22 |    4:14.61   |      151222      |     170332

Характеристики диапазона извлечения и сообщения об ошибках

Выбранный диапазон

     Имя файла C:\байрон-1\DAVID  BYRON  BAND - Lost  And  Found.wav

     Пиковый уровень 100.0 %
     Качество диапазона 100.0 %
     CRC теста 7B001367
     CRC копии 7B001367
     Копирование... OK

Ошибок не произошло

AccurateRip: сводка

Трек  1  нет в базе данных
Трек  2  нет в базе данных
Трек  3  нет в базе данных
Трек  4  нет в базе данных
Трек  5  нет в базе данных
Трек  6  нет в базе данных
Трек  7  нет в базе данных
Трек  8  нет в базе данных
Трек  9  нет в базе данных

Ни одного трека нет в базе AccurateRip

Конец отчёта
Код:
Код: Выделить всё
REM GENRE Rock
REM DATE 2009
REM DISCID 7608DF09
REM COMMENT "ExactAudioCopy v0.99pb5"
PERFORMER "DAVID  BYRON  BAND"
TITLE "Lost  And  Found"
FILE "David Byron Band  - Lost And Found CD 1.flac" WAVE
  TRACK 01 AUDIO
    TITLE "Bad Girl"
    PERFORMER "DAVID  BYRON  BAND"
    INDEX 01 00:00:00
  TRACK 02 AUDIO
    TITLE "Fool For A Pretty Face"
    PERFORMER "DAVID  BYRON  BAND"
    INDEX 01 05:13:20
  TRACK 03 AUDIO
    TITLE "Need Love"
    PERFORMER "DAVID  BYRON  BAND"
    INDEX 01 08:20:38
  TRACK 04 AUDIO
    TITLE "Safety In Numbers"
    PERFORMER "DAVID  BYRON  BAND"
    INDEX 01 12:44:45
  TRACK 05 AUDIO
    TITLE "Still Wanna Hold You"
    PERFORMER "DAVID  BYRON  BAND"
    INDEX 01 16:37:67
  TRACK 06 AUDIO
    TITLE "Gets A Little Crazy"
    PERFORMER "DAVID  BYRON  BAND"
    INDEX 01 22:36:71
  TRACK 07 AUDIO
    TITLE "Learn The Dance"
    PERFORMER "DAVID  BYRON  BAND"
    INDEX 01 26:50:18
  TRACK 08 AUDIO
    TITLE "What's You Game"
    PERFORMER "DAVID  BYRON  BAND"
    INDEX 01 30:05:11
  TRACK 09 AUDIO
    TITLE "One Minute More"
    PERFORMER "DAVID  BYRON  BAND"
    INDEX 01 33:36:22
Код:
Код: Выделить всё
-----------------------

DON'T MODIFY THIS FILE

-----------------------

PERFORMER: auCDtect Task Manager, ver. 1.5.1RC4 build 1.5.1.5
Copyright (c) 2008-2010 y-soft. All rights reserved
http:/y-soft.org

ANALYZER: auCDtect: CD records authenticity detector, version 0.8.2
Copyright (c) 2004 Oleg Berngardt. All rights reserved.
Copyright (c) 2004 Alexander Djourik. All rights reserved.

FILE: David Byron Band  - Lost And Found CD 1.flac
  Size: 263041250 Hash: 1162F8A5F89EA59C74E1E9B541FE3114 Accuracy: -m0
  Conclusion: CDDA 100%
  Signature: F6B1CACBC013B04C67257AF16B3409221892C6EC
Продолжительность: 01:14:33

01. How Do You Sleep? (5:43)
02. Safety In Numbers (6:15)
03. I Need Love (5:29)
04. Piece Of My Love (6:04)
05. Goodnight Blues (2:13)
06. Last Chance Jam (2:25)

Live In Liverpool 1980

07. Bad Girl (5:17)
08. Start Believing (4:17)
09. July Morning (7:35)
10. How Do You Sleep (5:41)
11. Sweet Lorraine (5:05)
12. Piece Of My Love (7:16)
13. Liverpool Blues (2:58)
14. Roll Over Beethoven (2:48)
15. Angel Song (bonus track) (5:27)
Код:
Код: Выделить всё
Exact Audio Copy V0.99 prebeta 5 from 4. May 2009

Отчёт EAC об извлечении, выполненном 13. ноября 2010, 23:23

DAVID  BYRON  BAND / Lost  And  Found

Дисковод: TSSTcorpCD/DVDW SH-W162C   Adapter: 5  ID: 0

Режим чтения                 : Достоверность
Использование точного потока : Да
Отключение кэша аудио        : Да
Использование указателей C2  : Нет

Коррекция смещения при чтении                     : 6
Способность читать области Lead-in и Lead-out     : Нет
Заполнение пропущенных сэмплов тишиной            : Да
Удаление блоков с тишиной в начале и конце        : Нет
При вычислениях CRC использовались нулевые сэмплы : Да
Интерфейс                                         : Установленный внешний ASPI-интерфейс

Выходной формат : Внутренние WAV-операции
Формат сэмплов  : 44.100 Гц; 16 бит; стерео

TOC извлечённого CD

     Трек |   Старт  | Длительность | Начальный сектор | Конечный сектор
    ---------------------------------------------------------------------
       1  |  0:00.00 |    5:42.56   |           0      |      25705
       2  |  5:42.56 |    6:15.25   |       25706      |      53855
       3  | 11:58.06 |    5:29.14   |       53856      |      78544
       4  | 17:27.20 |    6:04.20   |       78545      |     105864
       5  | 23:31.40 |    2:13.22   |      105865      |     115861
       6  | 25:44.62 |    2:24.48   |      115862      |     126709
       7  | 28:09.35 |    5:16.73   |      126710      |     150482
       8  | 33:26.33 |    4:17.29   |      150483      |     169786
       9  | 37:43.62 |    7:35.34   |      169787      |     203945
      10  | 45:19.21 |    5:40.70   |      203946      |     229515
      11  | 51:00.16 |    5:05.09   |      229516      |     252399
      12  | 56:05.25 |    7:15.45   |      252400      |     285069
      13  | 63:20.70 |    2:57.41   |      285070      |     298385
      14  | 66:18.36 |    2:47.59   |      298386      |     310969
      15  | 69:06.20 |    5:26.65   |      310970      |     335484

Характеристики диапазона извлечения и сообщения об ошибках

Выбранный диапазон

     Имя файла C:\байрон-2\DAVID  BYRON  BAND - Lost  And  Found.wav

     Пиковый уровень 100.0 %
     Качество диапазона 100.0 %
     CRC теста A145B049
     CRC копии A145B049
     Копирование... OK

Ошибок не произошло

AccurateRip: сводка

Трек  1  нет в базе данных
Трек  2  нет в базе данных
Трек  3  нет в базе данных
Трек  4  нет в базе данных
Трек  5  нет в базе данных
Трек  6  нет в базе данных
Трек  7  нет в базе данных
Трек  8  нет в базе данных
Трек  9  нет в базе данных
Трек 10  нет в базе данных
Трек 11  нет в базе данных
Трек 12  нет в базе данных
Трек 13  нет в базе данных
Трек 14  нет в базе данных
Трек 15  нет в базе данных

Ни одного трека нет в базе AccurateRip

Конец отчёта
Код:
Код: Выделить всё
REM GENRE ROCK
REM DATE 2009
REM DISCID C311790F
REM COMMENT "ExactAudioCopy v0.99pb5"
PERFORMER "DAVID  BYRON  BAND"
TITLE "Lost  And  Found"
FILE "David Byron Band  - Lost And Found CD 2.flac" WAVE
  TRACK 01 AUDIO
    TITLE "How Do You Sleep?"
    PERFORMER "DAVID  BYRON  BAND"
    INDEX 01 00:00:00
  TRACK 02 AUDIO
    TITLE "Safety In Numbers"
    PERFORMER "DAVID  BYRON  BAND"
    INDEX 01 05:42:56
  TRACK 03 AUDIO
    TITLE "I Need Love"
    PERFORMER "DAVID  BYRON  BAND"
    INDEX 01 11:58:06
  TRACK 04 AUDIO
    TITLE "Piece Of My Love"
    PERFORMER "DAVID  BYRON  BAND"
    INDEX 01 17:27:20
  TRACK 05 AUDIO
    TITLE "Goodnight Blues"
    PERFORMER "DAVID  BYRON  BAND"
    INDEX 01 23:31:40
  TRACK 06 AUDIO
    TITLE "Last Chance Jam"
    PERFORMER "DAVID  BYRON  BAND"
    INDEX 01 25:44:62
  TRACK 07 AUDIO
    TITLE "Bad Girl"
    PERFORMER "DAVID  BYRON  BAND"
    INDEX 01 28:09:35
  TRACK 08 AUDIO
    TITLE "Start Believing"
    PERFORMER "DAVID  BYRON  BAND"
    INDEX 01 33:26:33
  TRACK 09 AUDIO
    TITLE "July Morning"
    PERFORMER "DAVID  BYRON  BAND"
    INDEX 01 37:43:62
  TRACK 10 AUDIO
    TITLE "How Do You Sleep"
    PERFORMER "DAVID  BYRON  BAND"
    INDEX 01 45:19:21
  TRACK 11 AUDIO
    TITLE "Sweet Lorraine"
    PERFORMER "DAVID  BYRON  BAND"
    INDEX 01 51:00:16
  TRACK 12 AUDIO
    TITLE "Piece Of My Love"
    PERFORMER "DAVID  BYRON  BAND"
    INDEX 01 56:05:25
  TRACK 13 AUDIO
    TITLE "Liverpool Blues"
    PERFORMER "DAVID  BYRON  BAND"
    INDEX 01 63:20:70
  TRACK 14 AUDIO
    TITLE "Roll Over Beethoven"
    PERFORMER "DAVID  BYRON  BAND"
    INDEX 01 66:18:36
  TRACK 15 AUDIO
    TITLE "Angel Song  (bonus track)"
    PERFORMER "DAVID  BYRON  BAND"
    INDEX 01 69:06:20
Код:
Код: Выделить всё
-----------------------

DON'T MODIFY THIS FILE

-----------------------

PERFORMER: auCDtect Task Manager, ver. 1.5.1RC4 build 1.5.1.5
Copyright (c) 2008-2010 y-soft. All rights reserved
http:/y-soft.org

ANALYZER: auCDtect: CD records authenticity detector, version 0.8.2
Copyright (c) 2004 Oleg Berngardt. All rights reserved.
Copyright (c) 2004 Alexander Djourik. All rights reserved.

FILE: David Byron Band  - Lost And Found CD 2.flac
  Size: 431291152 Hash: 184022974752F7E97B3182F1B150A0C8 Accuracy: -m0
  Conclusion: CDDA 99%
  Signature: E7DE5B0DC2C9C9E303C955A2A779628F4A07043A


Damage Control Music inc.

Продолжительность: 01:20:68

Треклист:

01. Bad Girl (Byron/George) (5:05)
02. Fool For a Pretty Face (Byron/George) (3:00)
03. I Need Love (Byron/George) (4:23)
04. I Still Wanna Hold You (Byron/Boone/George) (5:58)
05. It Gets a Little Crazy (Byron/Boone/George) (4:14)
06. One Minute More (Byron/George) (3:17)
07. Safety in Numbers (Byron/George) (4:12)
08. Learn The Dance (Byron/Boone) (3:50)
09. What's Your Game (Byron/Boone/George) (3:29)
10. Rebecca (Byron/George) (3:55)
11. Interview 1 (5:09)
12. Bad Girl (Byron/George) (4:04)
13. Interview 2 (2:21)
14. Start Believing (Byron/George) (3:17)
15. Interview 3 (2:36)
16. Never Say Die (Byron/George) (3:45)
17. Interview 4 (1:32)
18. Little By Little (Byron/George) (2:30)
19. Interview 5 (3:40)
20. Piece Of My Love (Byron/George) (5:12)
21. Angelsong (George) (5:25)
Код:
Код: Выделить всё
-----------------------

DON'T MODIFY THIS FILE

-----------------------

PERFORMER: auCDtect Task Manager, ver. 1.5.1RC4 build 1.5.1.5
Copyright (c) 2008-2010 y-soft. All rights reserved
http:/y-soft.org

ANALYZER: auCDtect: CD records authenticity detector, version 0.8.2
Copyright (c) 2004 Oleg Berngardt. All rights reserved.
Copyright (c) 2004 Alexander Djourik. All rights reserved.

FILE: David Byron & The Byron Band - One Minute More.ape
  Size: 546105160 Hash: AFC4F76DAA242D4DE44952BD1B9CE8DA Accuracy: -m0
  Conclusion: CDDA 100%
  Signature: 993BA759CD00C092DB582CF38D3E3E1AC031C25E
Код:
Код: Выделить всё
REM GENRE "Hard Rock"
REM DATE 2008
REM DISCID 3612F515
REM COMMENT "ExactAudioCopy v0.99pb4"
PERFORMER "David Byron & The Byron Band"
TITLE "One Minute More"
FILE "David Byron & The Byron Band - One Minute More.wav" WAVE
  TRACK 01 AUDIO
    TITLE "1. BAD GIRL (Byron/George)"
    PERFORMER "David Byron & The Byron Band"
    INDEX 01 00:00:00
  TRACK 02 AUDIO
    TITLE "2. FOOL FOR A PRETTY FACE (Byron/George)"
    PERFORMER "David Byron & The Byron Band"
    INDEX 01 05:05:36
  TRACK 03 AUDIO
    TITLE "3. I NEED LOVE (Byron/George)"
    PERFORMER "David Byron & The Byron Band"
    INDEX 01 08:05:58
  TRACK 04 AUDIO
    TITLE "4. I STILL WANNA HOLD YOU (Byron/Boone/George)"
    PERFORMER "David Byron & The Byron Band"
    INDEX 01 12:28:48
  TRACK 05 AUDIO
    TITLE "5. IT GETS A LITTLE CRAZY (Byron/Boone/George)"
    PERFORMER "David Byron & The Byron Band"
    INDEX 01 18:26:47
  TRACK 06 AUDIO
    TITLE "6. ONE MINUTE MORE (Byron/George)"
    PERFORMER "David Byron & The Byron Band"
    INDEX 01 22:40:10
  TRACK 07 AUDIO
    TITLE "7. SAFETY IN NUMBERS (Byron/George)"
    PERFORMER "David Byron & The Byron Band"
    INDEX 01 25:56:48
  TRACK 08 AUDIO
    TITLE "8. LEARN THE DANCE (Byron/Boone)"
    PERFORMER "David Byron & The Byron Band"
    INDEX 01 30:09:01
  TRACK 09 AUDIO
    TITLE "9. WHATS YOUR GAME (Byron/Boone/George)"
    PERFORMER "David Byron & The Byron Band"
    INDEX 01 33:58:66
  TRACK 10 AUDIO
    TITLE "10. REBECCA (Byron/George)"
    PERFORMER "David Byron & The Byron Band"
    INDEX 01 37:28:01
  TRACK 11 AUDIO
    TITLE "11. INTERVIEW 1"
    PERFORMER "David Byron & The Byron Band"
    INDEX 01 41:22:67
  TRACK 12 AUDIO
    TITLE "12. BAD GIRL (Byron/George)"
    PERFORMER "David Byron & The Byron Band"
    INDEX 01 46:31:38
  TRACK 13 AUDIO
    TITLE "13. INTERVIEW 2"
    PERFORMER "David Byron & The Byron Band"
    INDEX 01 50:35:16
  TRACK 14 AUDIO
    TITLE "14. START BELIEVING (Byron/George)"
    PERFORMER "David Byron & The Byron Band"
    INDEX 01 52:56:25
  TRACK 15 AUDIO
    TITLE "15. INTERVIEW 3"
    PERFORMER "David Byron & The Byron Band"
    INDEX 01 56:12:70
  TRACK 16 AUDIO
    TITLE "16. NEVER SAY DIE (Byron/George)"
    PERFORMER "David Byron & The Byron Band"
    INDEX 01 58:48:54
  TRACK 17 AUDIO
    TITLE "17. INTERVIEW 4"
    PERFORMER "David Byron & The Byron Band"
    INDEX 01 62:34:05
  TRACK 18 AUDIO
    TITLE "18. LITTLE BY LITTLE (Byron/George)"
    PERFORMER "David Byron & The Byron Band"
    INDEX 01 64:06:06
  TRACK 19 AUDIO
    TITLE "19. INTERVIEW 5"
    PERFORMER "David Byron & The Byron Band"
    INDEX 01 66:36:33
  TRACK 20 AUDIO
    TITLE "20. PIECE OF MY LOVE (Byron/George)"
    PERFORMER "David Byron & The Byron Band"
    INDEX 01 70:16:68
  TRACK 21 AUDIO
    TITLE "21. ANGELSONG (George)"
    PERFORMER "David Byron & The Byron Band"
    INDEX 01 75:28:42


1977 Island Records IMCD 55 219490-2

Продолжительность: 00:42:45

Треклист:

01. Rock'N'Roll (3:28)
02. Lookin' For You (4:07)
03. Lock And Key (4:58)
04. Seasong (7:35)
05. By The Horn (3:13)
06. Scared (5:34)
07. Hobo (5:45)
08. The Link (2:19)
09. End Of The Line (5:46)
Код:
Код: Выделить всё
Exact Audio Copy V0.99 prebeta 4 from 23. January 2008

Отчёт EAC об извлечении, выполненном 20. февраля 2008, 18:54

Rough Diamond / Rough Diamond

Дисковод: _NEC    DVD_RW ND-3540A   Adapter: 3  ID: 0

Режим чтения                 : Достоверность
Использование точного потока : Да
Отключение кэша аудио        : Да
Использование указателей C2  : Нет

Коррекция смещения при чтении                     : 48
Способность читать области Lead-in и Lead-out     : Нет
Заполнение пропущенных сэмплов тишиной            : Да
Удаление блоков с тишиной в начале и конце        : Нет
При вычислениях CRC использовались нулевые сэмплы : Да
Интерфейс                                         : Установленный внешний ASPI-интерфейс

Выходной формат : Внутренние WAV-операции
Формат сэмплов  : 44.100 Гц; 16 бит; стерео

TOC извлечённого CD

     Трек |   Старт  | Длительность | Начальный сектор | Конечный сектор
    ---------------------------------------------------------------------
       1  |  0:00.00 |    3:28.10   |           0      |      15609
       2  |  3:28.10 |    4:06.46   |       15610      |      34105
       3  |  7:34.56 |    4:58.32   |       34106      |      56487
       4  | 12:33.13 |    7:34.64   |       56488      |      90601
       5  | 20:08.02 |    3:13.10   |       90602      |     105086
       6  | 23:21.12 |    5:33.42   |      105087      |     130103
       7  | 28:54.54 |    5:45.05   |      130104      |     155983
       8  | 34:39.59 |    2:18.66   |      155984      |     166399
       9  | 36:58.50 |    5:46.19   |      166400      |     192368

Характеристики диапазона извлечения и сообщения об ошибках

Выбранный диапазон

     Имя файла F:\Volk\EAC\Rough Diamond - Rough Diamond.wav

     Пиковый уровень 98.8 %
     Качество диапазона 100.0 %
     CRC теста 7B8E737E
     CRC копии 7B8E737E
     Копирование... OK

Ошибок не произошло

Конец отчёта
Код:
Код: Выделить всё
REM GENRE Rock
REM DATE 1977
REM DISCID 530A0409
REM COMMENT "ExactAudioCopy v0.99pb4"
PERFORMER "Rough Diamond"
TITLE "Rough Diamond"
FILE "Rough Diamond - Rough Diamond.wav" WAVE
  TRACK 01 AUDIO
    TITLE "Rock'N'Roll"
    PERFORMER "Rough Diamond"
    INDEX 01 00:00:00
  TRACK 02 AUDIO
    TITLE "Lookin' For You"
    PERFORMER "Rough Diamond"
    INDEX 00 03:27:73
    INDEX 01 03:28:10
  TRACK 03 AUDIO
    TITLE "Lock And Key"
    PERFORMER "Rough Diamond"
    INDEX 00 07:33:57
    INDEX 01 07:34:56
  TRACK 04 AUDIO
    TITLE "Seasong"
    PERFORMER "Rough Diamond"
    INDEX 00 12:30:14
    INDEX 01 12:33:13
  TRACK 05 AUDIO
    TITLE "By The Horn"
    PERFORMER "Rough Diamond"
    INDEX 00 20:06:02
    INDEX 01 20:08:02
  TRACK 06 AUDIO
    TITLE "Scared"
    PERFORMER "Rough Diamond"
    INDEX 00 23:19:12
    INDEX 01 23:21:12
  TRACK 07 AUDIO
    TITLE "Hobo"
    PERFORMER "Rough Diamond"
    INDEX 00 28:52:54
    INDEX 01 28:54:54
  TRACK 08 AUDIO
    TITLE "The Link"
    PERFORMER "Rough Diamond"
    INDEX 01 34:39:59
  TRACK 09 AUDIO
    TITLE "End Of The Line"
    PERFORMER "Rough Diamond"
    INDEX 01 36:58:50
Код:
Код: Выделить всё
-----------------------

DON'T MODIFY THIS FILE

-----------------------

PERFORMER: auCDtect Task Manager, ver. 1.5.1RC4 build 1.5.1.5
Copyright (c) 2008-2010 y-soft. All rights reserved
http:/y-soft.org

ANALYZER: auCDtect: CD records authenticity detector, version 0.8.2
Copyright (c) 2004 Oleg Berngardt. All rights reserved.
Copyright (c) 2004 Alexander Djourik. All rights reserved.

FILE: Rough Diamond - Rough Diamond.flac
  Size: 275319008 Hash: 199D283CFF4F905E1DD2BD851147FD51 Accuracy: -m0
  Conclusion: CDDA 100%
  Signature: 7A5A133F11E4CE43EF00537775556382A71A5EE0


Торрент обновлен 27.02.16г.
Правила, инструкции, FAQ!!!
Торрент  Добавлен [27 фев 2016, 14:30] Скачать торрент Магнет ссылка
Скачать торрент
20.38 КБ

Статус
Проверен Admin (27 фев 2016, 14:31)
 
Размер  2.36 ГБ
Приватный: Нет (DHT включён)
.torrent скачан  14
Как залить торрент? | Как скачать Torrent? | Как смотреть и слушать онлайн?  
Гость
 



Вернуться в Дискографии (Зарубежные)

Кто сейчас на конференции

Сейчас этот форум просматривают: нет зарегистрированных пользователей и гости: 0