Цунами 3D / Bait (2012) [1080p] BDRip [Вертикальная анаморфная стереопара 3D]

Статистика раздачи
Размер: 9.16 ГБ | Добавлен: 28 сен 2013, 23:19 | Скачали: 0
Сидеров: 10  [0 байт/сек]    Личеров: 6  [0 байт/сек]

Сообщение Admin » 28 сен 2013, 23:19

Цунами 3D / Bait (2012) BDRip


«Охота началась»
Русское название: Цунами 3D
Оригинальное название: Bait
Год выпуска: 2012
Производство: Bait Productions / Blackmagic Design / Blackmagic Design Films / Screen Australia [Австралия, Сингапур]
Жанр: Ужасы, боевик, триллер
Перевод: Дублированный (лицензия) / Одноголосый закадровый (Студия «Райдо»)
Субтитры: Вшитые отключаемые
Язык субтитров: Русский, английский

Режиссер: Кимбл Рендалл
Актеры: Завьер Сэмюэл, Шарни Винсон, Адриан Пэнг, Юйу Ци, Алекс Расселл, Фиби Тонкин, Мартин Сакс, Элис Паркинсон, Джулиан МакМэхон, Дэниэл Уилли

Описание фильма:
Чудовищное цунами обрушивается на курортный город. Из морских глубин на затопленные улицы вырываются голодные и жаждущие крови акулы. Начинается охота. Оказавшись в ловушке стихии, чудом уцелевшие люди пытаются выжить. Сможет ли Джош спасти жизнь девушки, которую он всегда любил, но однажды уже потерял?

Дата мировой премьеры: 5 сентября 2012
Дата российской премьеры: 27 сентября 2012, «Каскад»
Дата выхода DVD релиза: 1 ноября 2012, «CP Дистрибуция»
Дата выхода Blu-Ray релиза: 1 ноября 2012, «CP Дистрибуция»



Продолжительность: 01:29:03
Качество видео: BDRip
Видео: MPEG4_AVC/H.264, 1920x1080, ~12.0 Мbps, Bit/Pixel: 0.242
Аудио 1: AC3 5.1, 640 kbps [Русский - дублированный]
Аудио 2: AC3 5.1, 448 kbps [Русский - Одноголосый закадровый]
Аудио 3: AC3 5.1, 640 kbps [Английский - оригинал]
Полное имя : D:\Цунами.3D-Bait.(2012).[1080p].BDRip.[3D].mkv
Формат : Matroska
Версия формата : Version 2
Размер файла : 9,16 Гбайт
Продолжительность : 1 ч. 33 м.
Общий поток : 14,1 Мбит/сек
Дата кодирования : UTC 2012-10-30 09:10:52
Программа кодирования : mkvmerge v5.7.0 ('The Whirlwind') built on Aug 7 2012 14:11:40
Библиотека кодирования : libebml v1.2.3 + libmatroska v1.3.0

Видео
Идентификатор : 1
Формат : AVC
Формат/Информация : Advanced Video Codec
Профиль формата :
Параметр CABAC формата : Да
Параметр ReFrames формата : 4 кадра
Идентификатор кодека : V_MPEG4/ISO/AVC
Продолжительность : 1 ч. 33 м.
Битрейт : 12,0 Мбит/сек
Ширина : 1920 пикселей
Высота : 1080 пикселей
Соотношение сторон : 16:9
Режим частоты кадров : Постоянный
Частота кадров : 23,976 кадра/сек
Частота кадров в оригинале : 25,000 кадров/сек
Цветовое пространство : YUV
Субдискретизация насыщенности : 4:2:0
Битовая глубина : 8 бит
Тип развёртки : Прогрессивная
Бит/(Пиксели*Кадры) : 0.242
Размер потока : 7,85 Гбайт (86%)
Библиотека кодирования : x264 core 119 r2106 07efeb4
Настройки программы : cabac=1 / ref=4 / deblock=1:-3:-3 / analyse=0x3:0x113 / me=umh / subme=9 / psy=1 / psy_rd=1.00:0.15 / mixed_ref=1 / me_range=16 / chroma_me=1 / trellis=2 / 8x8dct=1 / cqm=0 / deadzone=21,11 / fast_pskip=1 / chroma_qp_offset=-3 / threads=12 / sliced_threads=0 / nr=0 / decimate=1 / interlaced=0 / bluray_compat=0 / constrained_intra=0 / bframes=6 / b_pyramid=2 / b_adapt=2 / b_bias=0 / direct=3 / weightb=1 / open_gop=0 / weightp=2 / keyint=250 / keyint_min=25 / scenecut=40 / intra_refresh=0 / rc_lookahead=60 / rc=crf / mbtree=1 / crf=16.0 / qcomp=0.60 / qpmin=10 / qpmax=51 / qpstep=4 / vbv_maxrate=40000 / vbv_bufsize=40000 / crf_max=0.0 / nal_hrd=none / frame-packing=4 / ip_ratio=1.40 / aq=1:0.70
Язык : English
Default : Да
Forced : Нет

Аудио #1
Идентификатор : 2
Формат : AC-3
Формат/Информация : Audio Coding 3
Расширение режима : CM (complete main)
Параметр Endianness формата : Big
Идентификатор кодека : A_AC3
Продолжительность : 1 ч. 33 м.
Вид битрейта : Постоянный
Битрейт : 640 Кбит/сек
Каналы : 6 каналов
Расположение каналов : Front: L C R, Side: L R, LFE
Частота : 48,0 КГц
Битовая глубина : 16 бит
Метод сжатия : С потерями
Размер потока : 427 Мбайт (5%)
Заголовок : Дублированный (лицензия)
Язык : Russian
Default : Да
Forced : Нет

Аудио #2
Идентификатор : 3
Формат : AC-3
Формат/Информация : Audio Coding 3
Расширение режима : CM (complete main)
Параметр Endianness формата : Big
Идентификатор кодека : A_AC3
Продолжительность : 1 ч. 33 м.
Вид битрейта : Постоянный
Битрейт : 448 Кбит/сек
Каналы : 6 каналов
Расположение каналов : Front: L C R, Side: L R, LFE
Частота : 48,0 КГц
Битовая глубина : 16 бит
Метод сжатия : С потерями
Размер потока : 299 Мбайт (3%)
Заголовок : Одноголосый закадровый (Студия «Райдо»)
Язык : Russian
Default : Нет
Forced : Нет

Аудио #3
Идентификатор : 4
Формат : AC-3
Формат/Информация : Audio Coding 3
Расширение режима : CM (complete main)
Параметр Endianness формата : Big
Идентификатор кодека : A_AC3
Продолжительность : 1 ч. 33 м.
Вид битрейта : Постоянный
Битрейт : 640 Кбит/сек
Каналы : 6 каналов
Расположение каналов : Front: L C R, Side: L R, LFE
Частота : 48,0 КГц
Битовая глубина : 16 бит
Метод сжатия : С потерями
Размер потока : 427 Мбайт (5%)
Язык : English
Default : Нет
Forced : Нет

Текст #1
Идентификатор : 5
Формат : UTF-8
Идентификатор кодека : S_TEXT/UTF8
Идентификатор кодека/Информация : UTF-8 Plain Text
Язык : Russian
Default : Нет
Forced : Нет

Текст #2
Идентификатор : 6
Формат : UTF-8
Идентификатор кодека : S_TEXT/UTF8
Идентификатор кодека/Информация : UTF-8 Plain Text
Язык : English
Default : Нет
Forced : Нет

Меню
00:00:00.000 : :1
00:08:12.492 : :2
00:16:06.883 : :3
00:23:38.334 : :4
00:32:37.497 : :5
00:40:12.118 : :6
00:48:09.720 : :7
00:54:46.116 : :8
01:01:40.405 : :9
01:11:43.007 : :10
01:21:14.745 : :11
01:27:36.793 : :12
Скриншоты:



Время раздачи: 24/7 (до 10 скачавших)
Правила, инструкции, FAQ!!!
Торрент  Добавлен [28 сен 2013, 23:19] Скачать торрент Магнет ссылка
Скачать торрент
[ Размер 23.84 КБ / Просмотров 17 ]

Статус
Проверен 
 
Размер  9.16 ГБ
Приватный: Нет (DHT включён)
.torrent скачан  0
Как залить торрент? | Как скачать Torrent? | Как смотреть и слушать онлайн?  
Admin
 


  • Похожие торренты
    Ответы
    Просмотры
    Последнее сообщение

Вернуться в HD-Video в 3D

Кто сейчас на конференции

Сейчас этот форум просматривают: нет зарегистрированных пользователей и гости: 0