CMU - 2 Albums (1971-1973) Discography /Remastered 2008, Esoteric Recordings/ [FLAC|Lossless]<Jazz Rock/Progressive Rock>


Статистика раздачи
Размер: 586.27 МБ | Добавлен: 16 мар 2014, 00:09 | Скачали: 0
Сидеров: 1  [0 байт/сек]    Личеров: 331  [0 байт/сек]

Сообщение Гость » 16 мар 2014, 00:09

CMU - 2 Albums (1971-1973) Discography /Remastered 2008, Esoteric Recordings/

Жанр: Jazz Rock/Progressive Rock
Год: 1971/1973
Страна: UK
Released: 2008/UK
Label: Esoteric Recordings
Аудио кодек: FLAC
Тип рипа: image+.cue
Битрейт аудио: lossless
Продолжительность: 01:31:35
Источник-релизер: gribovar
Scans: в раздаче
#777
Группа CMU, или: Contemporary Music Unit была образована в Великобритании в 1970 году. Их творчество можно определить как слияние таких направлений: арт, джаз-рок, фолк, с явными элементами психоделики. Характерная черта их творчества сочетание женского (Larraine Odell) и мужского вокала (James Gordon).
Другие члены группы:
Terry Mortimer - клавишные, скрипка,
Ian Hamlett - гитара, флейта;
Ed Lee - бас гитара;
Roger Odell (он же муж вокалистки) - ударные;
Группа выпустила дебютный альбом в 1971 году под названием: "Open Spaces". Состоящий из не сложных композиций с элементами психоделики, блюза, с вкраплениями довольно странных звуковых патчей.
Второй и последний их альбом: "Space Cabaret" вышел в 1973г. При его создании состав группы был сильно изменен. Вместо ушедших: Terry Mortimer, James Gordon, Ed Leeи, были приглашены:
Richard Joseph - акустическая гитара, вокал;
Steve Cook - бас гитара;
Leary Hasson (из Marsupilami) - клавишные;
Смена состава повлияла на качественное улучшение звука, был использован меллотрон, синтезаторы. Эта работа была гораздо более сложной и оригинальной.
В 1975 году, группа распалась. CMU часто сравнивают с Артуром Брауном и Affinity, поклонникам Curved Air музыка CMU также будет по душе.
#777
Open Spaces
Год: 1971
Label: ECLEC 2093
Продолжительность: 00:40:59
Треклист:
01. Henry (4:45)
02. Voodoo Man (4:39)
03. Slow And Lonesome Blues (5:09)
04. Chanticleer (6:13)
05. Japan(2:47)
06. Clown (2:37)
07. Mystical Sounds (3:14)
08. Open Spaces (11:34)
- Backing Vocals – James* (tracks: 5), Terry (tracks: 1), Terry (tracks: 5)
- Bass – Ed
- Bells – James (tracks: 8)
- Bells [Sleigh Bells], Tambourine – Larraine (tracks: 8)
- Congas – Roger (tracks: 4)
- Design – Paul Leeves
- Drums – Roger
- Electric Piano – Terry (tracks: 2)
- Engineer – Jerry Boys, Roger Mayer
- Executive-Producer – Laurence Aston
- Flute – Ian (tracks: 1, 7)
- Glockenspiel – Ed (tracks: 8), Roger (tracks: 8)
- Guitar – Ed (tracks: 3), Ian (tracks: 2 to 6, 8), Terry (tracks: 1, 3, 4, 5, 7)
- Guitar [Binison] – Terry (tracks: 8)
-Guitar [Bowed Freak Guitar] – Terry (tracks: 6)
- Guitar [Fuzz] – Terry (tracks: 2, 4)
- Illustration – Ray Leeves
- Lead Guitar – Ian (tracks: 1)
- Lead Vocals – James (tracks: 2, 4, 6), Larraine (tracks: 1, 2, 6), Terry (tracks: 6)
- Maracas – James (tracks: 2, 8)
- astered By – Malcolm Davies
- Organ – Terry (tracks: 1, 2, 4)
- Other [Ambience] – James (tracks: 6)
- Other [Gadzoonka] – James (tracks: 2)
- Percussion [Skulls] – Roger (tracks: 8)
- Photography By – Paul Bamborough
- Piano – Terry (tracks: 1, 7)
- Piano [Plucked] – Terry (tracks: 5)
- Producer – Jerry Boys
- Rhythm Guitar – Ian (tracks: 1)
- Tambourine – James (tracks: 2, 5)
- Viola – Terry (tracks: 8)
- Vocals – Larraine (tracks: 4, 7)
- Vocals [Wordless] – Larraine (tracks: 5, 8), Terry (tracks: 8)

Код:
Код: Выделить всё
Exact Audio Copy V0.99 prebeta 4 from 23. January 2008

EAC extraction logfile from 21. July 2009, 1:34

CMU / Open Spaces

Used drive  : HL-DT-STDVD-RAM GSA-H58N   Adapter: 0  ID: 0

Read mode               : Secure
Utilize accurate stream : Yes
Defeat audio cache      : Yes
Make use of C2 pointers : No

Read offset correction                      : 102
Overread into Lead-In and Lead-Out          : No
Fill up missing offset samples with silence : Yes
Delete leading and trailing silent blocks   : No
Null samples used in CRC calculations       : Yes
Used interface                              : Native Win32 interface for Win NT & 2000

Used output format              : User Defined Encoder
Selected bitrate                : 768 kBit/s
Quality                         : High
Add ID3 tag                     : No
Command line compressor         : C:\Archivos de programa\Exact Audio Copy\FLAC\FLAC.EXE
Additional command line options : -6 -V -T "ARTIST=%a" -T "TITLE=%t" -T "ALBUM=%g" -T "DATE=%y" -T "TRACKNUMBER=%n" -T "GENRE=%m" -T "COMMENT=%e" %s -o %d

TOC of the extracted CD

     Track |   Start  |  Length  | Start sector | End sector
    ---------------------------------------------------------
        1  |  0:00.00 |  4:45.29 |         0    |    21403
        2  |  4:45.29 |  4:38.48 |     21404    |    42301
        3  |  9:24.02 |  5:08.64 |     42302    |    65465
        4  | 14:32.66 |  6:13.28 |     65466    |    93468
        5  | 20:46.19 |  2:46.61 |     93469    |   105979
        6  | 23:33.05 |  2:36.55 |    105980    |   117734
        7  | 26:09.60 |  3:14.30 |    117735    |   132314
        8  | 29:24.15 | 11:34.30 |    132315    |   184394

Range status and errors

Selected range

     Filename E:\DJCARLIS\HQ SHARE\CMU - Open Spaces (1971)\CMU - Open Spaces.wav

     Peak level 98.8 %
     Range quality 99.9 %
     Test CRC AF514DDB
     Copy CRC AF514DDB
     Copy OK

No errors occurred

AccurateRip summary

Track  1  accurately ripped (confidence 1)  [E40DF0F6]
Track  2  accurately ripped (confidence 1)  [C98436B1]
Track  3  accurately ripped (confidence 1)  [2CA60980]
Track  4  accurately ripped (confidence 1)  [7215A913]
Track  5  accurately ripped (confidence 1)  [4449A56E]
Track  6  accurately ripped (confidence 1)  [48C59D5C]
Track  7  accurately ripped (confidence 1)  [F5B5AC21]
Track  8  accurately ripped (confidence 1)  [1DAD6871]

All tracks accurately ripped

End of status report
Код:
Код: Выделить всё
-----------------------

DON'T MODIFY THIS FILE

-----------------------

PERFORMER: auCDtect Task Manager, ver. 1.6.0 RC1 build 1.6.0.1
Copyright (c) 2008-2010 y-soft. All rights reserved
http:/y-soft.org

ANALYZER: auCDtect: CD records authenticity detector, version 0.8.2
Copyright (c) 2004 Oleg Berngardt. All rights reserved.
Copyright (c) 2004 Alexander Djourik. All rights reserved.

FILE: CMU - Open Spaces.flac
  Size: 205119218 Hash: 1D5F205016EB20A7A0BCF81B6427EEE6 Accuracy: -m0
  Conclusion: CDDA 100%
  Signature: 1245A5C9DF0D17FB9FBF1403B47D18DC234150FF
#777
Space Cabaret
Год: 1973
Label: ECLEC 2094
Продолжительность: 00:50:37
Треклист:
01. Space Cabaret (1:56)
02. Archway 272 (6:17)
03. Song From The 4th Era (2:18)
04. A Distant Thought, A Point Of Light (6:50)
05. Doctor, Am I Normal? (4:58)
06. Dream (9:40)
07. Lightshine (10:16)
Acoustic Guitar – Ian Hamlett
Bonus Tracks
08. Heart Of The Sun (3:11)
09. Doctor, Am I Normal? (Single Version) (5:00)

Credits
- Bass Guitar – Steve Cook (2)
- Drums – Roger Odell
- Electric Guitar – Ian Hamlett
- Engineer – Fritz Fryer, Ralph Down
- Engineer [Assistant] – Pat Moran
- Keyboards – Leary Hasson
- Producer – Fritz Fryer
- Technician [Sound] – Kingsley Ward
- Vocals – Larraine Odell (2)
- Vocals, Acoustic Guitar – Richard Joseph (2)
Код:
Код: Выделить всё
Exact Audio Copy V0.99 prebeta 4 from 23. January 2008

EAC extraction logfile from 21. July 2009, 3:36

CMU / Space Cabaret

Used drive  : HL-DT-STDVD-RAM GSA-H58N   Adapter: 0  ID: 0

Read mode               : Secure
Utilize accurate stream : Yes
Defeat audio cache      : Yes
Make use of C2 pointers : No

Read offset correction                      : 102
Overread into Lead-In and Lead-Out          : No
Fill up missing offset samples with silence : Yes
Delete leading and trailing silent blocks   : No
Null samples used in CRC calculations       : Yes
Used interface                              : Native Win32 interface for Win NT & 2000

Used output format              : User Defined Encoder
Selected bitrate                : 768 kBit/s
Quality                         : High
Add ID3 tag                     : No
Command line compressor         : C:\Archivos de programa\Exact Audio Copy\FLAC\FLAC.EXE
Additional command line options : -6 -V -T "ARTIST=%a" -T "TITLE=%t" -T "ALBUM=%g" -T "DATE=%y" -T "TRACKNUMBER=%n" -T "GENRE=%m" -T "COMMENT=%e" %s -o %d

TOC of the extracted CD

     Track |   Start  |  Length  | Start sector | End sector
    ---------------------------------------------------------
        1  |  0:00.00 |  1:56.20 |         0    |     8719
        2  |  1:56.20 |  6:18.18 |      8720    |    37087
        3  |  8:14.38 |  2:21.25 |     37088    |    47687
        4  | 10:35.63 |  6:49.57 |     47688    |    78419
        5  | 17:25.45 |  4:56.38 |     78420    |   100657
        6  | 22:22.08 |  9:42.04 |    100658    |   144311
        7  | 32:04.12 | 10:26.15 |    144312    |   191276
        8  | 42:30.27 |  3:09.64 |    191277    |   205515
        9  | 45:40.16 |  4:56.22 |    205516    |   227737

Range status and errors

Selected range

     Filename E:\DJCARLIS\HQ SHARE\CMU - Space Cabaret (1973)\CMU - Space Cabaret.wav

     Peak level 99.4 %
     Range quality 99.9 %
     Test CRC 929DAB1D
     Copy CRC 929DAB1D
     Copy OK

No errors occurred

AccurateRip summary

Track  1  accurately ripped (confidence 1)  [47697E4F]
Track  2  accurately ripped (confidence 1)  [1E36CB59]
Track  3  accurately ripped (confidence 1)  [B00F00F9]
Track  4  accurately ripped (confidence 1)  [C14D76CE]
Track  5  accurately ripped (confidence 1)  [D2C5EA96]
Track  6  accurately ripped (confidence 1)  [67494F33]
Track  7  accurately ripped (confidence 1)  [9906CE70]
Track  8  accurately ripped (confidence 1)  [74E71756]
Track  9  accurately ripped (confidence 1)  [2AC07C30]

All tracks accurately ripped

End of status report
Код:
Код: Выделить всё
-----------------------

DON'T MODIFY THIS FILE

-----------------------

PERFORMER: auCDtect Task Manager, ver. 1.6.0 RC1 build 1.6.0.1
Copyright (c) 2008-2010 y-soft. All rights reserved
http:/y-soft.org

ANALYZER: auCDtect: CD records authenticity detector, version 0.8.2
Copyright (c) 2004 Oleg Berngardt. All rights reserved.
Copyright (c) 2004 Alexander Djourik. All rights reserved.

FILE: CMU - Space Cabaret.flac
  Size: 333534818 Hash: 07D99CD53BDEB9B59615BB485F39ECC0 Accuracy: -m0
  Conclusion: CDDA 99%
  Signature: 3C75938DBA738B287AB0BC3ADB24572BC5F39380
Правила, инструкции, FAQ!!!
Торрент  Добавлен [16 мар 2014, 00:09] Скачать торрент Магнет ссылка
Скачать торрент
13.9 КБ

Статус
Проверен 
 
Размер  586.27 МБ
Приватный: Нет (DHT включён)
.torrent скачан  0
Как залить торрент? | Как скачать Torrent? | Как смотреть и слушать онлайн?  
Гость
 



Вернуться в Дискографии (Зарубежные)

Кто сейчас на конференции

Сейчас этот форум просматривают: нет зарегистрированных пользователей и гости: 1