(Classic Rock, Hard-Rock) [CD] Dave Davies - Chosen People - 1983 (2005), FLAC (tracks+.cue), lossless


Статистика раздачи
Размер: 310.7 МБ | Добавлен: 09 мар 2019, 10:41 | Скачали: 1
Сидеров: 14  [0 байт/сек]    Личеров: 2  [0 байт/сек]

Сообщение Гость » 09 мар 2019, 10:41

Dave Davies / Chosen People
Жанр: Classic Rock, Hard-Rock
Носитель: CD
Страна-производитель диска (релиза): USA
Год издания: 1983 (2005)
Издатель (лейбл): Wounded Bird Records
Номер по каталогу: WOU 3917
Страна исполнителя (группы): UK
Аудиокодек: FLAC (*.flac)
Тип рипа: tracks+.cue
Битрейт аудио: lossless
Продолжительность: 00:42:24
Источник: собственный рип
Наличие сканов в содержимом раздачи: да
01. Tapas 01:57
02. Charity 03:59
03. Mean Disposition 02:34
04. Love Gets You 02:41
05. Danger Zone 03:20
06. True Story 03:43
07. Take One More Chance 03:01
08. Freedom Lies 03:34
09. Matter of Decision 02:52
10. Is It Any Wonder 03:52
11. Fire Burning 02:54
12. Chosen People 03:25
13. Cold Winter 04:34
All songs written by Dave Davies
Код: Выделить всё
Exact Audio Copy V1.3 from 2. September 2016
EAC extraction logfile from 8. March 2019, 14:07
Dave Davies / Chosen People
Used drive  : ASUS    BW-12D1S-U   Adapter: 1  ID: 1
Read mode               : Secure
Utilize accurate stream : Yes
Defeat audio cache      : Yes
Make use of C2 pointers : No
Read offset correction                      : 667
Overread into Lead-In and Lead-Out          : No
Fill up missing offset samples with silence : Yes
Delete leading and trailing silent blocks   : No
Null samples used in CRC calculations       : Yes
Used interface                              : Native Win32 interface for Win NT & 2000
Gap handling                                : Appended to previous track
Used output format              : User Defined Encoder
Selected bitrate                : 1024 kBit/s
Quality                         : High
Add ID3 tag                     : No
Command line compressor         : C:\Program Files (x86)\Exact Audio Copy\FLAC\FLAC.EXE
Additional command line options : -V -8 -T "Genre=%genre%" -T "Artist=%artist%" -T "Title=%title%" -T "Album=%albumtitle%" -T "Date=%year%" -T "Tracknumber=%tracknr%" -T "Comment=%comment%" %source%
TOC of the extracted CD
     Track |   Start  |  Length  | Start sector | End sector
    ---------------------------------------------------------
        1  |  0:00.00 |  1:56.43 |         0    |     8742
        2  |  1:56.43 |  3:59.21 |      8743    |    26688
        3  |  5:55.64 |  2:33.64 |     26689    |    38227
        4  |  8:29.53 |  2:40.66 |     38228    |    50293
        5  | 11:10.44 |  3:20.18 |     50294    |    65311
        6  | 14:30.62 |  3:42.62 |     65312    |    82023
        7  | 18:13.49 |  3:01.04 |     82024    |    95602
        8  | 21:14.53 |  3:33.45 |     95603    |   111622
        9  | 24:48.23 |  2:52.19 |    111623    |   124541
       10  | 27:40.42 |  3:51.46 |    124542    |   141912
       11  | 31:32.13 |  2:54.12 |    141913    |   154974
       12  | 34:26.25 |  3:25.13 |    154975    |   170362
       13  | 37:51.38 |  4:33.47 |    170363    |   190884
Track  1
     Filename E:\Torrents of Autumn\Davies, Dave [1983] Chosen People (2005 reissue)\01. Tapas.wav
     Pre-gap length  0:00:02.00
     Peak level 90.6 %
     Extraction speed 3.9 X
     Track quality 100.0 %
     Test CRC 9A47DE63
     Copy CRC 9A47DE63
     Accurately ripped (confidence 5)  [426743E5]  (AR v2)
     Copy OK
Track  2
     Filename E:\Torrents of Autumn\Davies, Dave [1983] Chosen People (2005 reissue)\02. Charity.wav
     Peak level 95.0 %
     Extraction speed 4.8 X
     Track quality 100.0 %
     Test CRC 29E0EAA0
     Copy CRC 29E0EAA0
     Accurately ripped (confidence 5)  [7EF20208]  (AR v2)
     Copy OK
Track  3
     Filename E:\Torrents of Autumn\Davies, Dave [1983] Chosen People (2005 reissue)\03. Mean Disposition.wav
     Peak level 95.7 %
     Extraction speed 4.8 X
     Track quality 100.0 %
     Test CRC 568E2917
     Copy CRC 568E2917
     Accurately ripped (confidence 5)  [791F1237]  (AR v2)
     Copy OK
Track  4
     Filename E:\Torrents of Autumn\Davies, Dave [1983] Chosen People (2005 reissue)\04. Love Gets You.wav
     Peak level 93.5 %
     Extraction speed 5.1 X
     Track quality 100.0 %
     Test CRC F5C43D55
     Copy CRC F5C43D55
     Accurately ripped (confidence 5)  [EAAFAE52]  (AR v2)
     Copy OK
Track  5
     Filename E:\Torrents of Autumn\Davies, Dave [1983] Chosen People (2005 reissue)\05. Danger Zone.wav
     Peak level 95.9 %
     Extraction speed 5.5 X
     Track quality 100.0 %
     Test CRC AFA0A4CD
     Copy CRC AFA0A4CD
     Accurately ripped (confidence 5)  [080F076D]  (AR v2)
     Copy OK
Track  6
     Filename E:\Torrents of Autumn\Davies, Dave [1983] Chosen People (2005 reissue)\06. True Story.wav
     Peak level 95.6 %
     Extraction speed 5.9 X
     Track quality 100.0 %
     Test CRC 3E876D21
     Copy CRC 3E876D21
     Accurately ripped (confidence 5)  [799E71F9]  (AR v2)
     Copy OK
Track  7
     Filename E:\Torrents of Autumn\Davies, Dave [1983] Chosen People (2005 reissue)\07. Take One More Chance.wav
     Peak level 91.1 %
     Extraction speed 5.9 X
     Track quality 100.0 %
     Test CRC 86C46892
     Copy CRC 86C46892
     Accurately ripped (confidence 5)  [3344C70B]  (AR v2)
     Copy OK
Track  8
     Filename E:\Torrents of Autumn\Davies, Dave [1983] Chosen People (2005 reissue)\08. Freedom Lies.wav
     Peak level 94.3 %
     Extraction speed 6.3 X
     Track quality 100.0 %
     Test CRC BF39DB31
     Copy CRC BF39DB31
     Accurately ripped (confidence 5)  [402D265B]  (AR v2)
     Copy OK
Track  9
     Filename E:\Torrents of Autumn\Davies, Dave [1983] Chosen People (2005 reissue)\09. Matter of Decision.wav
     Peak level 94.8 %
     Extraction speed 6.4 X
     Track quality 100.0 %
     Test CRC BEECEB0B
     Copy CRC BEECEB0B
     Accurately ripped (confidence 5)  [3C949A36]  (AR v2)
     Copy OK
Track 10
     Filename E:\Torrents of Autumn\Davies, Dave [1983] Chosen People (2005 reissue)\10. Is It Any Wonder.wav
     Peak level 90.3 %
     Extraction speed 6.9 X
     Track quality 100.0 %
     Test CRC 06A591F7
     Copy CRC 06A591F7
     Accurately ripped (confidence 5)  [6675C2EC]  (AR v2)
     Copy OK
Track 11
     Filename E:\Torrents of Autumn\Davies, Dave [1983] Chosen People (2005 reissue)\11. Fire Burning.wav
     Peak level 91.7 %
     Extraction speed 6.7 X
     Track quality 100.0 %
     Test CRC EF40F2C0
     Copy CRC EF40F2C0
     Accurately ripped (confidence 5)  [E3755D16]  (AR v2)
     Copy OK
Track 12
     Filename E:\Torrents of Autumn\Davies, Dave [1983] Chosen People (2005 reissue)\12. Chosen People.wav
     Peak level 96.2 %
     Extraction speed 6.3 X
     Track quality 99.9 %
     Test CRC 268643CB
     Copy CRC 268643CB
     Accurately ripped (confidence 5)  [7B8DBC32]  (AR v2)
     Copy OK
Track 13
     Filename E:\Torrents of Autumn\Davies, Dave [1983] Chosen People (2005 reissue)\13. Cold Winter.wav
     Peak level 91.4 %
     Extraction speed 7.6 X
     Track quality 100.0 %
     Test CRC E87293E7
     Copy CRC E87293E7
     Accurately ripped (confidence 5)  [A500633D]  (AR v2)
     Copy OK
All tracks accurately ripped
No errors occurred
End of status report
---- CUETools DB Plugin V2.1.6
[CTDB TOCID: r.Ryx1l2sjx1ukLEIDWPb_bDLtY-] found
Submit result: r.Ryx1l2sjx1ukLEIDWPb_bDLtY- has been confirmed
Track | CTDB Status
  1   | (2/2) Accurately ripped
  2   | (2/2) Accurately ripped
  3   | (2/2) Accurately ripped
  4   | (2/2) Accurately ripped
  5   | (2/2) Accurately ripped
  6   | (2/2) Accurately ripped
  7   | (2/2) Accurately ripped
  8   | (2/2) Accurately ripped
  9   | (2/2) Accurately ripped
 10   | (2/2) Accurately ripped
 11   | (2/2) Accurately ripped
 12   | (2/2) Accurately ripped
 13   | (2/2) Accurately ripped
==== Log checksum A41EF5439D3BFD00C1150AFC8ED54EEA7F47B1E58EBAD2F95BD09E32815F4C74 ====
Код: Выделить всё
REM GENRE Pop/Rock
REM DATE 1983
REM DISCID B209F10D
REM COMMENT "ExactAudioCopy v1.3"
PERFORMER "Dave Davies"
TITLE "Chosen People"
REM COMPOSER ""
FILE "01. Tapas.wav" WAVE
  TRACK 01 AUDIO
    TITLE "Tapas"
    PERFORMER "Dave Davies"
    REM COMPOSER "Dave Davies"
    INDEX 01 00:00:00
FILE "02. Charity.wav" WAVE
  TRACK 02 AUDIO
    TITLE "Charity"
    PERFORMER "Dave Davies"
    REM COMPOSER "Dave Davies"
    INDEX 01 00:00:00
FILE "03. Mean Disposition.wav" WAVE
  TRACK 03 AUDIO
    TITLE "Mean Disposition"
    PERFORMER "Dave Davies"
    REM COMPOSER "Dave Davies"
    INDEX 01 00:00:00
FILE "04. Love Gets You.wav" WAVE
  TRACK 04 AUDIO
    TITLE "Love Gets You"
    PERFORMER "Dave Davies"
    REM COMPOSER "Dave Davies"
    INDEX 01 00:00:00
FILE "05. Danger Zone.wav" WAVE
  TRACK 05 AUDIO
    TITLE "Danger Zone"
    PERFORMER "Dave Davies"
    REM COMPOSER "Dave Davies"
    INDEX 01 00:00:00
FILE "06. True Story.wav" WAVE
  TRACK 06 AUDIO
    TITLE "True Story"
    PERFORMER "Dave Davies"
    REM COMPOSER "Dave Davies"
    INDEX 01 00:00:00
FILE "07. Take One More Chance.wav" WAVE
  TRACK 07 AUDIO
    TITLE "Take One More Chance"
    PERFORMER "Dave Davies"
    REM COMPOSER "Dave Davies"
    INDEX 01 00:00:00
FILE "08. Freedom Lies.wav" WAVE
  TRACK 08 AUDIO
    TITLE "Freedom Lies"
    PERFORMER "Dave Davies"
    REM COMPOSER "Dave Davies"
    INDEX 01 00:00:00
FILE "09. Matter of Decision.wav" WAVE
  TRACK 09 AUDIO
    TITLE "Matter of Decision"
    PERFORMER "Dave Davies"
    REM COMPOSER "Dave Davies"
    INDEX 01 00:00:00
FILE "10. Is It Any Wonder.wav" WAVE
  TRACK 10 AUDIO
    TITLE "Is It Any Wonder"
    PERFORMER "Dave Davies"
    REM COMPOSER "Dave Davies"
    INDEX 01 00:00:00
FILE "11. Fire Burning.wav" WAVE
  TRACK 11 AUDIO
    TITLE "Fire Burning"
    PERFORMER "Dave Davies"
    REM COMPOSER "Dave Davies"
    INDEX 01 00:00:00
FILE "12. Chosen People.wav" WAVE
  TRACK 12 AUDIO
    TITLE "Chosen People"
    PERFORMER "Dave Davies"
    REM COMPOSER "Dave Davies"
    INDEX 01 00:00:00
FILE "13. Cold Winter.wav" WAVE
  TRACK 13 AUDIO
    TITLE "Cold Winter"
    PERFORMER "Dave Davies"
    REM COMPOSER "Dave Davies"
    INDEX 01 00:00:00
Track 5, "Danger Zone," was not available on the vinyl record.
What George Harrison was to the Beatles and John Entwistle was to the Who, Dave Davies was to the Kinks—a powerfully effective instrumentalist and a talented songwriter who often played second fiddle to another tunesmith whose work more readily connected with the band’s audience. Although he took a largely subordinate role to his brother Ray Davies in the Kinks, Dave’s fierce guitar work and hoarse but effective background (and occasional lead) vocals were key elements of the band’s appeal. Dave also occasionally wrote songs for the Kinks that showed him to be a writer of considerable skill and wit, if not always up to the same level as Ray.
David Russell Gordon Davies was born on February 3, 1947, in the Muswell Hill section of London, England. Dave immersed himself in skiffle and early rock, and in 1963 he and bassist Pete Quaife formed the Kinks. It wasn’t long before Dave’s brother (and frequent rival) Ray Davies joined the band, and with the addition of Mick Avory on drums, the first edition of the Kinks was complete. The band landed a contract with Pye Records, and after a pair of singles that flopped, the Kinks found their sound in August 1964 with “You Really Got Me,” which was powered by Dave’s distorted lead guitar and a simple but muscular guitar riff. It was the first in a string of great 45s the band would release over the next several years, and while Ray was the Kinks’ principal songwriter, Dave contributed more than his share of memorable tunes. In the late ’60s, Dave made some solo singles that met with critical success in Britain, although they were unknown in the U.S. “Death of a Clown” (also included on the Kinks’ Something Else LP) made number three on the British charts in 1967, and the follow-up, “Susannah’s Still Alive,” also did fairly well.
Dave considered making a solo album at this time, but after a couple other solo singles flopped, he seemed to lose heart and abandoned his plans (some unreleased solo tracks from this period turned up on the obscure Kinks bootleg Good Luck Charm). Dave finally began a solo career in earnest with a strong mainstream rock effort, 1980’s AFL1-3603, followed by 1981’s Glamour and 1983’s Chosen People. These albums found limited commercial success despite modest but favorable reviews. Released in 1987, The Album That Never Was collected Dave’s rare single sides from the ’60s into a facsimile of what a Dave Davies solo effort might have been like. His work was neatly summarized on Unfinished Business: Dave Davies Kronikles 1963-1998. In 1996, the Kinks announced their retirement, and the hard-rocking Bug from 2002 was Dave’s first album of new material in nearly 20 years. Davies suffered a major stroke in 2004 and used composing and painting as therapy during the lengthy recovery period that followed. The new song “God in My Brain” was inspired by the stroke and appeared on the 2006 compilation Kinked. In 2007, Davies released his first full-length post-stroke studio album, Fractured Mindz, on the Koch label.
In 2011, BBC Four aired the revealing documentary Dave Davies: Kinkdom Come, in which he was interviewed at length about his time with the Kinks, his relationship with Ray, and the spirituality that helped him through the aforementioned period of serious ill health. June 2013 brought I Will Be Me, an album that balanced hard-edged rockers with more sedate, contemplative material, all of which displayed a rich vein of nostalgia. In February 2014, Davies played his first U.K. concert since 2001, and he returned that autumn with Rippin’ Up Time, a record produced by occasional Wondermints member David Nolte. In December 2015, Dave Davies played a concert at London's Islington Assembly Hall, where the pleasantly shocked audience saw his brother Ray Davies join his brother on-stage for a performance of “You Really Got Me.” The show led to widespread speculation that the Kinks would reunite; that failed to happen, but Dave did collaborate on an album with his son Russ Davies, 2017’s Open Road, and Davies announced a U.S. tour in support. (Mark Deming, AllMusic)
Chosen People is Dave Davies’ third solo album, and by this release he seemed to have gotten it right. Gone is the big stadium rock sound and present is Davies’ wonderful voice and melodic songs. Although this is not the album fans of “Death of a Clown” were hoping for, it is a much stronger album than 1981’s Glamour and 1980’s AFL1-3603. Davies still rocks out, but there are more ballads present. Also, the lyrics seem to have much more thought in them and present interesting stories and thoughts. Perhaps it is due to the use of a band and a co-producer on this album (the other two releases were primarily just Davies, although drummer Robert Henrit did drum on Glamour). The songs here are much more melodic and Davies finally displays that wonderful voice that was buried on the other two releases. Yes, his trademark guitar is found throughout, but so are beautiful, heartbreaking songs, such as “Is It Any Wonder.” Dave Davies has spent much of his career in the shadow of his brother and the band the Kinks. As good as this album is, it does not remove that shadow. This proved to be Davies’ only release on the Warner Brothers label. Fans of the Kinks and ’80s hard rock should have this album in their collection. (Aaron Badgley, AllMusic)
Dave Davies: vocals, guitar, keyboards, and bass (track 6)
Dave Wintour: bass
Chris Parrin: keyboards
Kim Goode: vocals (track 10)
Martin Ford: strings arrangements (tracks 7 & 13)
Produced by Dave Davies
Правила, инструкции, FAQ!!!
Торрент  Добавлен [09 мар 2019, 10:41] Скачать торрент Магнет ссылка
Скачать торрент
13.8 КБ

Статус
Проверен 
 
Размер  310.7 МБ
Приватный: Нет (DHT включён)
.torrent скачан  1
Как залить торрент? | Как скачать Torrent? | Как смотреть и слушать онлайн?  
Гость
 



Вернуться в Classic Rock & Hard Rock

Кто сейчас на конференции

Сейчас этот форум просматривают: нет зарегистрированных пользователей и гости: 2