Чудо-женщина / Wonder Woman (2017) DVD5

Статистика раздачи
Размер: 4.37 ГБ | Добавлен: 27 янв 2018, 00:50 | Скачали: 0
Сидеров: 1  [0 байт/сек]    Личеров: 0  [0 байт/сек]

Сообщение Гость » 27 янв 2018, 00:50

«Справедливость наступит вместе с ней»

Год выпуска: 2017
Производство: США, Китай, Гонконг, Великобритания, Италия, Канада, Новая Зеландия / Warner Bros. Pictures, RatPac Entertainment, DC Entertainment
Жанр: Фантастика, фэнтези, боевик, приключения, военный

Режиссер: Пэтти Дженкинс
Продюсеры: Джон Берг, Уэсли Коллер, Томми Гормли
Актеры: Галь Гадот, Крис Пайн, Конни Нильсен, Робин Райт, Дэнни Хьюстон, Дэвид Тьюлис, Саид Тагмауи, Юэн Бремнер, Юджин «Храбрый камень», Люси Дэвис

Описание:
Перед тем как стать Чудо-Женщиной, она была Дианой — принцессой амазонок, обученной быть непобедимой воительницей. И когда на берегах ограждённого от внешнего мира райского острова, который служил ей родиной, терпит крушение американский пилот и рассказывает о серьёзном конфликте, бушующем во внешнем мире, Диана покидает свой дом, чтобы справиться с этой угрозой. И там, сражаясь бок о бок с человеком в войне за мир, Диана обнаружит всю полноту своей власти… и своё истинное предназначение.

Перевод: Дублированный
Субтитры: Русские, английские

Дата мировой премьеры: 15 мая 2017
Дата российской премьеры: 1 июня 2017, «Каро-Премьер»


Продолжительность: 02:15:28
Качество видео: DVD5 [BD -> DVD]

Видео: MPEG-2, 720x576@1024x576 (PAL 16:9), ~3600 Кбит/сек
Аудио 1: AC3 5.1, 448 Кбит/сек [Русский - дублированный]
Аудио 2: AC3 5.1, 448 Кбит/сек [Английский - оригинал]

Title: Wonder Woman (2017) DVD5 [BD-DVD]
Size: 4.37 Gb ( 4 586 386,00 KBytes ) - DVD-5
Enabled regions: 1, 2, 3, 4, 5, 6, 7, 8

VTS_01 :
Play Length: 02:15:28
Video: PAL 16:9 (720x576) VBR, Auto Letterboxed
Audio:
Russian (Dolby AC3, 6 ch)
English (Dolby AC3, 6 ch)
Subtitles:
Russian
English
Russian

* Menus Information *

VIDEO_TS Menu
Video:
PAL 16:9 (720x576) VBR
Auto Letterboxed
Audio:
Not specified (Dolby AC3, 6 ch)
English Language Unit :
Title Menu

VTS_01 Menu
Video:
PAL 16:9 (720x576) VBR
Auto Letterboxed
Audio:
Not specified (Dolby AC3, 2 ch)
English Language Unit :
Root Menu
Видео
Идентификатор : 224 (0xE0)
Формат : MPEG Video
Версия формата : Version 2
Профиль формата : Main@Main
Настройки формата : CustomMatrix / BVOP
Параметр BVOP формата : Да
Параметр матрицы формата : Выборочная
Параметр GOP формата : M=3, N=15
Продолжительность : 31 м. 14 с.
Вид битрейта : Переменный
Битрейт : 3595 Кбит/сек
Максимальный битрейт : 8900 Кбит/сек
Ширина : 720 пикселей
Высота : 576 пикселей
Соотношение сторон : 16:9
Частота кадров : 25,000 кадров/сек
Стандарт вещания : PAL
Цветовое пространство : YUV
Субдискретизация насыщенности : 4:2:0
Битовая глубина : 8 бит
Тип развёртки : Прогрессивная
Метод сжатия : С потерями
Бит/(Пиксели*Кадры) : 0.347
Временной код первого кадра : 01:02:50:02
Оригинал временного кода : Group of pictures header
GOP, открыто/закрыто : Открыто
Размер потока : 803 Мбайт (78%)

Аудио #1
Идентификатор : 189 (0xBD)-128 (0x80)
Формат : AC-3
Формат/Информация : Audio Coding 3
Параметр Endianness формата : Big
Режим смешивания : DVD-Video
Продолжительность : 31 м. 14 с.
Вид битрейта : Постоянный
Битрейт : 448 Кбит/сек
Каналы : 6 каналов
Расположение каналов : Front: L C R, Side: L R, LFE
Частота : 48,0 КГц
Частота кадров : 31,250 кадров/сек (1536 SPF)
Битовая глубина : 16 бит
Метод сжатия : С потерями
Задержка видео : -464 мс.
Размер потока : 100 Мбайт (10%)
ServiceKind : Complete Main

Аудио #2
Идентификатор : 189 (0xBD)-129 (0x81)
Формат : AC-3
Формат/Информация : Audio Coding 3
Параметр Endianness формата : Big
Режим смешивания : DVD-Video
Продолжительность : 31 м. 14 с.
Вид битрейта : Постоянный
Битрейт : 448 Кбит/сек
Каналы : 6 каналов
Расположение каналов : Front: L C R, Side: L R, LFE
Частота : 48,0 КГц
Частота кадров : 31,250 кадров/сек (1536 SPF)
Битовая глубина : 16 бит
Метод сжатия : С потерями
Задержка видео : -528 мс.
Размер потока : 100 Мбайт (10%)
ServiceKind : Complete Main

Текст #1
Идентификатор : 189 (0xBD)-32 (0x20)
Формат : RLE
Формат/Информация : Run-length encoding
Режим смешивания : DVD-Video

Текст #2
Идентификатор : 189 (0xBD)-33 (0x21)
Формат : RLE
Формат/Информация : Run-length encoding
Режим смешивания : DVD-Video

Меню

Источником видео и звуковых дорог послужил Blu-Ray. Субтитры, главы и часть фрагментов меню взял с DVD. Видео обрабатывалось с помощью CarbonCoder в VBR в два прохода. Звуковые дорожки обрабатывались в Sony Vegas. Меню обрабатывал с помощью Adobe Photoshop, Adobe Encore и DvdReMakePro.
Правила, инструкции, FAQ!!!
Торрент  Добавлен [27 янв 2018, 00:50] Скачать торрент Магнет ссылка
Скачать торрент
[ Размер 23.32 КБ / Просмотров 2 ]

Статус
Проверен 
 
Размер  4.37 ГБ
Приватный: Нет (DHT включён)
.torrent скачан  0
Как залить торрент? | Как скачать Torrent? | Как смотреть и слушать онлайн?  
Гость
 


  • Похожие торренты
    Ответы
    Просмотры
    Последнее сообщение

Вернуться в DVD-5

Кто сейчас на конференции

Сейчас этот форум просматривают: нет зарегистрированных пользователей и гости: 0