Chris Cornell - 5 альбомов (1999-2011) Дискография [FLAC|Lossless]<Alternative rock, psychedelic rock, psychedelic pop, acoustic>


Статистика раздачи
Размер: 2.15 ГБ | Добавлен: 16 мар 2014, 00:55 | Скачали: 2
Сидеров: 1  [0 байт/сек]    Личеров: 13  [0 байт/сек]

Сообщение Гость » 16 мар 2014, 00:55

Chris Cornell - 5 альбомов (1999-2011) Дискография

Год: 1999/2011
Жанр: Alternative rock, psychedelic rock, psychedelic pop, acoustic
Продолжительность: 05:23:36

Кодек: FLAC
Битрейт: Lossless
Описание:

Chris Cornell - американский гитарист, композитор и вокалист. Был участником таких групп, как Soundgarden (1984 - 1997, 2010 - …) и Audioslave (2001 - 2007). Одно время являлся фронтмэном группы Temple of the Dog (1990 - 1992). Начал свою музыкальную карьеру как барабанщик, но позже сменил профиль на гитариста и вокалиста. Выпустил 3 сольных альбома: Euphoria Morning (сентябрь 1999), Carry On (июнь 2007), Scream (март 2009), Songbook (ноябрь 2011).
Альбомы:
#777Продолжительность: 00:50:56
Трек лист:
01. Can't Change Me (3:24)
02. Flutter Girl (4:25)
03. Preaching The End Of The World (4:41)
04. Follow My Way (5:11)
05. When I'm Down (4:20)
06. Mission (4:05)
07. Wave Goodbye (3:43)
08. Moonchild (4:02)
09. Sweet Euphoria (3:09)
10. Disappearing One (3:48)
11. Pillow Of Your Bones (4:30)
12. Steel Rain (5:42)
Код:
Код: Выделить всё
EAC extraction logfile from 19. August 2007, 19:21 for CD
Chris Cornell / Euphoria Morning

Used drive  : HL-DT-STDVD-RAM GSA-H22N   Adapter: 0  ID: 0
Read mode   : Secure with NO C2, accurate stream, disable cache
Read offset correction : 102
Overread into Lead-In and Lead-Out : No

Used output format : C:\Program Files\Exact Audio Copy\flac.exe   (User Defined Encoder)
                     192 kBit/s
                     Additional command line options : -8 -A tukey(0.25) -A gauss(0.1875) -b 4096 -V -T "artist=%a" -T "title=%t" -T "album=%g" -T "date=%y" -T "tracknumber=%n" -T "genre=%m" %s --sector-align

Other options      :
    Fill up missing offset samples with silence : Yes
    Delete leading and trailing silent blocks : No
    Installed external ASPI interface

Track  1
     Filename C:\Users\MDG User\Desktop\0 Music\Albums\Chris Cornell\Chris Cornell - 1999 - Euphoria Morning [FLAC]\01 - Chris Cornell - Can't Change Me.wav

     Pre-gap length  0:00:02.00

     Peak level 99.8 %
     Track quality 100.0 %
     Test CRC 838D9562
     Copy CRC 838D9562
     Copy OK

Track  2
     Filename C:\Users\MDG User\Desktop\0 Music\Albums\Chris Cornell\Chris Cornell - 1999 - Euphoria Morning [FLAC]\02 - Chris Cornell - Flutter Girl.wav

     Pre-gap length  0:00:01.00

     Peak level 99.8 %
     Track quality 100.0 %
     Test CRC AD8A79EF
     Copy CRC AD8A79EF
     Copy OK

Track  3
     Filename C:\Users\MDG User\Desktop\0 Music\Albums\Chris Cornell\Chris Cornell - 1999 - Euphoria Morning [FLAC]\03 - Chris Cornell - Preaching The End Of The World.wav

     Pre-gap length  0:00:02.26

     Peak level 94.3 %
     Track quality 99.9 %
     Test CRC 55EA1FCA
     Copy CRC 55EA1FCA
     Copy OK

Track  4
     Filename C:\Users\MDG User\Desktop\0 Music\Albums\Chris Cornell\Chris Cornell - 1999 - Euphoria Morning [FLAC]\04 - Chris Cornell - Follow My Way.wav

     Pre-gap length  0:00:02.53

     Peak level 99.8 %
     Track quality 100.0 %
     Test CRC E36CF56B
     Copy CRC E36CF56B
     Copy OK

Track  5
     Filename C:\Users\MDG User\Desktop\0 Music\Albums\Chris Cornell\Chris Cornell - 1999 - Euphoria Morning [FLAC]\05 - Chris Cornell - When I'm Down.wav

     Pre-gap length  0:00:03.57

     Peak level 97.7 %
     Track quality 100.0 %
     Test CRC B3AE8DE3
     Copy CRC B3AE8DE3
     Copy OK

Track  6
     Filename C:\Users\MDG User\Desktop\0 Music\Albums\Chris Cornell\Chris Cornell - 1999 - Euphoria Morning [FLAC]\06 - Chris Cornell - Mission.wav

     Pre-gap length  0:00:02.26

     Peak level 99.5 %
     Track quality 100.0 %
     Test CRC 77AE1347
     Copy CRC 77AE1347
     Copy OK

Track  7
     Filename C:\Users\MDG User\Desktop\0 Music\Albums\Chris Cornell\Chris Cornell - 1999 - Euphoria Morning [FLAC]\07 - Chris Cornell - Wave Goodbye.wav

     Pre-gap length  0:00:01.66

     Peak level 99.4 %
     Track quality 99.9 %
     Test CRC 1368EDCE
     Copy CRC 1368EDCE
     Copy OK

Track  8
     Filename C:\Users\MDG User\Desktop\0 Music\Albums\Chris Cornell\Chris Cornell - 1999 - Euphoria Morning [FLAC]\08 - Chris Cornell - Moonchild.wav

     Pre-gap length  0:00:00.22

     Peak level 99.8 %
     Track quality 100.0 %
     Test CRC 07ED4094
     Copy CRC 07ED4094
     Copy OK

Track  9
     Filename C:\Users\MDG User\Desktop\0 Music\Albums\Chris Cornell\Chris Cornell - 1999 - Euphoria Morning [FLAC]\09 - Chris Cornell - Sweet Euphoria.wav

     Pre-gap length  0:00:00.86

     Peak level 90.0 %
     Track quality 99.9 %
     Test CRC D4D2B2E2
     Copy CRC D4D2B2E2
     Copy OK

Track 10
     Filename C:\Users\MDG User\Desktop\0 Music\Albums\Chris Cornell\Chris Cornell - 1999 - Euphoria Morning [FLAC]\10 - Chris Cornell - Disappearing One.wav

     Pre-gap length  0:00:00.93

     Peak level 93.7 %
     Track quality 100.0 %
     Test CRC E94BF395
     Copy CRC E94BF395
     Copy OK

Track 11
     Filename C:\Users\MDG User\Desktop\0 Music\Albums\Chris Cornell\Chris Cornell - 1999 - Euphoria Morning [FLAC]\11 - Chris Cornell - Pillow Of Your Bones.wav

     Pre-gap length  0:00:02.82

     Peak level 99.5 %
     Track quality 100.0 %
     Test CRC F52D0FA1
     Copy CRC F52D0FA1
     Copy OK

Track 12
     Filename C:\Users\MDG User\Desktop\0 Music\Albums\Chris Cornell\Chris Cornell - 1999 - Euphoria Morning [FLAC]\12 - Chris Cornell - Steel Rain.wav

     Pre-gap length  0:00:02.17

     Peak level 97.3 %
     Track quality 100.0 %
     Test CRC 06D52C06
     Copy CRC 06D52C06
     Copy OK

No errors occured

End of status report
Код:
Код: Выделить всё
-----------------------

DON'T MODIFY THIS FILE

-----------------------

PERFORMER: auCDtect Task Manager, ver. 1.6.0 RC1 build 1.6.0.1
Copyright (c) 2008-2010 y-soft. All rights reserved
http:/y-soft.org

ANALYZER: auCDtect: CD records authenticity detector, version 0.8.2
Copyright (c) 2004 Oleg Berngardt. All rights reserved.
Copyright (c) 2004 Alexander Djourik. All rights reserved.

FILE: 12 - Steel Rain.flac
  Size: 40027798 Hash: A141B233EB01B0318CC9542C95DB5A48 Accuracy: -m0
  Conclusion: CDDA 99%
  Signature: 49590B3AD25654E9DE9E2ED5E801645DA8002894
FILE: 11 - Pillow Of Your Bones.flac
  Size: 31724779 Hash: 76B37C25C78FCCD67F9E63F9DEF74793 Accuracy: -m0
  Conclusion: CDDA 99%
  Signature: DC2CD4FEB8DFF3CC42FCFE893D9565CCB6C9A1E9
FILE: 10 - Disappearing One.flac
  Size: 25308185 Hash: A8A1D5C6174724EEA3811BB5B1BBC59A Accuracy: -m0
  Conclusion: CDDA 100%
  Signature: 1A684155D09F96B52787A2C4797B872BDA2C783B
FILE: 09 - Sweet Euphoria.flac
  Size: 19004157 Hash: 1D1FD0D89FFB8BC45F92F18CC6CD3A6C Accuracy: -m0
  Conclusion: CDDA 100%
  Signature: 98D34FD763A6463839BB5432AA4B9223892D50CC
FILE: 08 - Moonchild.flac
  Size: 28194700 Hash: E7BF31C740FB3BE4EDE6B35F791C46E0 Accuracy: -m0
  Conclusion: CDDA 100%
  Signature: D273CEE24C3B7685AAF8382FDA706769FE743672
FILE: 07 - Wave Goodbye.flac
  Size: 25758235 Hash: AEBE5F936ADD8AC05DC147332087D6D9 Accuracy: -m0
  Conclusion: CDDA 100%
  Signature: 0CCC8BDE40B2889DA237926F87493001BED770A1
FILE: 06 - Mission.flac
  Size: 28243783 Hash: B08DAFEEFF76437D578C5137DC14CD2F Accuracy: -m0
  Conclusion: CDDA 100%
  Signature: 7D24A47E625CD53E506FD37EC673CF84FD08D17B
FILE: 05 - When I'm Down.flac
  Size: 30148073 Hash: F88873A9A6E6895B37C653ADD7EDEC67 Accuracy: -m0
  Conclusion: CDDA 100%
  Signature: F9EB83840C31C139A991962119BFF844995937BF
FILE: 04 - Follow My Way.flac
  Size: 36513381 Hash: FA4627A9BF9E598A1FFD82FE70D5F438 Accuracy: -m0
  Conclusion: CDDA 100%
  Signature: EF73EE0191B549D81A4D00E0FA2D94951D2EAC89
FILE: 03 - Preaching The End Of The World.flac
  Size: 32362823 Hash: 2664204138A836355CCA87EE45AC284B Accuracy: -m0
  Conclusion: CDDA 100%
  Signature: 4DEA9B55A175F0905D14234BDA2A6A780053BD75
FILE: 02 - Flutter Girl.flac
  Size: 32658137 Hash: 83BE12867B3C4258C23FBA3BD3D8F7D1 Accuracy: -m0
  Conclusion: CDDA 94%
  Signature: 656A326C8EC7352A2F6D0857C72D9B7A5DC4D75F
FILE: 01 - Can't Change Me.flac
  Size: 23383143 Hash: 740F57734B1DF1B2AF9F4E51B14D96F7 Accuracy: -m0
  Conclusion: CDDA 99%
  Signature: 5F64EA8E4031EA03FDC7B2667F6577014FB1A7C3
#777Продолжительность: 00:50:49
Трек лист:
01. No Such Thing (3:45)
02. Poison Eye (3:57)
03. Arms Around Your Love (3:34)
04. Safe and Sound (4:17)
05. She'll Never Be Your Man (3:24)
06. Ghosts (3:52)
07. Killing Birds (3:39)
08. Billie Jean (4:41)
09. Scar on the Sky (3:40)
10. Your Soul Today (3:27)
11. Finally Forever (3:37)
12. Silence the Voices (4:27)
13. Disappearing Act (4:33)
14. You Know My Name (4:00)
Код:
Код: Выделить всё
Exact Audio Copy V0.99 prebeta 4 from 23. January 2008

EAC extraction logfile from 5. February 2009, 21:03

Chris Cornell / Carry On

Used drive  : PLDS    DVD+-RW DH-16A6S   Adapter: 0  ID: 1

Read mode               : Secure
Utilize accurate stream : Yes
Defeat audio cache      : Yes
Make use of C2 pointers : No

Read offset correction                      : 6
Overread into Lead-In and Lead-Out          : No
Fill up missing offset samples with silence : Yes
Delete leading and trailing silent blocks   : No
Null samples used in CRC calculations       : Yes
Used interface                              : Native Win32 interface for Win NT & 2000
Gap handling                                : Appended to previous track

Used output format              : User Defined Encoder
Selected bitrate                : 320 kBit/s
Quality                         : High
Add ID3 tag                     : No
Command line compressor         : C:\Program Files (x86)\Exact Audio Copy\Flac\flac.exe
Additional command line options : -V -8 -T "artist=%a" -T "title=%t" -T "album=%g" -T "date=%y" -T "tracknumber=%n" -T "genre=%m" %s

TOC of the extracted CD

     Track |   Start  |  Length  | Start sector | End sector
    ---------------------------------------------------------
        1  |  0:00.00 |  3:44.67 |         0    |    16866
        2  |  3:44.67 |  3:57.18 |     16867    |    34659
        3  |  7:42.10 |  3:34.05 |     34660    |    50714
        4  | 11:16.15 |  4:16.55 |     50715    |    69969
        5  | 15:32.70 |  3:24.12 |     69970    |    85281
        6  | 18:57.07 |  3:51.38 |     85282    |   102644
        7  | 22:48.45 |  3:38.42 |    102645    |   119036
        8  | 26:27.12 |  4:41.28 |    119037    |   140139
        9  | 31:08.40 |  3:40.20 |    140140    |   156659
       10  | 34:48.60 |  3:27.10 |    156660    |   172194
       11  | 38:15.70 |  3:37.00 |    172195    |   188469
       12  | 41:52.70 |  4:27.25 |    188470    |   208519
       13  | 46:20.20 |  4:33.30 |    208520    |   229024
       14  | 50:53.50 |  4:00.17 |    229025    |   247041

Track  1

     Filename C:\EACRips\Chris Cornell - 2007 - Carry On\01 - No Such Thing.wav

     Pre-gap length  0:00:02.00

     Peak level 98.7 %
     Track quality 100.0 %
     Test CRC BB3F2F95
     Copy CRC BB3F2F95
     Accurately ripped (confidence 58)  [505B7EF4]
     Copy OK

Track  2

     Filename C:\EACRips\Chris Cornell - 2007 - Carry On\02 - Poison Eye.wav

     Peak level 98.7 %
     Track quality 100.0 %
     Test CRC 8AC615DA
     Copy CRC 8AC615DA
     Accurately ripped (confidence 58)  [B2910D7A]
     Copy OK

Track  3

     Filename C:\EACRips\Chris Cornell - 2007 - Carry On\03 - Arms Around Your Love.wav

     Pre-gap length  0:00:00.06

     Peak level 98.7 %
     Track quality 100.0 %
     Test CRC 3D3048D1
     Copy CRC 3D3048D1
     Accurately ripped (confidence 58)  [5393B4DA]
     Copy OK

Track  4

     Filename C:\EACRips\Chris Cornell - 2007 - Carry On\04 - Safe and Sound.wav

     Peak level 98.7 %
     Track quality 100.0 %
     Test CRC 58735E74
     Copy CRC 58735E74
     Accurately ripped (confidence 58)  [C98856C9]
     Copy OK

Track  5

     Filename C:\EACRips\Chris Cornell - 2007 - Carry On\05 - She'll Never Be Your Man.wav

     Peak level 98.7 %
     Track quality 100.0 %
     Test CRC 04C3F785
     Copy CRC 04C3F785
     Accurately ripped (confidence 58)  [9D3B8342]
     Copy OK

Track  6

     Filename C:\EACRips\Chris Cornell - 2007 - Carry On\06 - Ghosts.wav

     Peak level 98.7 %
     Track quality 100.0 %
     Test CRC 3156A6EC
     Copy CRC 3156A6EC
     Accurately ripped (confidence 58)  [FF144E82]
     Copy OK

Track  7

     Filename C:\EACRips\Chris Cornell - 2007 - Carry On\07 - Killing Birds.wav

     Peak level 98.7 %
     Track quality 100.0 %
     Test CRC 1D312D5C
     Copy CRC 1D312D5C
     Accurately ripped (confidence 58)  [2E65C1B9]
     Copy OK

Track  8

     Filename C:\EACRips\Chris Cornell - 2007 - Carry On\08 - Billie Jean.wav

     Peak level 98.7 %
     Track quality 100.0 %
     Test CRC 3999F29E
     Copy CRC 3999F29E
     Accurately ripped (confidence 58)  [D1E5A1B1]
     Copy OK

Track  9

     Filename C:\EACRips\Chris Cornell - 2007 - Carry On\09 - Scar on the Sky.wav

     Peak level 98.7 %
     Track quality 100.0 %
     Test CRC E4303291
     Copy CRC E4303291
     Accurately ripped (confidence 58)  [2DCC483D]
     Copy OK

Track 10

     Filename C:\EACRips\Chris Cornell - 2007 - Carry On\10 - Your Soul Today.wav

     Peak level 98.7 %
     Track quality 100.0 %
     Test CRC 0D750856
     Copy CRC 0D750856
     Accurately ripped (confidence 57)  [4863538E]
     Copy OK

Track 11

     Filename C:\EACRips\Chris Cornell - 2007 - Carry On\11 - Finally Forever.wav

     Pre-gap length  0:00:01.20

     Peak level 98.7 %
     Track quality 100.0 %
     Test CRC 1FA421C3
     Copy CRC 1FA421C3
     Accurately ripped (confidence 58)  [98F030D7]
     Copy OK

Track 12

     Filename C:\EACRips\Chris Cornell - 2007 - Carry On\12 - Silence the Voices.wav

     Peak level 98.8 %
     Track quality 100.0 %
     Test CRC 5F244B9D
     Copy CRC 5F244B9D
     Accurately ripped (confidence 57)  [18C86241]
     Copy OK

Track 13

     Filename C:\EACRips\Chris Cornell - 2007 - Carry On\13 - Disappearing Act.wav

     Peak level 98.7 %
     Track quality 100.0 %
     Test CRC E3F1FECC
     Copy CRC E3F1FECC
     Accurately ripped (confidence 58)  [8220E605]
     Copy OK

Track 14

     Filename C:\EACRips\Chris Cornell - 2007 - Carry On\14 - You Know My Name.wav

     Peak level 98.9 %
     Track quality 100.0 %
     Test CRC 7642C4C5
     Copy CRC 7642C4C5
     Accurately ripped (confidence 56)  [2BCC6A37]
     Copy OK

All tracks accurately ripped

No errors occurred

End of status report
Код:
Код: Выделить всё
-----------------------

DON'T MODIFY THIS FILE

-----------------------

PERFORMER: auCDtect Task Manager, ver. 1.6.0 RC1 build 1.6.0.1
Copyright (c) 2008-2010 y-soft. All rights reserved
http:/y-soft.org

ANALYZER: auCDtect: CD records authenticity detector, version 0.8.2
Copyright (c) 2004 Oleg Berngardt. All rights reserved.
Copyright (c) 2004 Alexander Djourik. All rights reserved.

FILE: 14 - You Know My Name.flac
  Size: 30349577 Hash: C155AF1CE5D80FA1B4F0238CA49C69C7 Accuracy: -m0
  Conclusion: CDDA 99%
  Signature: A6A2D87BF4A6C8492CAB7A30D62A924EEABD5E42
FILE: 13 - Disappearing Act.flac
  Size: 32215779 Hash: F2D2B33FFD656049B4442BE12481C400 Accuracy: -m0
  Conclusion: CDDA 100%
  Signature: C3F9917FED11E98874E0EE1400B56611FECAD0FE
FILE: 12 - Silence the Voices.flac
  Size: 31005603 Hash: 19FC86A530E2B8878C11B86B13DC6DC5 Accuracy: -m0
  Conclusion: CDDA 100%
  Signature: A83B92149D37814A6B414AADB08F4BEADA663593
FILE: 11 - Finally Forever.flac
  Size: 26018364 Hash: FE4C1A919B360E425C2DC6CD1CBCCF66 Accuracy: -m0
  Conclusion: CDDA 100%
  Signature: 18FA9919FC23794B90A2ECEA958796D19FC629B4
FILE: 10 - Your Soul Today.flac
  Size: 26598504 Hash: 6882C0835A79D9E59F0DD1F04BF19562 Accuracy: -m0
  Conclusion: CDDA 100%
  Signature: 6DC3687D62A5588D180A3B3E40875A38AD8639DE
FILE: 09 - Scar on the Sky.flac
  Size: 26662762 Hash: 69BFB7C8D49F101B9DAD8258AE00FD2C Accuracy: -m0
  Conclusion: CDDA 100%
  Signature: 1DAF6BC383A10DE8AD355D749A26AC75B4FEFDF3
FILE: 08 - Billie Jean.flac
  Size: 31106772 Hash: C0A56301F6A5867DA5DA0C87B511FAA3 Accuracy: -m0
  Conclusion: CDDA 100%
  Signature: 366E7080F432DDF5BD8D4BE6C396A6CFA90D1B61
FILE: 07 - Killing Birds.flac
  Size: 27232240 Hash: D3368C97CC492FC6A2AF201CB4622DAC Accuracy: -m0
  Conclusion: CDDA 100%
  Signature: 2B60814022A13ED41FC4C45B833BDDB96F9EA97E
FILE: 06 - Ghosts.flac
  Size: 30004116 Hash: F23C8B701A15095B1ED1D47B61D5AD8D Accuracy: -m0
  Conclusion: CDDA 99%
  Signature: 1957354F4755D8A4E2C25986A313139CBC66D33A
FILE: 05 - She'll Never Be Your Man.flac
  Size: 26103807 Hash: 29EC8B3E7636EF61FD970F83401F616E Accuracy: -m0
  Conclusion: CDDA 100%
  Signature: 7ABA47BC32309923050A000BD4DDF5308B18B31D
FILE: 04 - Safe and Sound.flac
  Size: 31446794 Hash: 122CB584394FA9E439634365D72B27B3 Accuracy: -m0
  Conclusion: CDDA 100%
  Signature: A16DDDD21429F2D521049239562A397680323822
FILE: 03 - Arms Around Your Love.flac
  Size: 28984031 Hash: 8CF735392790A9DDF1C86ACD8445507D Accuracy: -m0
  Conclusion: CDDA 100%
  Signature: 149169ADF99DDFDD4059F6A63F5C3B6F4D618C54
FILE: 02 - Poison Eye.flac
  Size: 31048017 Hash: 898D876DAB8A1E0FAB01A9F93332D652 Accuracy: -m0
  Conclusion: CDDA 100%
  Signature: 10C1E802D141FD2B07CFF0E05365576323A51CBC
FILE: 01 - No Such Thing.flac
  Size: 30134500 Hash: C12A1A2FB54DBC9193962D7A3E9DAC8E Accuracy: -m0
  Conclusion: CDDA 100%
  Signature: 0C812D4853808F05951A3C4B4883DF116B6E3837
#777Продолжительность: 01:16:35
Трек лист:
01. No Such Thing - Chris Cornell (3:45)
02. Black Hole Sun - Soundgarden (5:18)
03. Hunger Strike - Temple of the Dog (4:06)
04. Outshined - Soundgarden (5:11)
05. The Day I Tried To Live - Soundgarden (5:19)
06. Fell On Black Days - Soundgarden (4:42)
07. Spoonman - Soundgarden (4:06)
08. Blow Up the Outside World - Soundgarden (5:46)
09. Be Yourself - Audioslave (4:39)
10. Original Fire (Acoustic) - Audioslave (3:23)
11. Show Me How To Live - Audioslave (4:38)
12. Can't Change Me - Chris Cornell (3:24)
13. Say Hello 2 Heaven - Temple of the Dog (6:24)
14. Like a Stone (Acoustic) - Audioslave (3:51)
15. Black Hole Sun (Acoustic) - Soundgarden (4:36)
16. You Know My Name - Chris Cornell (4:00)
17. Arms Around Your Love - Chris Cornell (3:34)
Код:
Код: Выделить всё
EAC extraction logfile from 28. April 2007, 14:05 for CD
Various / The Roads We Choose - A Retrospective

Used drive  : _NEC    DVD_RW ND-2500A   Adapter: 1  ID: 0
Read mode   : Secure with NO C2, accurate stream, disable cache
Read offset correction : 48
Overread into Lead-In and Lead-Out : No

Used output format : C:\Program Files\FLAC\flac.exe   (User Defined Encoder)
                     320 kBit/s
                     Additional command line options : -V -8 -T "artist=%a" -T "title=%t" -T "album=%g" -T "date=%y" -T "tracknumber=%n" -T "genre=%m" %s

Other options      :
    Fill up missing offset samples with silence : Yes
    Delete leading and trailing silent blocks : No
    Installed external ASPI interface

Track  1
     Filename C:\Documents and Settings\MARK\Desktop\dvd's to burn\Seeds\Chris Cornell\The Roads We Choose - A Retrospective\01 - Chris Cornell.wav

     Pre-gap length  0:00:02.00

     Peak level 98.7 %
     Track quality 100.0 %
     Test CRC CB4522CE
     Copy CRC CB4522CE
     Copy OK

Track  2
     Filename C:\Documents and Settings\MARK\Desktop\dvd's to burn\Seeds\Chris Cornell\The Roads We Choose - A Retrospective\02 - Soundgarden.wav

     Peak level 95.3 %
     Track quality 100.0 %
     Test CRC AA888428
     Copy CRC AA888428
     Copy OK

Track  3
     Filename C:\Documents and Settings\MARK\Desktop\dvd's to burn\Seeds\Chris Cornell\The Roads We Choose - A Retrospective\03 - Temple of the Dog.wav

     Peak level 97.7 %
     Track quality 100.0 %
     Test CRC 560CB667
     Copy CRC 560CB667
     Copy OK

Track  4
     Filename C:\Documents and Settings\MARK\Desktop\dvd's to burn\Seeds\Chris Cornell\The Roads We Choose - A Retrospective\04 - Soundgarden.wav

     Peak level 100.0 %
     Track quality 100.0 %
     Test CRC FBD1DC5E
     Copy CRC FBD1DC5E
     Copy OK

Track  5
     Filename C:\Documents and Settings\MARK\Desktop\dvd's to burn\Seeds\Chris Cornell\The Roads We Choose - A Retrospective\05 - Soundgarden.wav

     Peak level 95.3 %
     Track quality 100.0 %
     Test CRC C6D3B618
     Copy CRC C6D3B618
     Copy OK

Track  6
     Filename C:\Documents and Settings\MARK\Desktop\dvd's to burn\Seeds\Chris Cornell\The Roads We Choose - A Retrospective\06 - Soundgarden.wav

     Peak level 95.3 %
     Track quality 99.9 %
     Test CRC FF224206
     Copy CRC FF224206
     Copy OK

Track  7
     Filename C:\Documents and Settings\MARK\Desktop\dvd's to burn\Seeds\Chris Cornell\The Roads We Choose - A Retrospective\07 - Soundgarden.wav

     Peak level 95.3 %
     Track quality 99.9 %
     Test CRC 811F5822
     Copy CRC 811F5822
     Copy OK

Track  8
     Filename C:\Documents and Settings\MARK\Desktop\dvd's to burn\Seeds\Chris Cornell\The Roads We Choose - A Retrospective\08 - Soundgarden.wav

     Peak level 99.8 %
     Track quality 100.0 %
     Test CRC 1D4C8D75
     Copy CRC 1D4C8D75
     Copy OK

Track  9
     Filename C:\Documents and Settings\MARK\Desktop\dvd's to burn\Seeds\Chris Cornell\The Roads We Choose - A Retrospective\09 - Audioslave.wav

     Peak level 99.8 %
     Track quality 100.0 %
     Test CRC 0FAFCB0B
     Copy CRC 0FAFCB0B
     Copy OK

Track 10
     Filename C:\Documents and Settings\MARK\Desktop\dvd's to burn\Seeds\Chris Cornell\The Roads We Choose - A Retrospective\10 - Audioslave.wav

     Peak level 100.0 %
     Track quality 100.0 %
     Test CRC 19A8E2FC
     Copy CRC 19A8E2FC
     Copy OK

Track 11
     Filename C:\Documents and Settings\MARK\Desktop\dvd's to burn\Seeds\Chris Cornell\The Roads We Choose - A Retrospective\11 - Audioslave.wav

     Peak level 100.0 %
     Track quality 100.0 %
     Test CRC FBBC3FA2
     Copy CRC FBBC3FA2
     Copy OK

Track 12
     Filename C:\Documents and Settings\MARK\Desktop\dvd's to burn\Seeds\Chris Cornell\The Roads We Choose - A Retrospective\12 - Chris Cornell.wav

     Peak level 99.8 %
     Track quality 99.9 %
     Test CRC 06DC8689
     Copy CRC 06DC8689
     Copy OK

Track 13
     Filename C:\Documents and Settings\MARK\Desktop\dvd's to burn\Seeds\Chris Cornell\The Roads We Choose - A Retrospective\13 - Temple of the Dog.wav

     Peak level 97.7 %
     Track quality 99.9 %
     Test CRC 1D1091FF
     Copy CRC 1D1091FF
     Copy OK

Track 14
     Filename C:\Documents and Settings\MARK\Desktop\dvd's to burn\Seeds\Chris Cornell\The Roads We Choose - A Retrospective\14 - Audioslave.wav

     Peak level 100.0 %
     Track quality 100.0 %
     Test CRC F92D0CEA
     Copy CRC F92D0CEA
     Copy OK

Track 15
     Filename C:\Documents and Settings\MARK\Desktop\dvd's to burn\Seeds\Chris Cornell\The Roads We Choose - A Retrospective\15 - Soundgarden.wav

     Peak level 100.0 %
     Track quality 100.0 %
     Test CRC 1CBF8F1B
     Copy CRC 1CBF8F1B
     Copy OK

Track 16
     Filename C:\Documents and Settings\MARK\Desktop\dvd's to burn\Seeds\Chris Cornell\The Roads We Choose - A Retrospective\16 - Chris Cornell.wav

     Peak level 98.9 %
     Track quality 100.0 %
     Test CRC A6C9D923
     Copy CRC A6C9D923
     Copy OK

Track 17
     Filename C:\Documents and Settings\MARK\Desktop\dvd's to burn\Seeds\Chris Cornell\The Roads We Choose - A Retrospective\17 - Chris Cornell.wav

     Peak level 98.7 %
     Track quality 100.0 %
     Test CRC 74275324
     Copy CRC 74275324
     Copy OK

No errors occured

End of status report
Код:
Код: Выделить всё
-----------------------

DON'T MODIFY THIS FILE

-----------------------

PERFORMER: auCDtect Task Manager, ver. 1.6.0 RC1 build 1.6.0.1
Copyright (c) 2008-2010 y-soft. All rights reserved
http:/y-soft.org

ANALYZER: auCDtect: CD records authenticity detector, version 0.8.2
Copyright (c) 2004 Oleg Berngardt. All rights reserved.
Copyright (c) 2004 Alexander Djourik. All rights reserved.

FILE: 17.Chris Cornell - Arms Around Your Love.flac
  Size: 29108546 Hash: 2667999C54A58EE249E2602C215F1111 Accuracy: -m0
  Conclusion: CDDA 99%
  Signature: 3679B0F1760CC543F6D42A5094BE1D94A94F0239
FILE: 16.Chris Cornell - You Know My Name.flac
  Size: 30693613 Hash: 686727EDA3D987370FEFB6AE193DED85 Accuracy: -m0
  Conclusion: CDDA 100%
  Signature: 8C56DEEB5A6C2FBB366430EE86CFFA99A07AAAE3
FILE: 15.Soundgarden - Black Hole Sun (Acoustic).flac
  Size: 28061330 Hash: F5C6BDA4120D20132D04D928B8E6DD9D Accuracy: -m0
  Conclusion: CDDA 43%
  Signature: 8BCFD2FAD3323DB7E5B7BD5E49814E00139069A2
FILE: 14.Audioslave - Like A Stone (Acoustic).flac
  Size: 23966123 Hash: 1F2942EA94C739046A534F21812E9B46 Accuracy: -m0
  Conclusion: CDDA 43%
  Signature: 831082C2B92548E3471AEE3DE9DBE39421470192
FILE: 13.Temple Of The Dog - Say Hello 2 Heaven.flac
  Size: 44281114 Hash: 10F67A27A16B38F4D00BE162E2274D55 Accuracy: -m0
  Conclusion: CDDA 100%
  Signature: 5FC4E6C7567385D198755A11E6FFECAC7C86F664
FILE: 12.Chris Cornell - Can't Change Me.flac
  Size: 23846293 Hash: 91AF466A1D120C118FEBF34D0F3A1CA2 Accuracy: -m0
  Conclusion: CDDA 100%
  Signature: 666658CDDFEA2898F851658B32FA29C5AC353FDF
FILE: 11.Audioslave - Show Me How To Live.flac
  Size: 36823331 Hash: 032F0368A881D27A5A65EA11AEA6F4BB Accuracy: -m0
  Conclusion: CDDA 99%
  Signature: 784A890FEFEDA6DE932AB07ED58F2317579A9711
FILE: 10.Audioslave - Original Fire (Acoustic).flac
  Size: 21828967 Hash: E4D11BCCE8295EDADDD302A85E166C90 Accuracy: -m0
  Conclusion: CDDA 54%
  Signature: D758A7988819FB0EFF3F332480F6FD116B5CAC4F
FILE: 09. Audioslave - Be Yourself.flac
  Size: 33965480 Hash: 2E557041FE552C40940D7E5982C81148 Accuracy: -m0
  Conclusion: CDDA 100%
  Signature: C10F6EEDFC9465A7FC1A9591C395BC87A12A0B24
FILE: 08. Soundgarden - Blow Up The Outside World.flac
  Size: 38380169 Hash: 3D7740A6AAA7C26AF85C198459DECBA7 Accuracy: -m0
  Conclusion: CDDA 100%
  Signature: F01B6B71711FD2F7A61F9FB27040CC7D7B06BCEE
FILE: 07. Soundgarden - Spoonman.flac
  Size: 29571396 Hash: E3E1FD735343DB6F6FDC9C2DDE4C859D Accuracy: -m0
  Conclusion: ???
  Signature: 6A2605288DF751A00DD7138C560FDCF7017DA4FC
FILE: 06. Soundgarden - Fell On Black Days.flac
  Size: 32758852 Hash: 217C1C67511DB5F5BBB9791788BD1A95 Accuracy: -m0
  Conclusion: CDDA 100%
  Signature: 27130F0358ABFF63543F1285362AE359CBA1217E
FILE: 05. Soundgarden - The Day I Tried To Live.flac
  Size: 36105418 Hash: 848B45AB7E225FB075DDAF9287FC48DF Accuracy: -m0
  Conclusion: CDDA 100%
  Signature: ADC5687E5F3194FFED9905FF53BD45C442363895
FILE: 04. Soundgarden - Outshined.flac
  Size: 38091250 Hash: 8D30955DA68C8B656CF22520C76C31F6 Accuracy: -m0
  Conclusion: CDDA 100%
  Signature: E6C3D31847D983716A9FB50BB71B8A1427963E69
FILE: 03. Temple Of The Dog - Hunger Strike.flac
  Size: 27783509 Hash: E6210010B6177986E7512FD60BFDD977 Accuracy: -m0
  Conclusion: CDDA 100%
  Signature: 7A354342B374DCD76BD598A82D0B452998AD6C89
FILE: 02. Soundgarden - Black Hole Sun.flac
  Size: 37710610 Hash: A30F921C34EBCC3C494C3C38949CE7FE Accuracy: -m0
  Conclusion: CDDA 100%
  Signature: 6372C2E1F1A727361DBC7668E968C2C281A2E7AB
FILE: 01. Chris Cornell - No Such Thing.flac
  Size: 30328766 Hash: 17535B4850EB2784DE3EC637C0676C61 Accuracy: -m0
  Conclusion: CDDA 100%
  Signature: A78B371804CC75F39DED2B0D39F8F3020F62A252
#777Продолжительность: 01:04:17
Трек лист:
01. Part Of Me (5:15)
02. Time (4:39)
03. Sweet Revenge (4:10)
04. Get Up (3:36)
05. Ground Zero (3:10)
06. Never Far Away (5:07)
07. Take Me Alive (4:36)
08. Long Gone (5:16)
09. Scream (6:15)
10. Enemy (4:35)
11. Other Side Of Town (4:48)
12. Climbing Up The Walls (4:50)
13. Watch Out (8:07)
Код:
Код: Выделить всё
X Lossless Decoder version 20090217 (101.1)

XLD extraction logfile from 2009-03-20 15:47:30 -0400

Chris Cornell / Scream

Used drive : MATSHITA DVD-R   UJ-857D (revision KBVB)

Use cdparanoia mode     : YES (CDParanoia III 10.2 engine)
Disable audio cache     : OK for the drive with cache less than 2750KB
Make use of C2 pointers : NO
Read offset correction  : 102
Max retry count         : 100

TOC of the extracted CD
     Track |   Start  |  Length  | Start sector | End sector
    ---------------------------------------------------------
        1  | 00:00:00 | 05:14:58 |         0    |    23607
        2  | 05:14:58 | 04:39:00 |     23608    |    44532
        3  | 09:53:58 | 04:10:03 |     44533    |    63285
        4  | 14:03:61 | 03:35:48 |     63286    |    79458
        5  | 17:39:34 | 03:09:52 |     79459    |    93685
        6  | 20:49:11 | 05:06:66 |     93686    |   116701
        7  | 25:56:02 | 04:35:74 |    116702    |   137400
        8  | 30:32:01 | 05:15:65 |    137401    |   161090
        9  | 35:47:66 | 06:14:49 |    161091    |   189189
       10  | 42:02:40 | 04:35:28 |    189190    |   209842
       11  | 46:37:68 | 04:48:36 |    209843    |   231478
       12  | 51:26:29 | 04:50:14 |    231479    |   253242
       13  | 56:16:43 | 08:07:10 |    253243    |   289777

Track 01
    Filename : /Users/apple/Desktop/01 - Part Of Me.flac

    CRC32 hash (test run)  : 40B03206
    CRC32 hash             : 40B03206
    CRC32 hash (skip zero) : 7484C64E
    AccurateRip signature  : 9A249F48
        ->Track not present in AccurateRip database.
    Statistics
        Read error                           : 0
        Skipped (treated as error)           : 0
        Edge jitter error (maybe fixed)      : 0
        Atom jitter error (maybe fixed)      : 0
        Drift error (maybe fixed)            : 0
        Dropped bytes error (maybe fixed)    : 0
        Duplicated bytes error (maybe fixed) : 0
        Inconsistency in error sectors       : 0

Track 02
    Filename : /Users/apple/Desktop/02 - Time.flac

    CRC32 hash (test run)  : CEBF212A
    CRC32 hash             : CEBF212A
    CRC32 hash (skip zero) : 0DEEDD0F
    AccurateRip signature  : 078BFFDB
        ->Track not present in AccurateRip database.
    Statistics
        Read error                           : 0
        Skipped (treated as error)           : 0
        Edge jitter error (maybe fixed)      : 0
        Atom jitter error (maybe fixed)      : 0
        Drift error (maybe fixed)            : 0
        Dropped bytes error (maybe fixed)    : 0
        Duplicated bytes error (maybe fixed) : 0
        Inconsistency in error sectors       : 0

Track 03
    Filename : /Users/apple/Desktop/03 - Sweet Revenge.flac

    CRC32 hash (test run)  : AE85A493
    CRC32 hash             : AE85A493
    CRC32 hash (skip zero) : 7F4D62FC
    AccurateRip signature  : BF9AEA4C
        ->Track not present in AccurateRip database.
    Statistics
        Read error                           : 0
        Skipped (treated as error)           : 0
        Edge jitter error (maybe fixed)      : 0
        Atom jitter error (maybe fixed)      : 0
        Drift error (maybe fixed)            : 0
        Dropped bytes error (maybe fixed)    : 0
        Duplicated bytes error (maybe fixed) : 0
        Inconsistency in error sectors       : 0

Track 04
    Filename : /Users/apple/Desktop/04 - Get Up.flac

    CRC32 hash (test run)  : 4769D557
    CRC32 hash             : 4769D557
    CRC32 hash (skip zero) : FC52122F
    AccurateRip signature  : F3457CFF
        ->Track not present in AccurateRip database.
    Statistics
        Read error                           : 0
        Skipped (treated as error)           : 0
        Edge jitter error (maybe fixed)      : 0
        Atom jitter error (maybe fixed)      : 0
        Drift error (maybe fixed)            : 0
        Dropped bytes error (maybe fixed)    : 0
        Duplicated bytes error (maybe fixed) : 0
        Inconsistency in error sectors       : 0

Track 05
    Filename : /Users/apple/Desktop/05 - Ground Zero.flac

    CRC32 hash (test run)  : 8C41F754
    CRC32 hash             : 8C41F754
    CRC32 hash (skip zero) : 62A3C17D
    AccurateRip signature  : CE071608
        ->Track not present in AccurateRip database.
    Statistics
        Read error                           : 0
        Skipped (treated as error)           : 0
        Edge jitter error (maybe fixed)      : 0
        Atom jitter error (maybe fixed)      : 0
        Drift error (maybe fixed)            : 0
        Dropped bytes error (maybe fixed)    : 0
        Duplicated bytes error (maybe fixed) : 0
        Inconsistency in error sectors       : 0

Track 06
    Filename : /Users/apple/Desktop/06 - Never Far Away.flac

    CRC32 hash (test run)  : DF38D4CF
    CRC32 hash             : DF38D4CF
    CRC32 hash (skip zero) : 4BC2570C
    AccurateRip signature  : 385092E6
        ->Track not present in AccurateRip database.
    Statistics
        Read error                           : 0
        Skipped (treated as error)           : 0
        Edge jitter error (maybe fixed)      : 0
        Atom jitter error (maybe fixed)      : 0
        Drift error (maybe fixed)            : 0
        Dropped bytes error (maybe fixed)    : 0
        Duplicated bytes error (maybe fixed) : 0
        Inconsistency in error sectors       : 0

Track 07
    Filename : /Users/apple/Desktop/07 - Take Me Alive.flac

    CRC32 hash (test run)  : CD9564F7
    CRC32 hash             : CD9564F7
    CRC32 hash (skip zero) : 76DE03EE
    AccurateRip signature  : E130BE81
        ->Track not present in AccurateRip database.
    Statistics
        Read error                           : 0
        Skipped (treated as error)           : 0
        Edge jitter error (maybe fixed)      : 0
        Atom jitter error (maybe fixed)      : 0
        Drift error (maybe fixed)            : 0
        Dropped bytes error (maybe fixed)    : 0
        Duplicated bytes error (maybe fixed) : 0
        Inconsistency in error sectors       : 0

Track 08
    Filename : /Users/apple/Desktop/08 - Long Gone.flac

    CRC32 hash (test run)  : 5E427E7A
    CRC32 hash             : 5E427E7A
    CRC32 hash (skip zero) : B74ED94A
    AccurateRip signature  : 041F1FC6
        ->Track not present in AccurateRip database.
    Statistics
        Read error                           : 0
        Skipped (treated as error)           : 0
        Edge jitter error (maybe fixed)      : 0
        Atom jitter error (maybe fixed)      : 0
        Drift error (maybe fixed)            : 0
        Dropped bytes error (maybe fixed)    : 0
        Duplicated bytes error (maybe fixed) : 0
        Inconsistency in error sectors       : 0

Track 09
    Filename : /Users/apple/Desktop/09 - Scream.flac

    CRC32 hash (test run)  : E30A3F99
    CRC32 hash             : E30A3F99
    CRC32 hash (skip zero) : 8A00C422
    AccurateRip signature  : F395D7A3
        ->Track not present in AccurateRip database.
    Statistics
        Read error                           : 0
        Skipped (treated as error)           : 0
        Edge jitter error (maybe fixed)      : 0
        Atom jitter error (maybe fixed)      : 0
        Drift error (maybe fixed)            : 0
        Dropped bytes error (maybe fixed)    : 0
        Duplicated bytes error (maybe fixed) : 0
        Inconsistency in error sectors       : 0

Track 10
    Filename : /Users/apple/Desktop/10 - Enemy.flac

    CRC32 hash (test run)  : C001384E
    CRC32 hash             : C001384E
    CRC32 hash (skip zero) : 39070D71
    AccurateRip signature  : 3F183626
        ->Track not present in AccurateRip database.
    Statistics
        Read error                           : 0
        Skipped (treated as error)           : 0
        Edge jitter error (maybe fixed)      : 0
        Atom jitter error (maybe fixed)      : 0
        Drift error (maybe fixed)            : 0
        Dropped bytes error (maybe fixed)    : 0
        Duplicated bytes error (maybe fixed) : 0
        Inconsistency in error sectors       : 0

Track 11
    Filename : /Users/apple/Desktop/11 - Other Side Of Town.flac

    CRC32 hash (test run)  : 11C242E5
    CRC32 hash             : 11C242E5
    CRC32 hash (skip zero) : A7A7B240
    AccurateRip signature  : BA964F54
        ->Track not present in AccurateRip database.
    Statistics
        Read error                           : 0
        Skipped (treated as error)           : 0
        Edge jitter error (maybe fixed)      : 0
        Atom jitter error (maybe fixed)      : 0
        Drift error (maybe fixed)            : 0
        Dropped bytes error (maybe fixed)    : 0
        Duplicated bytes error (maybe fixed) : 0
        Inconsistency in error sectors       : 0

Track 12
    Filename : /Users/apple/Desktop/12 - Climbing Up The Walls.flac

    CRC32 hash (test run)  : D795FD62
    CRC32 hash             : D795FD62
    CRC32 hash (skip zero) : 06379A32
    AccurateRip signature  : AD95D273
        ->Track not present in AccurateRip database.
    Statistics
        Read error                           : 0
        Skipped (treated as error)           : 0
        Edge jitter error (maybe fixed)      : 0
        Atom jitter error (maybe fixed)      : 0
        Drift error (maybe fixed)            : 0
        Dropped bytes error (maybe fixed)    : 0
        Duplicated bytes error (maybe fixed) : 0
        Inconsistency in error sectors       : 0

Track 13
    Filename : /Users/apple/Desktop/13 - Watch Out.flac

    CRC32 hash (test run)  : 881975A6
    CRC32 hash             : 881975A6
    CRC32 hash (skip zero) : CC429281
    AccurateRip signature  : ECCDF396
        ->Track not present in AccurateRip database.
    Statistics
        Read error                           : 0
        Skipped (treated as error)           : 0
        Edge jitter error (maybe fixed)      : 0
        Atom jitter error (maybe fixed)      : 0
        Drift error (maybe fixed)            : 0
        Dropped bytes error (maybe fixed)    : 0
        Duplicated bytes error (maybe fixed) : 0
        Inconsistency in error sectors       : 0

No errors occurred

End of status report
Код:
Код: Выделить всё
-----------------------

DON'T MODIFY THIS FILE

-----------------------

PERFORMER: auCDtect Task Manager, ver. 1.6.0 RC1 build 1.6.0.1
Copyright (c) 2008-2010 y-soft. All rights reserved
http:/y-soft.org

ANALYZER: auCDtect: CD records authenticity detector, version 0.8.2
Copyright (c) 2004 Oleg Berngardt. All rights reserved.
Copyright (c) 2004 Alexander Djourik. All rights reserved.

FILE: 13 - Watch Out.flac
  Size: 48986005 Hash: 24C249830FB240019933D45904708110 Accuracy: -m0
  Conclusion: CDDA 100%
  Signature: 4346D34F7518A29BF060F610A95D6AD654883B08
FILE: 12 - Climbing Up The Walls.flac
  Size: 33979417 Hash: 1CCAF1D36F999590C3793A016E32BB3E Accuracy: -m0
  Conclusion: CDDA 100%
  Signature: C0F23BAACF0C2A7D05ADEDF2B58229366DF7E8F0
FILE: 11 - Other Side Of Town.flac
  Size: 34211971 Hash: 9C298E101C9BDAF32BB37D1F3B6BC56B Accuracy: -m0
  Conclusion: CDDA 100%
  Signature: BFEBD1480D731DA013092966B6F81733AD3C3075
FILE: 10 - Enemy.flac
  Size: 34284338 Hash: 207CF42801B57F49264110A2C68AD2B1 Accuracy: -m0
  Conclusion: CDDA 100%
  Signature: 5001A2D602D55CC54F0AC990E0C0733352F5B2C5
FILE: 09 - Scream.flac
  Size: 45148283 Hash: 3A800D779F9ABCAA9837A1EB9CC5F637 Accuracy: -m0
  Conclusion: CDDA 99%
  Signature: EC710208164358B6B68D22B0B0898DD48B85709C
FILE: 08 - Long Gone.flac
  Size: 37988651 Hash: 17B9D9E7D3388E5D5BD3D2EE449F9819 Accuracy: -m0
  Conclusion: MPEG 95%
  Signature: 887F8A0E6B0B95102977C28ACCB900BC5A6A19E4
FILE: 07 - Take Me Alive.flac
  Size: 33783727 Hash: 8DA21E578C86F2CCA8344B87F51ED8EA Accuracy: -m0
  Conclusion: CDDA 100%
  Signature: 0ECBF49018931B64DAFC2B5905BA71C4DCECBE9C
FILE: 06 - Never Far Away.flac
  Size: 41228207 Hash: C035E56D1DC6ECFF5F2675CF46FE6079 Accuracy: -m0
  Conclusion: CDDA 100%
  Signature: 69A8844DB0B0329BD3F866C762151F7BAB2F4BD2
FILE: 05 - Ground Zero.flac
  Size: 21622543 Hash: AA99839358106C867A4D33BE07DCFB51 Accuracy: -m0
  Conclusion: CDDA 100%
  Signature: F29C67704AA0C0AAD54104E30A23856544BCB4F4
FILE: 04 - Get Up.flac
  Size: 25933727 Hash: B885D4B2F1657B716C97ED2BBC100EAF Accuracy: -m0
  Conclusion: CDDA 100%
  Signature: 19C98A29A9FAC136D2F786EF9CEFFECAD82C32E3
FILE: 03 - Sweet Revenge.flac
  Size: 32013747 Hash: D7E1AC2F2F8C9A094A2369C8405076D4 Accuracy: -m0
  Conclusion: MPEG 79%
  Signature: 44C7627D7828BD38E9AF8AC76E1766B397E0FD1A
FILE: 02 - Time.flac
  Size: 35363102 Hash: F34A3A71FAE40085A54E84E8FD0C5E8E Accuracy: -m0
  Conclusion: CDDA 100%
  Signature: 5E15F1237C5E5CDB990C10B938F47D839D480B22
FILE: 01 - Part Of Me.flac
  Size: 37388553 Hash: C84771747F342D5D19FED7E267FE730A Accuracy: -m0
  Conclusion: MPEG 95%
  Signature: 4D3F9C26DC9355ED7CA2ADBE8CD8B404EAEFB92C
#777Продолжительность: 01:16:59
Трек лист:
01. As Hope And Promise Fade [3:47]
02. Scar On The Sky [3:40]
03. Call Me A Dog [4:52]
04. Ground Zero [2:59]
05. Can't Change Me [4:19]
06. I Am The Highway [4:57]
07. Thank You [4:48]
08. Cleaning My Gun [5:19]
09. Wide Awake [3:33]
10. Fell On Black Days [5:05]
11. All Night Thing [3:25]
12. Doesn't Remind Me [4:08]
13. Like A Stone [4:04]
14. Black Hole Sun [4:38]
15. Imagine [4:07]
16. The Keeper [3:58]
17. As Hope And Promise Fade (Bonus Track) [4:16]
18. Call Me A Dog (Bonus Track) [5:13]
Код:
Код: Выделить всё
X Lossless Decoder version 20111113 (137.1)

XLD extraction logfile from 2011-11-21 21:41:29 -0500

Chris Cornell / Songbook (Best Buy Exclusive)

Used drive : MATSHITA DVD-R   UJ-868 (revision KB19)

Ripper mode             : XLD Secure Ripper
Disable audio cache     : OK for the drive with a cache less than 1375KiB
Make use of C2 pointers : NO
Read offset correction  : 102
Max retry count         : 100
Gap status              : Analyzed, Appended

TOC of the extracted CD
     Track |   Start  |  Length  | Start sector | End sector
    ---------------------------------------------------------
        1  | 00:00:00 | 03:47:01 |         0    |    17025
        2  | 03:47:01 | 03:40:09 |     17026    |    33534
        3  | 07:27:10 | 04:51:51 |     33535    |    55410
        4  | 12:18:61 | 02:58:44 |     55411    |    68804
        5  | 15:17:30 | 04:18:59 |     68805    |    88213
        6  | 19:36:14 | 04:56:53 |     88214    |   110466
        7  | 24:32:67 | 04:48:14 |    110467    |   132080
        8  | 29:21:06 | 05:18:55 |    132081    |   155985
        9  | 34:39:61 | 03:33:00 |    155986    |   171960
       10  | 38:12:61 | 05:05:10 |    171961    |   194845
       11  | 43:17:71 | 03:25:20 |    194846    |   210240
       12  | 46:43:16 | 04:08:19 |    210241    |   228859
       13  | 50:51:35 | 04:04:19 |    228860    |   247178
       14  | 54:55:54 | 04:37:55 |    247179    |   268008
       15  | 59:33:34 | 04:06:50 |    268009    |   286508
       16  | 63:40:09 | 03:57:45 |    286509    |   304328
       17  | 67:37:54 | 04:15:53 |    304329    |   323506
       18  | 71:53:32 | 05:13:10 |    323507    |   346991

AccurateRip Summary
    Disc not found in AccurateRip DB.

All Tracks
    Album gain             : -10.70 dB
    Peak                   : 1.000000
    Statistics
        Read error                           : 0
        Jitter error (maybe fixed)           : 0
        Retry sector count                   : 0
        Damaged sector count                 : 0

Track 01
    Filename : /CD rips/Chris Cornell - Songbook (Best Buy Exclusive) (2011) [FLAC]/01 As Hope And Promise Fade.flac
    Pre-gap length : 00:02:00

    Track gain             : -10.71 dB
    Peak                   : 1.000000
    CRC32 hash (test run)  : 40467B86
    CRC32 hash             : 40467B86
    CRC32 hash (skip zero) : 79C23B35
    AccurateRip signature  : AE8CD7AA
        ->Track not present in AccurateRip database.
    Statistics
        Read error                           : 0
        Jitter error (maybe fixed)           : 0
        Retry sector count                   : 0
        Damaged sector count                 : 0

Track 02
    Filename : /CD rips/Chris Cornell - Songbook (Best Buy Exclusive) (2011) [FLAC]/02 Scar On The Sky.flac

    Track gain             : -10.49 dB
    Peak                   : 1.000000
    CRC32 hash (test run)  : 9C614C0C
    CRC32 hash             : 9C614C0C
    CRC32 hash (skip zero) : 4B1AA2F7
    AccurateRip signature  : 6C1D6A56
        ->Track not present in AccurateRip database.
    Statistics
        Read error                           : 0
        Jitter error (maybe fixed)           : 0
        Retry sector count                   : 0
        Damaged sector count                 : 0

Track 03
    Filename : /CD rips/Chris Cornell - Songbook (Best Buy Exclusive) (2011) [FLAC]/03 Call Me A Dog.flac

    Track gain             : -10.89 dB
    Peak                   : 1.000000
    CRC32 hash (test run)  : 9CE17EE3
    CRC32 hash             : 9CE17EE3
    CRC32 hash (skip zero) : 30C054C6
    AccurateRip signature  : B278594A
        ->Track not present in AccurateRip database.
    Statistics
        Read error                           : 0
        Jitter error (maybe fixed)           : 0
        Retry sector count                   : 0
        Damaged sector count                 : 0

Track 04
    Filename : /CD rips/Chris Cornell - Songbook (Best Buy Exclusive) (2011) [FLAC]/04 Ground Zero.flac

    Track gain             : -11.14 dB
    Peak                   : 1.000000
    CRC32 hash (test run)  : 14087CAA
    CRC32 hash             : 14087CAA
    CRC32 hash (skip zero) : 884842C2
    AccurateRip signature  : 76135D80
        ->Track not present in AccurateRip database.
    Statistics
        Read error                           : 0
        Jitter error (maybe fixed)           : 0
        Retry sector count                   : 0
        Damaged sector count                 : 0

Track 05
    Filename : /CD rips/Chris Cornell - Songbook (Best Buy Exclusive) (2011) [FLAC]/05 Can't Change Me.flac

    Track gain             : -10.17 dB
    Peak                   : 1.000000
    CRC32 hash (test run)  : FA27DB9E
    CRC32 hash             : FA27DB9E
    CRC32 hash (skip zero) : A874A5FF
    AccurateRip signature  : B219FFCC
        ->Track not present in AccurateRip database.
    Statistics
        Read error                           : 0
        Jitter error (maybe fixed)           : 0
        Retry sector count                   : 0
        Damaged sector count                 : 0

Track 06
    Filename : /CD rips/Chris Cornell - Songbook (Best Buy Exclusive) (2011) [FLAC]/06 I Am The Highway.flac

    Track gain             : -10.18 dB
    Peak                   : 1.000000
    CRC32 hash (test run)  : CD530449
    CRC32 hash             : CD530449
    CRC32 hash (skip zero) : ED8A89F5
    AccurateRip signature  : 2225A451
        ->Track not present in AccurateRip database.
    Statistics
        Read error                           : 0
        Jitter error (maybe fixed)           : 0
        Retry sector count                   : 0
        Damaged sector count                 : 0

Track 07
    Filename : /CD rips/Chris Cornell - Songbook (Best Buy Exclusive) (2011) [FLAC]/07 Thank You.flac

    Track gain             : -9.90 dB
    Peak                   : 1.000000
    CRC32 hash (test run)  : 2A9602BF
    CRC32 hash             : 2A9602BF
    CRC32 hash (skip zero) : 53DCCF48
    AccurateRip signature  : A930BD7B
        ->Track not present in AccurateRip database.
    Statistics
        Read error                           : 0
        Jitter error (maybe fixed)           : 0
        Retry sector count                   : 0
        Damaged sector count                 : 0

Track 08
    Filename : /CD rips/Chris Cornell - Songbook (Best Buy Exclusive) (2011) [FLAC]/08 Cleaning My Gun.flac

    Track gain             : -10.84 dB
    Peak                   : 1.000000
    CRC32 hash (test run)  : BD2BA09E
    CRC32 hash             : BD2BA09E
    CRC32 hash (skip zero) : 3EFC6B39
    AccurateRip signature  : 17276193
        ->Track not present in AccurateRip database.
    Statistics
        Read error                           : 0
        Jitter error (maybe fixed)           : 0
        Retry sector count                   : 0
        Damaged sector count                 : 0

Track 09
    Filename : /CD rips/Chris Cornell - Songbook (Best Buy Exclusive) (2011) [FLAC]/09 Wide Awake.flac

    Track gain             : -11.10 dB
    Peak                   : 1.000000
    CRC32 hash (test run)  : 3A801B52
    CRC32 hash             : 3A801B52
    CRC32 hash (skip zero) : 134B9B6B
    AccurateRip signature  : 47D993CB
        ->Track not present in AccurateRip database.
    Statistics
        Read error                           : 0
        Jitter error (maybe fixed)           : 0
        Retry sector count                   : 0
        Damaged sector count                 : 0

Track 10
    Filename : /CD rips/Chris Cornell - Songbook (Best Buy Exclusive) (2011) [FLAC]/10 Fell On Black Days.flac

    Track gain             : -11.22 dB
    Peak                   : 1.000000
    CRC32 hash (test run)  : 4783BDD8
    CRC32 hash             : 4783BDD8
    CRC32 hash (skip zero) : EA6B131B
    AccurateRip signature  : B03E8C1A
        ->Track not present in AccurateRip database.
    Statistics
        Read error                           : 0
        Jitter error (maybe fixed)           : 0
        Retry sector count                   : 0
        Damaged sector count                 : 0

Track 11
    Filename : /CD rips/Chris Cornell - Songbook (Best Buy Exclusive) (2011) [FLAC]/11 All Night Thing.flac

    Track gain             : -10.52 dB
    Peak                   : 1.000000
    CRC32 hash (test run)  : 154426F4
    CRC32 hash             : 154426F4
    CRC32 hash (skip zero) : 9BAEC5D9
    AccurateRip signature  : 1C752BCC
        ->Track not present in AccurateRip database.
    Statistics
        Read error                           : 0
        Jitter error (maybe fixed)           : 0
        Retry sector count                   : 0
        Damaged sector count                 : 0

Track 12
    Filename : /CD rips/Chris Cornell - Songbook (Best Buy Exclusive) (2011) [FLAC]/12 Doesn't Remind Me.flac

    Track gain             : -11.14 dB
    Peak                   : 1.000000
    CRC32 hash (test run)  : 38DAED26
    CRC32 hash             : 38DAED26
    CRC32 hash (skip zero) : 3AF48927
    AccurateRip signature  : 5272D1A3
        ->Track not present in AccurateRip database.
    Statistics
        Read error                           : 0
        Jitter error (maybe fixed)           : 0
        Retry sector count                   : 0
        Damaged sector count                 : 0

Track 13
    Filename : /CD rips/Chris Cornell - Songbook (Best Buy Exclusive) (2011) [FLAC]/13 Like A Stone.flac

    Track gain             : -10.67 dB
    Peak                   : 1.000000
    CRC32 hash (test run)  : B4E94D1E
    CRC32 hash             : B4E94D1E
    CRC32 hash (skip zero) : 907B67E8
    AccurateRip signature  : 230BC6EA
        ->Track not present in AccurateRip database.
    Statistics
        Read error                           : 0
        Jitter error (maybe fixed)           : 0
        Retry sector count                   : 0
        Damaged sector count                 : 0

Track 14
    Filename : /CD rips/Chris Cornell - Songbook (Best Buy Exclusive) (2011) [FLAC]/14 Black Hole Sun.flac

    Track gain             : -10.66 dB
    Peak                   : 1.000000
    CRC32 hash (test run)  : C9F7B5D6
    CRC32 hash             : C9F7B5D6
    CRC32 hash (skip zero) : 4C39A457
    AccurateRip signature  : E033835B
        ->Track not present in AccurateRip database.
    Statistics
        Read error                           : 0
        Jitter error (maybe fixed)           : 0
        Retry sector count                   : 0
        Damaged sector count                 : 0

Track 15
    Filename : /CD rips/Chris Cornell - Songbook (Best Buy Exclusive) (2011) [FLAC]/15 Imagine.flac

    Track gain             : -10.71 dB
    Peak                   : 1.000000
    CRC32 hash (test run)  : C87425D2
    CRC32 hash             : C87425D2
    CRC32 hash (skip zero) : 6EE23FBF
    AccurateRip signature  : CD38508F
        ->Track not present in AccurateRip database.
    Statistics
        Read error                           : 0
        Jitter error (maybe fixed)           : 0
        Retry sector count                   : 0
        Damaged sector count                 : 0

Track 16
    Filename : /CD rips/Chris Cornell - Songbook (Best Buy Exclusive) (2011) [FLAC]/16 The Keeper.flac

    Track gain             : -9.20 dB
    Peak                   : 1.000000
    CRC32 hash (test run)  : E53FDAFC
    CRC32 hash             : E53FDAFC
    CRC32 hash (skip zero) : 672BBDEF
    AccurateRip signature  : B9C78F02
        ->Track not present in AccurateRip database.
    Statistics
        Read error                           : 0
        Jitter error (maybe fixed)           : 0
        Retry sector count                   : 0
        Damaged sector count                 : 0

Track 17
    Filename : /CD rips/Chris Cornell - Songbook (Best Buy Exclusive) (2011) [FLAC]/17 As Hope And Promise Fade (Bonus Track).flac

    Track gain             : -10.40 dB
    Peak                   : 1.000000
    CRC32 hash (test run)  : E80EBE66
    CRC32 hash             : E80EBE66
    CRC32 hash (skip zero) : ABD040A0
    AccurateRip signature  : DFE1D223
        ->Track not present in AccurateRip database.
    Statistics
        Read error                           : 0
        Jitter error (maybe fixed)           : 0
        Retry sector count                   : 0
        Damaged sector count                 : 0

Track 18
    Filename : /CD rips/Chris Cornell - Songbook (Best Buy Exclusive) (2011) [FLAC]/18 Call Me A Dog (Bonus Track).flac

    Track gain             : -10.70 dB
    Peak                   : 1.000000
    CRC32 hash (test run)  : 229C97B8
    CRC32 hash             : 229C97B8
    CRC32 hash (skip zero) : 65D2FFFF
    AccurateRip signature  : 497C78DE
        ->Track not present in AccurateRip database.
    Statistics
        Read error                           : 0
        Jitter error (maybe fixed)           : 0
        Retry sector count                   : 0
        Damaged sector count                 : 0

No errors occurred

End of status report
Код:
Код: Выделить всё
-----------------------

DON'T MODIFY THIS FILE

-----------------------

PERFORMER: auCDtect Task Manager, ver. 1.6.0 RC1 build 1.6.0.1
Copyright (c) 2008-2010 y-soft. All rights reserved
http:/y-soft.org

ANALYZER: auCDtect: CD records authenticity detector, version 0.8.2
Copyright (c) 2004 Oleg Berngardt. All rights reserved.
Copyright (c) 2004 Alexander Djourik. All rights reserved.

FILE: 18 Call Me A Dog (Bonus Track).flac
  Size: 37958877 Hash: DC721585A9616242B051C5A3BCFBBEB2 Accuracy: -m0
  Conclusion: CDDA 100%
  Signature: 55E30C6FC4DE310E89970B77875F20C4E721248A
FILE: 17 As Hope And Promise Fade (Bonus Track).flac
  Size: 28150826 Hash: 79E36728A1724102BFA2AB38A6D0FAC3 Accuracy: -m0
  Conclusion: CDDA 100%
  Signature: 864984F5E99A4E4C714B15877B02E34F9F8D4348
FILE: 16 The Keeper.flac
  Size: 26891837 Hash: 1335875F9207496AA8C177C4DD1EB59D Accuracy: -m0
  Conclusion: CDDA 100%
  Signature: 2395BDCCA1000BCC68F44252C507B09A36C427EC
FILE: 15 Imagine.flac
  Size: 27551003 Hash: 41F27A90676401F6D06FE9D246B23F66 Accuracy: -m0
  Conclusion: CDDA 100%
  Signature: 8DA6FBFAE9B681E2ED6DBE66161A9F15A7A547C3
FILE: 14 Black Hole Sun.flac
  Size: 31974828 Hash: 75E45111292CE85C6829CE43C8CD4231 Accuracy: -m0
  Conclusion: CDDA 100%
  Signature: 25A241ACE8C66A575A0E8F6D66E1640F9D3AA35D
FILE: 13 Like A Stone.flac
  Size: 28570396 Hash: AC810E38A26C99A10A35A1B76428EFD9 Accuracy: -m0
  Conclusion: CDDA 100%
  Signature: CCA642D7E72660795A6E03E3399985483AFABA80
FILE: 12 Doesn't Remind Me.flac
  Size: 31202707 Hash: 29D81590632FFC4DCD2E31382841FEA8 Accuracy: -m0
  Conclusion: CDDA 100%
  Signature: 2C85B3E48F9ECAC9345AC0181C4418DC17C4BB59
FILE: 11 All Night Thing.flac
  Size: 25145853 Hash: ECEC82AF4EAA61CBF133C9C1BC7FCF7F Accuracy: -m0
  Conclusion: CDDA 100%
  Signature: 261320A18AEA9D6F98FAB5EF870776FC4A097B3C
FILE: 10 Fell On Black Days.flac
  Size: 38102797 Hash: 09CE4232D93B2ED5B92ACBEFED3AF961 Accuracy: -m0
  Conclusion: CDDA 100%
  Signature: 7E809C96223CC676E59ABCF4718D9309C3B2BCD0
FILE: 09 Wide Awake.flac
  Size: 25137571 Hash: 74A9DDFCA2B96D7CDB55712A646078B2 Accuracy: -m0
  Conclusion: CDDA 100%
  Signature: 123E42D9CD63B6C1771782AC0F4A1290DF5E5931
FILE: 08 Cleaning My Gun.flac
  Size: 36866145 Hash: 6E9400A1C3AB9BB0CAB76E61F0E9C1C9 Accuracy: -m0
  Conclusion: CDDA 100%
  Signature: D6BE701B0C0B3AA9DEF626188729655118FC1AF6
FILE: 07 Thank You.flac
  Size: 30808654 Hash: A23A8F03E7CC97C9C6999275C5863326 Accuracy: -m0
  Conclusion: CDDA 100%
  Signature: 508E1FD6A660CFAF4D45D480467602D137E578BA
FILE: 06 I Am The Highway.flac
  Size: 35648352 Hash: DDF21CB1BA8327C1379105FD4F194371 Accuracy: -m0
  Conclusion: CDDA 100%
  Signature: F0451C041080871A5C8EAEC9AF478F80EF4D21D4
FILE: 05 Can't Change Me.flac
  Size: 30046146 Hash: B5743C90DE72585D5B9EC2A7DBC592E0 Accuracy: -m0
  Conclusion: CDDA 100%
  Signature: 0139C6078E801FB1758B52D625E7D59810F0022D
FILE: 04 Ground Zero.flac
  Size: 22204731 Hash: 7107105987D44E92853C2BE2609D9A63 Accuracy: -m0
  Conclusion: CDDA 100%
  Signature: BE0BCF60CA9ABD3DEFF5ED43C2A1706452715254
FILE: 03 Call Me A Dog.flac
  Size: 33986982 Hash: 624D2ABC3DAF5C725BCA9DA56FEAF774 Accuracy: -m0
  Conclusion: CDDA 100%
  Signature: 393642070BDE4DA385737BC552A88FF40A023156
FILE: 02 Scar On The Sky.flac
  Size: 27597151 Hash: C04A2E04B31BFBEAD8A82057E7500995 Accuracy: -m0
  Conclusion: CDDA 100%
  Signature: 40388B2037432419DBEA0CE51C285F1B1D54E7C9
FILE: 01 As Hope And Promise Fade.flac
  Size: 26474680 Hash: 8129CF538D5409FF2E2D42299F4EEF8E Accuracy: -m0
  Conclusion: CDDA 100%
  Signature: DFBA102921803DCA70E2AA2DC911AE23902B1950
Правила, инструкции, FAQ!!!
Торрент  Добавлен [16 мар 2014, 00:55] Скачать торрент Магнет ссылка
Скачать торрент
30.53 КБ

Статус
Проверен 
 
Размер  2.15 ГБ
Приватный: Нет (DHT включён)
.torrent скачан  2
Как залить торрент? | Как скачать Torrent? | Как смотреть и слушать онлайн?  
Гость
 



Вернуться в Дискографии (Зарубежные)

Кто сейчас на конференции

Сейчас этот форум просматривают: нет зарегистрированных пользователей и гости: 0