Четвертый (1972) HDTVRip


Статистика раздачи
Размер: 1.29 ГБ | Добавлен: 09 июн 2019, 11:25 | Скачали: 451
Сидеров: 38  [0 байт/сек]    Личеров: 1  [0 байт/сек]

Сообщение K15 » 09 июн 2019, 11:25

Информация о фильме
Название: Четвертый
Год выхода: 1972
Жанр: Драма
Режиссер: Александр Столпер
В ролях: Владимир Высоцкий, Маргарита Терехова, Сергей Шакуров, Александр Кайдановский, Сергей Сазонтьев, Юрий Соломин, Татьяна Васильева, Марис Лиепа, Армен Джигарханян, Юозас Будрайтис

Описание: Американский журналист волею обстоятельств поставлен перед выбором: предать огласке преступные планы сторонников войны и при этом лишиться всех жизненных благ или отступить. «Четвёртый» — это фильм, снятый советским режиссёром Александром Столпером по одноимённой пьесе Константина Симонова, датируемой 1961-м годом. В начале шестидесятых эта пьеса исполнялась многими театральными коллективами страны, среди которых такие гранды как БДТ и «Современник».



Выпущено: СССР
Продолжительность: 01:07:08
Перевод: Не требуется

Файл
Кодек: х264
Качество: HDTVRip-AVC
Видео: MPEG-4 AVC, 1152x498, 2312 Кбит/с, 25.000 fps
Аудио: AC3, 2 ch, 384 Кбит/с
Субтитры: Нет
Релиз от:


Общее
Уникальный идентификатор : 222189648839610871457467384411325542009 (0xA7282B783ACB6F748F37D39D90812E79)
Полное имя : Четвёртый.1972.HDTVRip-AVC.KORSAR.mkv
Формат : Matroska
Версия формата : Version 2
Размер файла : 1,29 Гбайт
Продолжительность : 1 ч. 7 м.
Общий поток : 2751 Кбит/сек
Дата кодирования : UTC 2017-06-15 15:36:30
Программа кодирования : mkvmerge v5.8.0 ('No Sleep / Pillow') built on Sep 2 2012 15:37:04
Библиотека кодирования : libebml v1.2.3 + libmatroska v1.3.0

Видео
Идентификатор : 1
Формат : AVC
Формат/Информация : Advanced Video Codec
Профиль формата : High@L4.1
Параметр CABAC формата : Да
Параметр ReFrames формата : 14 кадров
Идентификатор кодека : V_MPEG4/ISO/AVC
Продолжительность : 1 ч. 7 м.
Битрейт : 2312 Кбит/сек
Ширина : 1152 пикселя
Высота : 498 пикселей
Соотношение сторон : 2,35:1
Режим частоты кадров : Постоянный
Частота кадров : 25,000 кадров/сек
Цветовое пространство : YUV
Субдискретизация насыщенности : 4:2:0
Битовая глубина : 8 бит
Тип развёртки : Прогрессивная
Бит/(Пиксели*Кадры) : 0.161
Размер потока : 1,08 Гбайт (84%)
Заголовок : Четвёртый.1972.HDTVRip-AVC.KORSAR
Библиотека кодирования : x264 core 148 r2744kMod b97ae06
Настройки программы : cabac=1 / ref=14 / deblock=1:-2:-1 / analyse=0x3:0x113 / me=umh / subme=10 / psy=1 / fade_compensate=0.00 / psy_rd=1.05:0.10 / mixed_ref=1 / me_range=32 / chroma_me=1 / trellis=2 / 8x8dct=1 / cqm=0 / deadzone=21,11 / fast_pskip=1 / chroma_qp_offset=-3 / threads=12 / lookahead_threads=3 / sliced_threads=0 / nr=0 / decimate=1 / interlaced=0 / bluray_compat=0 / constrained_intra=0 / bframes=11 / b_pyramid=2 / b_adapt=2 / b_bias=0 / direct=1 / weightb=1 / open_gop=0 / weightp=2 / keyint=250 / keyint_min=25 / scenecut=40 / intra_refresh=0 / rc=crf / mbtree=0 / crf=18.2000 / qcomp=0.63 / qpmin=0 / qpmax=39 / qpstep=4 / ip_ratio=1.40 / pb_ratio=1.30 / aq=2:1.00
Язык : English
Default : Да
Forced : Нет
Цветовой диапазон : Limited
Основные цвета : BT.709
Характеристики трансфера : BT.709
Коэффициенты матрицы : BT.709

Аудио
Идентификатор : 2
Формат : AC-3
Формат/Информация : Audio Coding 3
Параметр Endianness формата : Big
Идентификатор кодека : A_AC3
Продолжительность : 1 ч. 7 м.
Вид битрейта : Постоянный
Битрейт : 384 Кбит/сек
Каналы : 2 канала
Расположение каналов : Front: L R
Частота : 48,0 КГц
Частота кадров : 31,250 кадров/сек (1536 spf)
Битовая глубина : 16 бит
Метод сжатия : С потерями
Задержка видео : 229 мс.
Размер потока : 184 Мбайт (14%)
Язык : Russian
Default : Да
Forced : Нет
Правила, инструкции, FAQ!!!
Торрент  Добавлен [09 июн 2019, 11:25] Скачать торрент Магнет ссылка
Скачать торрент
13.86 КБ

Статус
Проверен K15 (09 июн 2019, 11:25)
 
Размер  1.29 ГБ
Приватный: Нет (DHT включён)
.torrent скачан  451
Как залить торрент? | Как скачать Torrent? | Как смотреть и слушать онлайн?  
K15
Супермодератор
Аватара пользователя
 
Раздал: 3.29 ГБ
Скачал: 2.59 ГБ
Ратио: 1.270
Сообщения: 69
Стаж: 31 май 2019, 16:28



Вернуться в Драмы, Мелодрамы

Кто сейчас на конференции

Сейчас этот форум просматривают: нет зарегистрированных пользователей и гости: 0