Breach - 5 альбомов (1994-2001) [FLAC|Lossless]<Hardcore>


Статистика раздачи
Размер: 1.3 ГБ | Добавлен: 21 июл 2014, 09:46 | Скачали: 0
Сидеров: 3  [0 байт/сек]    Личеров: 538  [0 байт/сек]

Сообщение Гость » 21 июл 2014, 09:46

Breach - Discography (5 CD) (1994-2001)

Год: 1994-2001
Жанр: Hardcore
Продолжительность: 03:12:35

Кодек: FLAC
Битрейт: Lossless
Тип рипа: tracks+.cue
#777Продолжительность: 00:26:17

Треклист:

01. Despise the Fact [00:04:45]
02. Changing Times [00:02:57]
03. Predict a Life [00:03:36]
04. Air That We Breathe [00:02:31]
05. Profits [00:03:09]
06. Outlines [00:02:47]
07. Thought Store Build [00:02:56]
08. Potential Failure [00:03:33]
Код:
Код: Выделить всё
Exact Audio Copy V0.99 prebeta 5 from 4. May 2009

EAC extraction logfile from 3. April 2010, 0:07

Breach / Outlines

Used drive  : _NEC    DVD_RW ND-3500AG   Adapter: 1  ID: 0

Read mode               : Secure
Utilize accurate stream : Yes
Defeat audio cache      : Yes
Make use of C2 pointers : No

Read offset correction                      : 48
Overread into Lead-In and Lead-Out          : No
Fill up missing offset samples with silence : Yes
Delete leading and trailing silent blocks   : No
Null samples used in CRC calculations       : Yes
Used interface                              : Native Win32 interface for Win NT & 2000
Gap handling                                : Appended to previous track

Used output format              : User Defined Encoder
Selected bitrate                : 768 kBit/s
Quality                         : High
Add ID3 tag                     : No
Command line compressor         : C:\Program Files (x86)\Exact Audio Copy\FLAC\FLAC.EXE
Additional command line options : -8 -V -T "ARTIST=%a" -T "TITLE=%t" -T "ALBUM=%g" -T "DATE=%y" -T "TRACKNUMBER=%n" -T "GENRE=%m" -T "COMMENT=%e" %s -o %d

TOC of the extracted CD

     Track |   Start  |  Length  | Start sector | End sector
    ---------------------------------------------------------
        1  |  0:00.00 |  4:45.67 |         0    |    21441
        2  |  4:45.67 |  2:57.00 |     21442    |    34716
        3  |  7:42.67 |  3:36.30 |     34717    |    50946
        4  | 11:19.22 |  2:31.15 |     50947    |    62286
        5  | 13:50.37 |  3:09.40 |     62287    |    76501
        6  | 17:00.02 |  2:47.18 |     76502    |    89044
        7  | 19:47.20 |  2:56.57 |     89045    |   102301
        8  | 22:44.02 |  3:33.48 |    102302    |   118324

Track  1

     Filename C:\EAC\Breach - Outlines () (FLAC)\01 - Despise the Fact.wav

     Pre-gap length  0:00:02.00

     Peak level 97.0 %
     Track quality 99.9 %
     Test CRC BFBBAB78
     Copy CRC BFBBAB78
     Accurately ripped (confidence 1)  [90837A2A]
     Copy OK

Track  2

     Filename C:\EAC\Breach - Outlines () (FLAC)\02 - Changing Times.wav

     Peak level 99.6 %
     Track quality 99.5 %
     Test CRC CD36E889
     Copy CRC CD36E889
     Accurately ripped (confidence 1)  [B206B3FD]
     Copy OK

Track  3

     Filename C:\EAC\Breach - Outlines () (FLAC)\03 - Predict a Life.wav

     Pre-gap length  0:00:01.86

     Peak level 100.0 %
     Track quality 100.0 %
     Test CRC B5BED07A
     Copy CRC B5BED07A
     Accurately ripped (confidence 1)  [0360669C]
     Copy OK

Track  4

     Filename C:\EAC\Breach - Outlines () (FLAC)\04 - Air That We Breathe.wav

     Pre-gap length  0:00:01.46

     Peak level 100.0 %
     Track quality 100.0 %
     Test CRC 8B696E2B
     Copy CRC 8B696E2B
     Accurately ripped (confidence 1)  [7EBD9976]
     Copy OK

Track  5

     Filename C:\EAC\Breach - Outlines () (FLAC)\05 - Profits.wav

     Peak level 100.0 %
     Track quality 100.0 %
     Test CRC 03DC7C0A
     Copy CRC 03DC7C0A
     Accurately ripped (confidence 1)  [A55E6F58]
     Copy OK

Track  6

     Filename C:\EAC\Breach - Outlines () (FLAC)\06 - Outlines.wav

     Peak level 98.2 %
     Track quality 100.0 %
     Test CRC 760C4AFA
     Copy CRC 760C4AFA
     Accurately ripped (confidence 1)  [42A96FB5]
     Copy OK

Track  7

     Filename C:\EAC\Breach - Outlines () (FLAC)\07 - Thought Store Build.wav

     Peak level 100.0 %
     Track quality 100.0 %
     Test CRC 35A1E2F0
     Copy CRC 35A1E2F0
     Accurately ripped (confidence 1)  [B6524A50]
     Copy OK

Track  8

     Filename C:\EAC\Breach - Outlines () (FLAC)\08 - Potential Failure.wav

     Pre-gap length  0:00:01.02

     Peak level 98.8 %
     Track quality 100.0 %
     Test CRC 6A893D99
     Copy CRC 6A893D99
     Accurately ripped (confidence 1)  [FE2CC5E6]
     Copy OK

All tracks accurately ripped

No errors occurred

End of status report
Код:
Код: Выделить всё
-----------------------

DON'T MODIFY THIS FILE

-----------------------

PERFORMER: auCDtect Task Manager, ver. 1.6.0 RC1 build 1.6.0.1
Copyright (c) 2008-2010 y-soft. All rights reserved
http:/y-soft.org

ANALYZER: auCDtect: CD records authenticity detector, version 0.8.2
Copyright (c) 2004 Oleg Berngardt. All rights reserved.
Copyright (c) 2004 Alexander Djourik. All rights reserved.

FILE: 08 - Potential Failure.flac
  Size: 26102998 Hash: 0D9E08210140C2854C53E704D53784E6 Accuracy: -m0
  Conclusion: CDDA 99%
  Signature: FBF293839AB106CBD21B5477DCD4E7EBE749BB0C
FILE: 07 - Thought Store Build.flac
  Size: 21128986 Hash: C95AB22D3DF250F4EE354950FE4066F4 Accuracy: -m0
  Conclusion: CDDA 100%
  Signature: 24EAAD8AB5B3D15701A0286BB29F9351ECC2881C
FILE: 06 - Outlines.flac
  Size: 19129912 Hash: BCF43CE04A115D50CD49FF3DB8EB5311 Accuracy: -m0
  Conclusion: CDDA 100%
  Signature: 205E22E20F4406D0DA2635E110630A3211426321
FILE: 05 - Profits.flac
  Size: 22006155 Hash: FCA492450094EF6A0C7D1A9D422E01FB Accuracy: -m0
  Conclusion: CDDA 99%
  Signature: E73BCB557304F95AC7CA816FA7C528DD3AA44494
FILE: 04 - Air That We Breathe.flac
  Size: 18350902 Hash: A774360AC887F2383C3E3835BEBC90B0 Accuracy: -m0
  Conclusion: CDDA 100%
  Signature: 5D61CCE4741E4DA7699CF1093554C5CE27F51701
FILE: 03 - Predict a Life.flac
  Size: 26147054 Hash: 705D76D4B7D3BEDB9F90902AE6E7A267 Accuracy: -m0
  Conclusion: CDDA 100%
  Signature: 1D8CAFA5408D5031519678764511BDA72CF26042
FILE: 02 - Changing Times.flac
  Size: 21120522 Hash: 84E3AEAA73F393E43C79C6E787EBA6EE Accuracy: -m0
  Conclusion: CDDA 100%
  Signature: 4EF3177DE754CC631F4B2F466E4E5FB32949E74D
FILE: 01 - Despise the Fact.flac
  Size: 32357355 Hash: 90E9097792E8F2684B2F6077360DCF2C Accuracy: -m0
  Conclusion: CDDA 100%
  Signature: 0D75683783B57C0282764D1BBF98884ACC0561ED
#777Продолжительность: 00:36:53

Треклист:

01. Detachment [00:01:13]
02. Always Nothing [00:03:08]
03. Curfew [00:02:21]
04. Stray Away [00:03:01]
05. Flames [00:03:24]
06. Alone [00:03:42]
07. Almighty Generation [00:03:24]
08. Time Can Not Replace [00:02:43]
09. Define Me [00:03:08]
10. Fiction [00:03:14]
11. What's Profound? [What's Essential] [00:03:45]
12. Detached-Public Holocaust [00:03:45]
Код:
Код: Выделить всё
Exact Audio Copy V1.0 beta 2 from 29. April 2011

EAC extraction logfile from 8. June 2011, 18:48

Breach / Friction

Used drive  : Optiarc DVD RW AD-7700S   Adapter: 1  ID: 0

Read mode               : Secure
Utilize accurate stream : Yes
Defeat audio cache      : Yes
Make use of C2 pointers : No

Read offset correction                      : 48
Overread into Lead-In and Lead-Out          : No
Fill up missing offset samples with silence : Yes
Delete leading and trailing silent blocks   : No
Null samples used in CRC calculations       : Yes
Used interface                              : Native Win32 interface for Win NT & 2000
Gap handling                                : Appended to previous track

Used output format              : User Defined Encoder
Selected bitrate                : 1024 kBit/s
Quality                         : High
Add ID3 tag                     : No
Command line compressor         : C:\Program Files\Exact Audio Copy\FLAC\FLAC.EXE
Additional command line options : -6 -V -T "ARTIST=%artist%" -T "TITLE=%title%" -T "ALBUM=%albumtitle%" -T "DATE=%year%" -T "TRACKNUMBER=%tracknr%" -T "GENRE=%genre%" -T "COMMENT=%comment%" %hascover%--picture="%coverfile%"%hascover% %source% -o %dest%

TOC of the extracted CD

     Track |   Start  |  Length  | Start sector | End sector
    ---------------------------------------------------------
        1  |  0:00.00 |  1:13.10 |         0    |     5484
        2  |  1:13.10 |  3:08.45 |      5485    |    19629
        3  |  4:21.55 |  2:21.15 |     19630    |    30219
        4  |  6:42.70 |  3:01.53 |     30220    |    43847
        5  |  9:44.48 |  3:24.52 |     43848    |    59199
        6  | 13:09.25 |  3:42.35 |     59200    |    75884
        7  | 16:51.60 |  3:24.40 |     75885    |    91224
        8  | 20:16.25 |  2:43.60 |     91225    |   103509
        9  | 23:00.10 |  3:08.33 |    103510    |   117642
       10  | 26:08.43 |  3:14.15 |    117643    |   132207
       11  | 29:22.58 |  3:45.27 |    132208    |   149109
       12  | 33:08.10 |  3:45.05 |    149110    |   165989

Track  1

     Filename C:\Users\rodrigo\Desktop\Breach - Friction (1995)[FLAC]\01. - Detachment.wav

     Pre-gap length  0:00:02.00

     Peak level 96.9 %
     Extraction speed 2.0 X
     Track quality 100.0 %
     Test CRC 5EE8BFC5
     Copy CRC 5EE8BFC5
     Track not present in AccurateRip database
     Copy OK

Track  2

     Filename C:\Users\rodrigo\Desktop\Breach - Friction (1995)[FLAC]\02. - Always Nothing.wav

     Peak level 100.0 %
     Extraction speed 2.7 X
     Track quality 100.0 %
     Test CRC E788FBF9
     Copy CRC E788FBF9
     Track not present in AccurateRip database
     Copy OK

Track  3

     Filename C:\Users\rodrigo\Desktop\Breach - Friction (1995)[FLAC]\03. - Curfew.wav

     Peak level 96.9 %
     Extraction speed 2.7 X
     Track quality 100.0 %
     Test CRC CC61B787
     Copy CRC CC61B787
     Track not present in AccurateRip database
     Copy OK

Track  4

     Filename C:\Users\rodrigo\Desktop\Breach - Friction (1995)[FLAC]\04. - Stray Away.wav

     Pre-gap length  0:00:01.09

     Peak level 96.9 %
     Extraction speed 3.1 X
     Track quality 100.0 %
     Test CRC EC85723C
     Copy CRC EC85723C
     Track not present in AccurateRip database
     Copy OK

Track  5

     Filename C:\Users\rodrigo\Desktop\Breach - Friction (1995)[FLAC]\05. - Flames.wav

     Pre-gap length  0:00:01.30

     Peak level 96.9 %
     Extraction speed 3.4 X
     Track quality 100.0 %
     Test CRC AC10590D
     Copy CRC AC10590D
     Track not present in AccurateRip database
     Copy OK

Track  6

     Filename C:\Users\rodrigo\Desktop\Breach - Friction (1995)[FLAC]\06. - Alone.wav

     Peak level 96.9 %
     Extraction speed 3.6 X
     Track quality 100.0 %
     Test CRC 6352ADB4
     Copy CRC 6352ADB4
     Track not present in AccurateRip database
     Copy OK

Track  7

     Filename C:\Users\rodrigo\Desktop\Breach - Friction (1995)[FLAC]\07. - Almighty Generation.wav

     Peak level 96.9 %
     Extraction speed 3.1 X
     Track quality 99.9 %
     Test CRC A228E0AA
     Copy CRC A228E0AA
     Track not present in AccurateRip database
     Copy OK

Track  8

     Filename C:\Users\rodrigo\Desktop\Breach - Friction (1995)[FLAC]\08. - Time Can Not Replace.wav

     Pre-gap length  0:00:01.13

     Peak level 96.9 %
     Extraction speed 3.8 X
     Track quality 100.0 %
     Test CRC 9D1B9882
     Copy CRC 9D1B9882
     Track not present in AccurateRip database
     Copy OK

Track  9

     Filename C:\Users\rodrigo\Desktop\Breach - Friction (1995)[FLAC]\09. - Define Me.wav

     Pre-gap length  0:00:01.09

     Peak level 96.9 %
     Extraction speed 4.0 X
     Track quality 100.0 %
     Test CRC F3CE7F89
     Copy CRC F3CE7F89
     Track not present in AccurateRip database
     Copy OK

Track 10

     Filename C:\Users\rodrigo\Desktop\Breach - Friction (1995)[FLAC]\10. - Fiction.wav

     Peak level 99.3 %
     Extraction speed 3.3 X
     Track quality 99.9 %
     Test CRC 4D294655
     Copy CRC 4D294655
     Track not present in AccurateRip database
     Copy OK

Track 11

     Filename C:\Users\rodrigo\Desktop\Breach - Friction (1995)[FLAC]\11. - What's Profound [What's Essential].wav

     Pre-gap length  0:00:01.37

     Peak level 96.9 %
     Extraction speed 4.5 X
     Track quality 100.0 %
     Test CRC 88AC8363
     Copy CRC 88AC8363
     Track not present in AccurateRip database
     Copy OK

Track 12

     Filename C:\Users\rodrigo\Desktop\Breach - Friction (1995)[FLAC]\12. - Detached-Public Holocaust.wav

     Pre-gap length  0:00:01.60

     Peak level 96.9 %
     Extraction speed 4.6 X
     Track quality 100.0 %
     Test CRC 9E553693
     Copy CRC 9E553693
     Track not present in AccurateRip database
     Copy OK

None of the tracks are present in the AccurateRip database

No errors occurred

End of status report

==== Log checksum 7CA6FA8D1EFF0D083DEB46D6E120DCC2D8ADFB667508EA33AE1F7DA40008657F ====
Код:
Код: Выделить всё
-----------------------

DON'T MODIFY THIS FILE

-----------------------

PERFORMER: auCDtect Task Manager, ver. 1.6.0 RC1 build 1.6.0.1
Copyright (c) 2008-2010 y-soft. All rights reserved
http:/y-soft.org

ANALYZER: auCDtect: CD records authenticity detector, version 0.8.2
Copyright (c) 2004 Oleg Berngardt. All rights reserved.
Copyright (c) 2004 Alexander Djourik. All rights reserved.

FILE: 12 - Detached-Public Holocaust.flac
  Size: 27842919 Hash: 18353B7EF099DA9EB7CA4A83FF25544C Accuracy: -m0
  Conclusion: CDDA 100%
  Signature: 90AB31D160C887BF36FB3455C0761FB7E8D2A19D
FILE: 11 - What's Profound [What's Essential].flac
  Size: 27054052 Hash: EA01C2EB135E4BF28D27CF8B1C1FF031 Accuracy: -m0
  Conclusion: CDDA 100%
  Signature: 964F683C06A325819961A5A424D481D67D9FF4F8
FILE: 10 - Fiction.flac
  Size: 24431813 Hash: DA0FB0902713C835E09A7CD2D32E32E6 Accuracy: -m0
  Conclusion: CDDA 100%
  Signature: 690AE7F64B521782991271C27C7C20CFEBE681FB
FILE: 09 - Define Me.flac
  Size: 23456403 Hash: 480E6FCA88ABEDC83C24A18D824640DE Accuracy: -m0
  Conclusion: CDDA 100%
  Signature: 58D27699A44586BAB1214B246305BDC35F008721
FILE: 08 - Time Can Not Replace.flac
  Size: 20180191 Hash: BCF8645CB514108CE6E09572506B961F Accuracy: -m0
  Conclusion: CDDA 100%
  Signature: CD5249EE1DD352472CDC445E71D5F891B4D7FA8D
FILE: 07 - Almighty Generation.flac
  Size: 25143479 Hash: F0D293A44F55C211B07F988B7BB03855 Accuracy: -m0
  Conclusion: CDDA 100%
  Signature: 1781BB1F1ED784EC3A79B4C1F9B50B36A6F0038D
FILE: 06 - Alone.flac
  Size: 27908367 Hash: 012AF721B8653DE8185E9AEC78CAA2B0 Accuracy: -m0
  Conclusion: CDDA 100%
  Signature: A2843489B6BE4946724096799A265E8459CC92DF
FILE: 05 - Flames.flac
  Size: 24949287 Hash: 2A1B60DA903DC7EC69498848A9B7109D Accuracy: -m0
  Conclusion: CDDA 100%
  Signature: 25501EB3A44B11E48D560DF87AD6478CD8839040
FILE: 04 - Stray Away.flac
  Size: 21912467 Hash: D735187FB83F53B7BF4375CD82DD458D Accuracy: -m0
  Conclusion: CDDA 100%
  Signature: C1BBD810B2577B5189B86F1E23C3A1D78C0D3702
FILE: 03 - Curfew.flac
  Size: 17201765 Hash: 6938C16A29F0809059136C5FAE387C96 Accuracy: -m0
  Conclusion: CDDA 100%
  Signature: 6999732DAF2858F6ADCC9B660DE686E7BC38EE7F
FILE: 02 - Always Nothing.flac
  Size: 23480681 Hash: 573FD26BC51FCD7A31FB985F1D3F1B29 Accuracy: -m0
  Conclusion: CDDA 100%
  Signature: C73A9F7126A4BAFAFF56D76F5D847A3B944DFA88
FILE: 01 - Detachment.flac
  Size: 7820540 Hash: E7893D08FB7BC2810F7475AED374382F Accuracy: -m0
  Conclusion: CDDA 100%
  Signature: 17FFBD21FF9F961EF6C2EC61CF1A34CB17F242D8
#777Продолжительность: 00:37:00

Треклист:

01. Valid [00:03:15]
02. God Forbid Me [00:02:42]
03. Deadheads [00:03:53]
04. Painted Face [00:02:30]
05. Clot [00:03:20]
06. Centre [00:02:54]
07. Replenish The Empty [00:02:16]
08. Presume The Forgotten [00:08:43]
09. Bloodlines [00:01:36]
10. In My Realm [00:03:01]
11. Divine [00:02:47]
Код:
Код: Выделить всё
X Lossless Decoder version 20090320 (105.1)

XLD extraction logfile from 2009-07-10 20:03:34 +0200

Breach / It's Me God

Used drive : HL-DT-ST DVDRW GWA4080MA (revision AE39)

Use cdparanoia mode     : YES (CDParanoia III 10.2 engine)
Disable audio cache     : OK for the drive with cache less than 2750KB
Make use of C2 pointers : NO
Read offset correction  : 667
Max retry count         : 100

TOC of the extracted CD
     Track |   Start  |  Length  | Start sector | End sector
    ---------------------------------------------------------
        1  | 00:00:00 | 03:15:22 |         0    |    14646
        2  | 03:15:22 | 02:42:08 |     14647    |    26804
        3  | 05:57:30 | 03:53:17 |     26805    |    44296
        4  | 09:50:47 | 02:30:55 |     44297    |    55601
        5  | 12:21:27 | 03:20:13 |     55602    |    70614
        6  | 15:41:40 | 02:54:30 |     70615    |    83694
        7  | 18:35:70 | 02:16:22 |     83695    |    93916
        8  | 20:52:17 | 08:43:13 |     93917    |   133154
        9  | 29:35:30 | 01:36:60 |    133155    |   140414
       10  | 31:12:15 | 03:01:00 |    140415    |   153989
       11  | 34:13:15 | 02:47:22 |    153990    |   166536

All Tracks
    Album gain             : -8.04 dB
    Peak                   : 0.979980

Track 01
    Filename : /XLD/01 - Valid.flac
    Track gain             : -8.43 dB
    Peak                   : 0.965088
    CRC32 hash (test run)  : 67C21E5C
    CRC32 hash             : 67C21E5C
    CRC32 hash (skip zero) : 2FED5A87
    AccurateRip signature  : 12F49B70
        ->Track not present in AccurateRip database.
    Statistics
        Read error                           : 0
        Skipped (treated as error)           : 0
        Edge jitter error (maybe fixed)      : 0
        Atom jitter error (maybe fixed)      : 0
        Drift error (maybe fixed)            : 0
        Dropped bytes error (maybe fixed)    : 0
        Duplicated bytes error (maybe fixed) : 0
        Inconsistency in error sectors       : 0

Track 02
    Filename : /XLD/02 - God Forbid Me.flac
    Track gain             : -7.31 dB
    Peak                   : 0.940094
    CRC32 hash (test run)  : DC7494EB
    CRC32 hash             : DC7494EB
    CRC32 hash (skip zero) : 3A6AAAC6
    AccurateRip signature  : FB0DEC17
        ->Track not present in AccurateRip database.
    Statistics
        Read error                           : 0
        Skipped (treated as error)           : 0
        Edge jitter error (maybe fixed)      : 0
        Atom jitter error (maybe fixed)      : 0
        Drift error (maybe fixed)            : 0
        Dropped bytes error (maybe fixed)    : 0
        Duplicated bytes error (maybe fixed) : 0
        Inconsistency in error sectors       : 0

Track 03
    Filename : /XLD/03 - Deadheads.flac
    Track gain             : -8.10 dB
    Peak                   : 0.979767
    CRC32 hash (test run)  : CBB62CFE
    CRC32 hash             : CBB62CFE
    CRC32 hash (skip zero) : 0C7BDF50
    AccurateRip signature  : F6C714FE
        ->Track not present in AccurateRip database.
    Statistics
        Read error                           : 0
        Skipped (treated as error)           : 0
        Edge jitter error (maybe fixed)      : 0
        Atom jitter error (maybe fixed)      : 0
        Drift error (maybe fixed)            : 0
        Dropped bytes error (maybe fixed)    : 0
        Duplicated bytes error (maybe fixed) : 0
        Inconsistency in error sectors       : 0

Track 04
    Filename : /XLD/04 - Painted Face.flac
    Track gain             : -8.60 dB
    Peak                   : 0.979767
    CRC32 hash (test run)  : 32D4DDD5
    CRC32 hash             : 32D4DDD5
    CRC32 hash (skip zero) : FCD4E720
    AccurateRip signature  : 3499BA48
        ->Track not present in AccurateRip database.
    Statistics
        Read error                           : 0
        Skipped (treated as error)           : 0
        Edge jitter error (maybe fixed)      : 0
        Atom jitter error (maybe fixed)      : 0
        Drift error (maybe fixed)            : 0
        Dropped bytes error (maybe fixed)    : 0
        Duplicated bytes error (maybe fixed) : 0
        Inconsistency in error sectors       : 0

Track 05
    Filename : /XLD/05 - Clot.flac
    Track gain             : -7.99 dB
    Peak                   : 0.979919
    CRC32 hash (test run)  : 14D89432
    CRC32 hash             : 14D89432
    CRC32 hash (skip zero) : 84C94467
    AccurateRip signature  : 551781D9
        ->Track not present in AccurateRip database.
    Statistics
        Read error                           : 0
        Skipped (treated as error)           : 0
        Edge jitter error (maybe fixed)      : 0
        Atom jitter error (maybe fixed)      : 0
        Drift error (maybe fixed)            : 0
        Dropped bytes error (maybe fixed)    : 0
        Duplicated bytes error (maybe fixed) : 0
        Inconsistency in error sectors       : 0

Track 06
    Filename : /XLD/06 - Centre.flac
    Track gain             : -8.08 dB
    Peak                   : 0.964355
    CRC32 hash (test run)  : 9AD28FD4
    CRC32 hash             : 9AD28FD4
    CRC32 hash (skip zero) : A0DFD2A3
    AccurateRip signature  : CDC763BB
        ->Track not present in AccurateRip database.
    Statistics
        Read error                           : 0
        Skipped (treated as error)           : 0
        Edge jitter error (maybe fixed)      : 0
        Atom jitter error (maybe fixed)      : 0
        Drift error (maybe fixed)            : 0
        Dropped bytes error (maybe fixed)    : 0
        Duplicated bytes error (maybe fixed) : 0
        Inconsistency in error sectors       : 0

Track 07
    Filename : /XLD/07 - Replenish The Empty.flac
    Track gain             : -7.67 dB
    Peak                   : 0.939209
    CRC32 hash (test run)  : 260596C2
    CRC32 hash             : 260596C2
    CRC32 hash (skip zero) : B702BD4B
    AccurateRip signature  : D03B3CC9
        ->Track not present in AccurateRip database.
    Statistics
        Read error                           : 0
        Skipped (treated as error)           : 0
        Edge jitter error (maybe fixed)      : 0
        Atom jitter error (maybe fixed)      : 0
        Drift error (maybe fixed)            : 0
        Dropped bytes error (maybe fixed)    : 0
        Duplicated bytes error (maybe fixed) : 0
        Inconsistency in error sectors       : 0

Track 08
    Filename : /XLD/08 - Presume The Forgotten.flac
    Track gain             : -7.01 dB
    Peak                   : 0.979980
    CRC32 hash (test run)  : E8F96B79
    CRC32 hash             : E8F96B79
    CRC32 hash (skip zero) : 35FC342B
    AccurateRip signature  : D86D65A1
        ->Track not present in AccurateRip database.
    Statistics
        Read error                           : 0
        Skipped (treated as error)           : 0
        Edge jitter error (maybe fixed)      : 0
        Atom jitter error (maybe fixed)      : 0
        Drift error (maybe fixed)            : 0
        Dropped bytes error (maybe fixed)    : 0
        Duplicated bytes error (maybe fixed) : 0
        Inconsistency in error sectors       : 0

Track 09
    Filename : /XLD/09 - Bloodlines.flac
    Track gain             : -7.87 dB
    Peak                   : 0.977051
    CRC32 hash (test run)  : E97BB6FE
    CRC32 hash             : E97BB6FE
    CRC32 hash (skip zero) : F551B859
    AccurateRip signature  : 2F07EA5C
        ->Track not present in AccurateRip database.
    Statistics
        Read error                           : 0
        Skipped (treated as error)           : 0
        Edge jitter error (maybe fixed)      : 0
        Atom jitter error (maybe fixed)      : 0
        Drift error (maybe fixed)            : 0
        Dropped bytes error (maybe fixed)    : 0
        Duplicated bytes error (maybe fixed) : 0
        Inconsistency in error sectors       : 0

Track 10
    Filename : /XLD/10 - In My Realm.flac
    Track gain             : -7.80 dB
    Peak                   : 0.943939
    CRC32 hash (test run)  : 22DA92DB
    CRC32 hash             : 22DA92DB
    CRC32 hash (skip zero) : 439ADE25
    AccurateRip signature  : 34A0C196
        ->Track not present in AccurateRip database.
    Statistics
        Read error                           : 0
        Skipped (treated as error)           : 0
        Edge jitter error (maybe fixed)      : 0
        Atom jitter error (maybe fixed)      : 0
        Drift error (maybe fixed)            : 0
        Dropped bytes error (maybe fixed)    : 0
        Duplicated bytes error (maybe fixed) : 0
        Inconsistency in error sectors       : 0

Track 11
    Filename : /XLD/11 - Divine.flac
    Track gain             : -7.68 dB
    Peak                   : 0.979736
    CRC32 hash (test run)  : 23069E8F
    CRC32 hash             : 23069E8F
    CRC32 hash (skip zero) : 7D078EB4
    AccurateRip signature  : A54AE6E1
        ->Track not present in AccurateRip database.
    Statistics
        Read error                           : 0
        Skipped (treated as error)           : 0
        Edge jitter error (maybe fixed)      : 0
        Atom jitter error (maybe fixed)      : 0
        Drift error (maybe fixed)            : 0
        Dropped bytes error (maybe fixed)    : 0
        Duplicated bytes error (maybe fixed) : 0
        Inconsistency in error sectors       : 0

No errors occurred

End of status report
Код:
Код: Выделить всё
-----------------------

DON'T MODIFY THIS FILE

-----------------------

PERFORMER: auCDtect Task Manager, ver. 1.6.0 RC1 build 1.6.0.1
Copyright (c) 2008-2010 y-soft. All rights reserved
http:/y-soft.org

ANALYZER: auCDtect: CD records authenticity detector, version 0.8.2
Copyright (c) 2004 Oleg Berngardt. All rights reserved.
Copyright (c) 2004 Alexander Djourik. All rights reserved.

FILE: 11 - Divine.flac
  Size: 21325302 Hash: 99E63170204243ACCE8DBF1C4821470C Accuracy: -m0
  Conclusion: CDDA 100%
  Signature: 4249B3957D76678E7ABFAB60384C4905C5AA4D16
FILE: 10 - In My Realm.flac
  Size: 23358398 Hash: 5495B3385E1E8236146DAA12C2779EB4 Accuracy: -m0
  Conclusion: CDDA 100%
  Signature: D73FC043390C6CFA9EE5F1E3286184E67013F5F5
FILE: 09 - Bloodlines.flac
  Size: 12452507 Hash: 1B8A9FB680A24DD1426C41E9FD895824 Accuracy: -m0
  Conclusion: CDDA 99%
  Signature: 6948DE5CC00AF8960C6E42C8D1263388D23A1893
FILE: 08 - Presume The Forgotten.flac
  Size: 45978477 Hash: 7CC53D760BC4A8E55BFADBFDA96B7D0B Accuracy: -m0
  Conclusion: CDDA 100%
  Signature: FC37C80F10CCBFFDC41F8FAEF59A6A5E571BC303
FILE: 07 - Replenish The Empty.flac
  Size: 17783123 Hash: 03737372DD83F9FD95D756043579E143 Accuracy: -m0
  Conclusion: CDDA 100%
  Signature: A6BE18203B8760ABE1CE1ECD122C74597F4ED9C4
FILE: 06 - Centre.flac
  Size: 22631768 Hash: 75DD5D1318D896A78D140DC0AAB35206 Accuracy: -m0
  Conclusion: CDDA 100%
  Signature: A1AAE249E6CABC3C1CBA804F48EF1283733B2EA2
FILE: 05 - Clot.flac
  Size: 25934783 Hash: FD38340B0DC7634391111F391667416D Accuracy: -m0
  Conclusion: CDDA 100%
  Signature: 3CE6BC83750C86121E7C87B2C8192E46550BF4B5
FILE: 04 - Painted Face.flac
  Size: 19572814 Hash: AACF3A9421CEEE8D0A21256FEC7CAE61 Accuracy: -m0
  Conclusion: CDDA 100%
  Signature: A864FC4D400DACC8B3A8102ED999664F9FE0407F
FILE: 03 - Deadheads.flac
  Size: 30523612 Hash: 60F7930722E30717A50F8902C594A15A Accuracy: -m0
  Conclusion: CDDA 100%
  Signature: 8471657288B01A71700C948E27175D6E39B56FE4
FILE: 02 - God Forbid Me.flac
  Size: 20868897 Hash: 952918B3B10DFB4F0ACCDAFADB7169B5 Accuracy: -m0
  Conclusion: CDDA 100%
  Signature: 6D9A9F3F37B4F94139F8DD47F1FF03CEDB756CEE
FILE: 01 - Valid.flac
  Size: 25420394 Hash: 8EF954A1F9D29CB76E7C198CEC646BF6 Accuracy: -m0
  Conclusion: CDDA 100%
  Signature: FDBF137F96C4BEFD74D26F438CA49E0F4FD43F8F
#777Продолжительность: 00:44:20

Треклист:

01. Helldrivers [00:05:00]
02. Murder [00:02:48]
03. Gheeá [00:03:18]
04. Heroine [00:04:42]
05. Diablo [00:02:54]
06. Common Day [00:03:13]
07. Path Of Conscience [00:02:34]
08. Game In Vein [00:04:07]
09. Pleasuredome [00:03:27]
10. Black Sabbath [00:04:44]
11. Hell Is My Witness [00:03:07]
12. Penetration [00:04:21]
Код:
Код: Выделить всё
X Lossless Decoder version 20090320 (105.1)

XLD extraction logfile from 2009-07-10 15:05:05 +0200

Breach / Venom

Used drive : HL-DT-ST DVDRW GWA4080MA (revision AE39)

Use cdparanoia mode     : YES (CDParanoia III 10.2 engine)
Disable audio cache     : OK for the drive with cache less than 2750KB
Make use of C2 pointers : NO
Read offset correction  : 667
Max retry count         : 100

TOC of the extracted CD
     Track |   Start  |  Length  | Start sector | End sector
    ---------------------------------------------------------
        1  | 00:00:00 | 05:00:42 |         0    |    22541
        2  | 05:00:42 | 02:48:12 |     22542    |    35153
        3  | 07:48:54 | 03:18:12 |     35154    |    50015
        4  | 11:06:66 | 04:42:27 |     50016    |    71192
        5  | 15:49:18 | 02:54:54 |     71193    |    84296
        6  | 18:43:72 | 03:13:63 |     84297    |    98834
        7  | 21:57:60 | 02:34:42 |     98835    |   110426
        8  | 24:32:27 | 04:07:09 |    110427    |   128960
        9  | 28:39:36 | 03:27:24 |    128961    |   144509
       10  | 32:06:60 | 04:44:03 |    144510    |   165812
       11  | 36:50:63 | 03:07:24 |    165813    |   179861
       12  | 39:58:12 | 04:21:63 |    179862    |   199499

All Tracks
    Album gain             : -8.79 dB
    Peak                   : 0.999847

Track 01
    Filename : /XLD/01 - Helldrivers.flac
    Track gain             : -7.31 dB
    Peak                   : 0.999847
    CRC32 hash (test run)  : D2E0E3A1
    CRC32 hash             : D2E0E3A1
    CRC32 hash (skip zero) : 712EEA3E
    AccurateRip signature  : 2EC418EB
        ->Track not present in AccurateRip database.
    Statistics
        Read error                           : 0
        Skipped (treated as error)           : 0
        Edge jitter error (maybe fixed)      : 0
        Atom jitter error (maybe fixed)      : 0
        Drift error (maybe fixed)            : 0
        Dropped bytes error (maybe fixed)    : 0
        Duplicated bytes error (maybe fixed) : 0
        Inconsistency in error sectors       : 0

Track 02
    Filename : /XLD/02 - Murder.flac
    Track gain             : -8.39 dB
    Peak                   : 0.999817
    CRC32 hash (test run)  : 6DF2C8D4
    CRC32 hash             : 6DF2C8D4
    CRC32 hash (skip zero) : 0AD94A3F
    AccurateRip signature  : 52D0E35A
        ->Track not present in AccurateRip database.
    Statistics
        Read error                           : 0
        Skipped (treated as error)           : 0
        Edge jitter error (maybe fixed)      : 0
        Atom jitter error (maybe fixed)      : 0
        Drift error (maybe fixed)            : 0
        Dropped bytes error (maybe fixed)    : 0
        Duplicated bytes error (maybe fixed) : 0
        Inconsistency in error sectors       : 0

Track 03
    Filename : /XLD/03 - Gheeá.flac
    Track gain             : -8.02 dB
    Peak                   : 0.941681
    CRC32 hash (test run)  : AE887B24
    CRC32 hash             : AE887B24
    CRC32 hash (skip zero) : F3B9A939
    AccurateRip signature  : 7B35682F
        ->Track not present in AccurateRip database.
    Statistics
        Read error                           : 0
        Skipped (treated as error)           : 0
        Edge jitter error (maybe fixed)      : 0
        Atom jitter error (maybe fixed)      : 0
        Drift error (maybe fixed)            : 0
        Dropped bytes error (maybe fixed)    : 0
        Duplicated bytes error (maybe fixed) : 0
        Inconsistency in error sectors       : 0

Track 04
    Filename : /XLD/04 - Heroine.flac
    Track gain             : -7.72 dB
    Peak                   : 0.999817
    CRC32 hash (test run)  : 4272D3DD
    CRC32 hash             : 4272D3DD
    CRC32 hash (skip zero) : 9AF8CA29
    AccurateRip signature  : 2C1946A2
        ->Track not present in AccurateRip database.
    Statistics
        Read error                           : 0
        Skipped (treated as error)           : 0
        Edge jitter error (maybe fixed)      : 0
        Atom jitter error (maybe fixed)      : 0
        Drift error (maybe fixed)            : 0
        Dropped bytes error (maybe fixed)    : 0
        Duplicated bytes error (maybe fixed) : 0
        Inconsistency in error sectors       : 0

Track 05
    Filename : /XLD/05 - Diablo.flac
    Track gain             : -8.61 dB
    Peak                   : 0.954956
    CRC32 hash (test run)  : DCBF7407
    CRC32 hash             : DCBF7407
    CRC32 hash (skip zero) : BDBB546C
    AccurateRip signature  : 43690D67
        ->Track not present in AccurateRip database.
    Statistics
        Read error                           : 0
        Skipped (treated as error)           : 0
        Edge jitter error (maybe fixed)      : 0
        Atom jitter error (maybe fixed)      : 0
        Drift error (maybe fixed)            : 0
        Dropped bytes error (maybe fixed)    : 0
        Duplicated bytes error (maybe fixed) : 0
        Inconsistency in error sectors       : 0

Track 06
    Filename : /XLD/06 - Common Day.flac
    Track gain             : -8.07 dB
    Peak                   : 0.941650
    CRC32 hash (test run)  : C1DC1F0C
    CRC32 hash             : C1DC1F0C
    CRC32 hash (skip zero) : A13AC761
    AccurateRip signature  : CB0CF6C6
        ->Track not present in AccurateRip database.
    Statistics
        Read error                           : 0
        Skipped (treated as error)           : 0
        Edge jitter error (maybe fixed)      : 0
        Atom jitter error (maybe fixed)      : 0
        Drift error (maybe fixed)            : 0
        Dropped bytes error (maybe fixed)    : 0
        Duplicated bytes error (maybe fixed) : 0
        Inconsistency in error sectors       : 0

Track 07
    Filename : /XLD/07 - Path Of Conscience.flac
    Track gain             : -9.16 dB
    Peak                   : 0.941681
    CRC32 hash (test run)  : 429171D4
    CRC32 hash             : 429171D4
    CRC32 hash (skip zero) : 3ED944C5
    AccurateRip signature  : CCB6A886
        ->Track not present in AccurateRip database.
    Statistics
        Read error                           : 0
        Skipped (treated as error)           : 0
        Edge jitter error (maybe fixed)      : 0
        Atom jitter error (maybe fixed)      : 0
        Drift error (maybe fixed)            : 0
        Dropped bytes error (maybe fixed)    : 0
        Duplicated bytes error (maybe fixed) : 0
        Inconsistency in error sectors       : 0

Track 08
    Filename : /XLD/08 - Game In Vein.flac
    Track gain             : -7.99 dB
    Peak                   : 0.941650
    CRC32 hash (test run)  : AAB3D38D
    CRC32 hash             : AAB3D38D
    CRC32 hash (skip zero) : 24D72E4E
    AccurateRip signature  : C11A4C29
        ->Track not present in AccurateRip database.
    Statistics
        Read error                           : 0
        Skipped (treated as error)           : 0
        Edge jitter error (maybe fixed)      : 0
        Atom jitter error (maybe fixed)      : 0
        Drift error (maybe fixed)            : 0
        Dropped bytes error (maybe fixed)    : 0
        Duplicated bytes error (maybe fixed) : 0
        Inconsistency in error sectors       : 0

Track 09
    Filename : /XLD/09 - Pleasuredome.flac
    Track gain             : -9.07 dB
    Peak                   : 0.941681
    CRC32 hash (test run)  : 23AD4DD4
    CRC32 hash             : 23AD4DD4
    CRC32 hash (skip zero) : BD4B78F8
    AccurateRip signature  : 47CAF09B
        ->Track not present in AccurateRip database.
    Statistics
        Read error                           : 0
        Skipped (treated as error)           : 0
        Edge jitter error (maybe fixed)      : 0
        Atom jitter error (maybe fixed)      : 0
        Drift error (maybe fixed)            : 0
        Dropped bytes error (maybe fixed)    : 0
        Duplicated bytes error (maybe fixed) : 0
        Inconsistency in error sectors       : 0

Track 10
    Filename : /XLD/10 - Black Sabbath.flac
    Track gain             : -8.79 dB
    Peak                   : 0.941681
    CRC32 hash (test run)  : 1A4AD035
    CRC32 hash             : 1A4AD035
    CRC32 hash (skip zero) : 73C98A60
    AccurateRip signature  : B54152F4
        ->Track not present in AccurateRip database.
    Statistics
        Read error                           : 0
        Skipped (treated as error)           : 0
        Edge jitter error (maybe fixed)      : 0
        Atom jitter error (maybe fixed)      : 0
        Drift error (maybe fixed)            : 0
        Dropped bytes error (maybe fixed)    : 0
        Duplicated bytes error (maybe fixed) : 0
        Inconsistency in error sectors       : 0

Track 11
    Filename : /XLD/11 - Hell Is My Witness.flac
    Track gain             : -9.39 dB
    Peak                   : 0.941681
    CRC32 hash (test run)  : C68F69CF
    CRC32 hash             : C68F69CF
    CRC32 hash (skip zero) : F3C11543
    AccurateRip signature  : 46B2DC0A
        ->Track not present in AccurateRip database.
    Statistics
        Read error                           : 0
        Skipped (treated as error)           : 0
        Edge jitter error (maybe fixed)      : 0
        Atom jitter error (maybe fixed)      : 0
        Drift error (maybe fixed)            : 0
        Dropped bytes error (maybe fixed)    : 0
        Duplicated bytes error (maybe fixed) : 0
        Inconsistency in error sectors       : 0

Track 12
    Filename : /XLD/12 - Penetration.flac
    Track gain             : -8.97 dB
    Peak                   : 0.989685
    CRC32 hash (test run)  : 4F07FFED
    CRC32 hash             : 4F07FFED
    CRC32 hash (skip zero) : 2F557A1A
    AccurateRip signature  : 0DBDF6A5
        ->Track not present in AccurateRip database.
    Statistics
        Read error                           : 0
        Skipped (treated as error)           : 0
        Edge jitter error (maybe fixed)      : 0
        Atom jitter error (maybe fixed)      : 0
        Drift error (maybe fixed)            : 0
        Dropped bytes error (maybe fixed)    : 0
        Duplicated bytes error (maybe fixed) : 0
        Inconsistency in error sectors       : 0

No errors occurred

End of status report
Код:
Код: Выделить всё
-----------------------

DON'T MODIFY THIS FILE

-----------------------

PERFORMER: auCDtect Task Manager, ver. 1.6.0 RC1 build 1.6.0.1
Copyright (c) 2008-2010 y-soft. All rights reserved
http:/y-soft.org

ANALYZER: auCDtect: CD records authenticity detector, version 0.8.2
Copyright (c) 2004 Oleg Berngardt. All rights reserved.
Copyright (c) 2004 Alexander Djourik. All rights reserved.

FILE: 12 - Penetration.flac
  Size: 30476149 Hash: BD1F44D7D0708E9CE9CB977017903152 Accuracy: -m0
  Conclusion: CDDA 100%
  Signature: CDA3A641FAED53B84CBC83B30C922E7084462F1D
FILE: 11 - Hell Is My Witness.flac
  Size: 24864418 Hash: 91A5D5E91019E11C7329A20C362E69C7 Accuracy: -m0
  Conclusion: CDDA 100%
  Signature: 3E45A7A2740A3BAFAE441C07B497F016BC7FC247
FILE: 10 - Black Sabbath.flac
  Size: 34817706 Hash: 0819B8ACFDFBE8D16D0A1318C1304EED Accuracy: -m0
  Conclusion: CDDA 100%
  Signature: 0E2396EE4F40FE27DB05906E108A1E93BCA3EEBA
FILE: 09 - Pleasuredome.flac
  Size: 27220223 Hash: 01E289D4AB8CBE0BFDF5DCF26A477817 Accuracy: -m0
  Conclusion: CDDA 99%
  Signature: 5537615D5CBB5305E95CFEC9E65B60876476F19C
FILE: 08 - Game In Vein.flac
  Size: 31060908 Hash: 00B8BD09F5D6C21513742DDFF3E6EAFD Accuracy: -m0
  Conclusion: CDDA 100%
  Signature: 83EF6CB1D548ACBE9FC716B4249CF69150878CF4
FILE: 07 - Path Of Conscience.flac
  Size: 19663699 Hash: 2F672F734DDDF67B9F98F9A2DD1BC542 Accuracy: -m0
  Conclusion: CDDA 100%
  Signature: 3F2AAC7B52B765E84E9CF9604BF51D691DC04B0B
FILE: 06 - Common Day.flac
  Size: 25274845 Hash: 0F482B3DFE76642FF0B385AD8990EFA8 Accuracy: -m0
  Conclusion: CDDA 100%
  Signature: C4D1DA1035993AD257839E44338FD67568E78853
FILE: 05 - Diablo.flac
  Size: 22073587 Hash: 03E60D036C6DC8AE47781059ABA3905F Accuracy: -m0
  Conclusion: CDDA 100%
  Signature: DA8048309276E63B6FE2269B3B3F719539591155
FILE: 04 - Heroine.flac
  Size: 32940445 Hash: 3A2EE4E28E98171BF88B8DF0A50C8859 Accuracy: -m0
  Conclusion: CDDA 100%
  Signature: BDFFF71A0017A51F7E66561F902D40EDBA3BCD09
FILE: 03 - Gheea.flac
  Size: 25716415 Hash: 7412682FC371C83D732EC2463A634E4A Accuracy: -m0
  Conclusion: CDDA 100%
  Signature: 0B1D13D449F38CE9AFD47AD43A5549147B17DCEC
FILE: 02 - Murder.flac
  Size: 19394138 Hash: D349CF499BFE143250E29A620DED920F Accuracy: -m0
  Conclusion: CDDA 100%
  Signature: 99609D0B1C1181A97765B319FB9159646E4DDC9C
FILE: 01 - Helldrivers.flac
  Size: 35863344 Hash: B643388E7BE9D7D766DB2FBD192CFAC5 Accuracy: -m0
  Conclusion: CDDA 100%
  Signature: 75B11E508BFFFD3FEADA3DF72D5671E1233B2BCA
#777Продолжительность: 00:48:04

Треклист:

01. Big Strong Boss [00:05:32]
02. Old Ass Player [00:02:14]
03. Sphincter Ani [00:01:18]
04. Alarma [00:02:58]
05. Lost Crew [00:05:12]
06. Teeth Out [00:08:58]
07. Breathing Dust [00:02:57]
08. Mr. Marshall [00:05:06]
09. Seven [00:02:46]
10. Murder Kings And Killer Queens [00:02:06]
11. Kollapse [00:08:54]
Код:
Код: Выделить всё
Exact Audio Copy V0.99 prebeta 5 from 4. May 2009

EAC extraction logfile from 10. January 2010, 23:09

Breach / Kollapse

Used drive  : TSSTcorpCDDVDW TS-L633B   Adapter: 0  ID: 1

Read mode               : Secure
Utilize accurate stream : Yes
Defeat audio cache      : Yes
Make use of C2 pointers : No

Read offset correction                      : 6
Overread into Lead-In and Lead-Out          : No
Fill up missing offset samples with silence : Yes
Delete leading and trailing silent blocks   : No
Null samples used in CRC calculations       : Yes
Used interface                              : Native Win32 interface for Win NT & 2000
Gap handling                                : Appended to previous track

Used output format              : User Defined Encoder
Selected bitrate                : 320 kBit/s
Quality                         : High
Add ID3 tag                     : No
Command line compressor         : C:\Program Files\Exact Audio Copy\Flac\flac.exe
Additional command line options : -V -8 -T "artist=%a" -T "title=%t" -T "album=%g" -T "date=%y" -T "tracknumber=%n" -T "genre=%m" %s

TOC of the extracted CD

     Track |   Start  |  Length  | Start sector | End sector
    ---------------------------------------------------------
        1  |  0:00.00 |  5:32.02 |         0    |    24901
        2  |  5:32.02 |  2:14.00 |     24902    |    34951
        3  |  7:46.02 |  1:18.38 |     34952    |    40839
        4  |  9:04.40 |  2:58.24 |     40840    |    54213
        5  | 12:02.64 |  5:12.53 |     54214    |    77666
        6  | 17:15.42 |  8:58.20 |     77667    |   118036
        7  | 26:13.62 |  2:57.13 |    118037    |   131324
        8  | 29:11.00 |  5:06.20 |    131325    |   154294
        9  | 34:17.20 |  2:46.35 |    154295    |   166779
       10  | 37:03.55 |  2:06.07 |    166780    |   176236
       11  | 39:09.62 |  8:54.18 |    176237    |   216304

Track  1

     Filename C:\EAC RIPS\Breach - 2001 - Kollapse[FLAC]\Breach - 01 - Big Strong Boss.wav

     Pre-gap length  0:00:02.00

     Peak level 99.8 %
     Track quality 100.0 %
     Test CRC 67939CA5
     Copy CRC 67939CA5
     Accurately ripped (confidence 2)  [988DBC7A]
     Copy OK

Track  2

     Filename C:\EAC RIPS\Breach - 2001 - Kollapse[FLAC]\Breach - 02 - Old Ass Player.wav

     Peak level 99.8 %
     Track quality 100.0 %
     Test CRC 3E1E0386
     Copy CRC 3E1E0386
     Accurately ripped (confidence 2)  [EF475621]
     Copy OK

Track  3

     Filename C:\EAC RIPS\Breach - 2001 - Kollapse[FLAC]\Breach - 03 - Sphincter Ani.wav

     Pre-gap length  0:00:01.02

     Peak level 61.6 %
     Track quality 100.0 %
     Test CRC 17DE52ED
     Copy CRC 17DE52ED
     Accurately ripped (confidence 2)  [DE437FFF]
     Copy OK

Track  4

     Filename C:\EAC RIPS\Breach - 2001 - Kollapse[FLAC]\Breach - 04 - Alarma.wav

     Peak level 99.8 %
     Track quality 99.9 %
     Test CRC AF69DEAA
     Copy CRC AF69DEAA
     Accurately ripped (confidence 2)  [D7F7C6B5]
     Copy OK

Track  5

     Filename C:\EAC RIPS\Breach - 2001 - Kollapse[FLAC]\Breach - 05 - Lost Crew.wav

     Peak level 99.8 %
     Track quality 100.0 %
     Test CRC 927572AA
     Copy CRC 927572AA
     Accurately ripped (confidence 2)  [E623653E]
     Copy OK

Track  6

     Filename C:\EAC RIPS\Breach - 2001 - Kollapse[FLAC]\Breach - 06 - Teeth Out.wav

     Pre-gap length  0:00:01.80

     Peak level 99.8 %
     Track quality 99.9 %
     Test CRC EE0B0736
     Copy CRC EE0B0736
     Accurately ripped (confidence 2)  [3E750372]
     Copy OK

Track  7

     Filename C:\EAC RIPS\Breach - 2001 - Kollapse[FLAC]\Breach - 07 - Breathing Dust.wav

     Pre-gap length  0:00:01.49

     Peak level 99.8 %
     Track quality 100.0 %
     Test CRC FB8BC4AF
     Copy CRC FB8BC4AF
     Accurately ripped (confidence 2)  [325C48C7]
     Copy OK

Track  8

     Filename C:\EAC RIPS\Breach - 2001 - Kollapse[FLAC]\Breach - 08 - Mr. Marshall.wav

     Peak level 99.8 %
     Track quality 100.0 %
     Test CRC 7E658FF7
     Copy CRC 7E658FF7
     Accurately ripped (confidence 2)  [34070602]
     Copy OK

Track  9

     Filename C:\EAC RIPS\Breach - 2001 - Kollapse[FLAC]\Breach - 09 - Seven.wav

     Pre-gap length  0:00:01.13

     Peak level 99.8 %
     Track quality 100.0 %
     Test CRC C53F44DE
     Copy CRC C53F44DE
     Accurately ripped (confidence 2)  [D7C95274]
     Copy OK

Track 10

     Filename C:\EAC RIPS\Breach - 2001 - Kollapse[FLAC]\Breach - 10 - Murder Kings And Killer Queens.wav

     Pre-gap length  0:00:01.53

     Peak level 99.8 %
     Track quality 100.0 %
     Test CRC 6862EFA9
     Copy CRC 6862EFA9
     Accurately ripped (confidence 2)  [1C32B0AA]
     Copy OK

Track 11

     Filename C:\EAC RIPS\Breach - 2001 - Kollapse[FLAC]\Breach - 11 - Kollapse.wav

     Pre-gap length  0:00:01.66

     Peak level 99.8 %
     Track quality 100.0 %
     Test CRC 06E2B5DF
     Copy CRC 06E2B5DF
     Accurately ripped (confidence 2)  [53DE08CF]
     Copy OK

All tracks accurately ripped

No errors occurred

End of status report
Код:
Код: Выделить всё
-----------------------

DON'T MODIFY THIS FILE

-----------------------

PERFORMER: auCDtect Task Manager, ver. 1.6.0 RC1 build 1.6.0.1
Copyright (c) 2008-2010 y-soft. All rights reserved
http:/y-soft.org

ANALYZER: auCDtect: CD records authenticity detector, version 0.8.2
Copyright (c) 2004 Oleg Berngardt. All rights reserved.
Copyright (c) 2004 Alexander Djourik. All rights reserved.

FILE: 11 - Kollapse.flac
  Size: 59114834 Hash: 2A210EA2744BAB33B2F4B84886E17CE1 Accuracy: -m0
  Conclusion: CDDA 100%
  Signature: 2D4B74F1110B268A5500B4D8ED7298D2F50639CD
FILE: 10 - Murder Kings And Killer Queens.flac
  Size: 17330538 Hash: B1ABA6F44250B7D2098DF622091D7B02 Accuracy: -m0
  Conclusion: CDDA 100%
  Signature: AD161B48DE988BDEB923401C56D2FAE71DA505A0
FILE: 09 - Seven.flac
  Size: 15640251 Hash: 30DE622FC2AE70FB2B31B30069360960 Accuracy: -m0
  Conclusion: CDDA 100%
  Signature: 42C6A5EDFE5B5416B985603878B4B6E4A2993D13
FILE: 08 - Mr. Marshall.flac
  Size: 36466334 Hash: 524600B9BEB74476701D23F98849F31F Accuracy: -m0
  Conclusion: CDDA 100%
  Signature: 106328B41E08ADBD534CBE06839E53EDA5D14EDA
FILE: 07 - Breathing Dust.flac
  Size: 23585724 Hash: 5EA9AF8FA8430A3CA93EAFC7DBF45388 Accuracy: -m0
  Conclusion: CDDA 100%
  Signature: BFD7A7A2544D0FFB16B8E1165C4C4ACD8A4E859A
FILE: 06 - Teeth Out.flac
  Size: 61177926 Hash: 5C4CC7A86C11AA10E783DFE2A3909E0B Accuracy: -m0
  Conclusion: CDDA 100%
  Signature: 17200B2B54ED01A3116BF6DEBED9C0D73074AD7E
FILE: 05 - Lost Crew.flac
  Size: 38820821 Hash: E7803411A34CD6127D67F37B08CC3321 Accuracy: -m0
  Conclusion: CDDA 99%
  Signature: 28C14AAAA928598E8DFD84AB795092D546736BC3
FILE: 04 - Alarma.flac
  Size: 21739581 Hash: 9E1FE4491587B558F71FBF52331D2AC6 Accuracy: -m0
  Conclusion: CDDA 100%
  Signature: 5F4EFCDAA93714CB8496932DFC7EEF4139F3332A
FILE: 03 - Sphincter Ani.flac
  Size: 6824312 Hash: BF46A0B3FC6CCB253A9BAAAC853EE188 Accuracy: -m0
  Conclusion: CDDA 100%
  Signature: 84A1F6DCA74F7AF03D8E872450118607FFA9F0E0
FILE: 02 - Old Ass Player.flac
  Size: 18727605 Hash: 7822D0B85CFF6F3A60B4F9B5832713E8 Accuracy: -m0
  Conclusion: CDDA 100%
  Signature: 7299EB84FB071FFB607F3D2BEB098214BC05833F
FILE: 01 - Big Strong Boss.flac
  Size: 37928016 Hash: 3E7B01F666D6D07650A03B5DFD0E6DDE Accuracy: -m0
  Conclusion: CDDA 100%
  Signature: 0EEC358600117F71D4955AFFF0C39A635546C94C
Правила, инструкции, FAQ!!!
Торрент  Добавлен [21 июл 2014, 09:46] Скачать торрент Магнет ссылка
Скачать торрент
18.62 КБ

Статус
Проверен 
 
Размер  1.3 ГБ
Приватный: Нет (DHT включён)
.torrent скачан  0
Как залить торрент? | Как скачать Torrent? | Как смотреть и слушать онлайн?  
Гость
 



Вернуться в Дискографии (Зарубежные)

Кто сейчас на конференции

Сейчас этот форум просматривают: нет зарегистрированных пользователей и гости: 0