Brazzaville - Дискография (9 альбомов) (1998-2009) [FLAC|Lossless]<Indie rock, Chamber Pop, Bossa Nova>


Статистика раздачи
Размер: 2.64 ГБ | Добавлен: 16 мар 2014, 00:37 | Скачали: 2
Сидеров: 64  [0 байт/сек]    Личеров: 11  [0 байт/сек]

Сообщение Гость » 16 мар 2014, 00:37

Brazzaville - Дискография (9 альбомов) (1998-2009)



Год: 1998-2009
Жанр: Indie rock, Chamber Pop, Bossa Nova
Кодек: FLAC
Битрейт: Lossless
Тип битрейта: CBR
Общая продолжительность: 07:31:12
Год: 1998
Жанр: Indie rock, Chamber Pop, Bossa Nova
Продолжительность: 00:47:37
Кодек: FLAC
Тип битрейта: CBR
Битрейт: 854

Трек лист:
01 - Deng Xioping
02 - Caldo De Cana
03 - Sewers Of Bangkok
04 - Pablo's Lament
05 - Ocean (With Joe Frank)
06 - Voce
07 - Oi
08 - IMF
09 - Shioda
10 - Shams
11 - 1963
AUDIOCHECKER v2.0 beta (build 457) - by Dester -
~~~~~~~~~~~~~~~~~~~~~~~~~~~~~~~~~~

Путь: ...\1998 - Brazzaville

01 -=- Brazzaville - 1998 - Brazzaville.flac -=- CDDA (100%)

200443060
EAC extraction logfile from 10. July 2006, 18:22 for CD
Brazzaville / Brazzaville

Used drive :
Read mode : Secure with NO C2, accurate stream, disable cache
Read offset correction : 102
Overread into Lead-In and Lead-Out : No

Used output format : Internal WAV Routines
44.100 Hz; 16 Bit; Stereo

Other options :
Fill up missing offset samples with silence : Yes
Delete leading and trailing silent blocks : No
Installed external ASPI interface

Range status and errors
Selected range
Filename CDImage.wav

Peak level 98.8 %
Range quality 99.9 %
CRC DB2F15C3
Copy OK

No errors occured

End of status report
#777Год: 2000
Жанр: Indie rock, Chamber Pop, Bossa Nova
Продолжительность: 00:47:26
Кодек: FLAC
Тип битрейта: CBR
Битрейт: 860

Трек лист:
01 - Air Mail
02 - Foreign Disaster Days
03 - Sandman
04 - Boeing
05 - Caso Batllo
06 - Lazy, Flawed + Hopeless
07 - Jane
08 - Super Gizi
09 - 4 A.M. Osaka
10 - Old Man Dub
11 - Third + Broadway
AUDIOCHECKER v2.0 beta (build 457) - by Dester -
~~~~~~~~~~~~~~~~~~~~~~~~~~~~~~~~~~

Путь: ...\2000 - Somnambulista

01 -=- Brazzaville - 2000 - Somnambulista.flac -=- CDDA (100%)

52647028
EAC extraction logfile from 10. July 2006, 18:40 for CD
Brazzaville / Somnambulista

Used drive :
Read mode : Secure with NO C2, accurate stream, disable cache
Read offset correction : 102
Overread into Lead-In and Lead-Out : No

Used output format : Internal WAV Routines
44.100 Hz; 16 Bit; Stereo

Other options :
Fill up missing offset samples with silence : Yes
Delete leading and trailing silent blocks : No
Installed external ASPI interface

Range status and errors
Selected range
Filename CDImage.wav

Peak level 98.8 %
Range quality 100.0 %
CRC B9CEEED0
Copy OK

No errors occured

End of status report
#777Год: 2002
Жанр: Indie rock, Chamber Pop, Bossa Nova
Продолжительность: 01:02:33
Кодек: FLAC
Тип битрейта: CBR
Битрейт: 824

Трек лист:
01 - Motel Room
02 - Samurai
03 - Queenie
04 - 1980
05 - Rainy Night
06 - Genoa
07 - Trona
08 - Xanax & Three Hours Of TV
09 - High Life
10 - № Koreatown
11 - Late Night Lullaby
AUDIOCHECKER v2.0 beta (build 457) - by Dester -
~~~~~~~~~~~~~~~~~~~~~~~~~~~~~~~~~~

Путь: ...\2002 - Rouge On Pockmarked Cheeks

01 -=- Brazzaville - 2002 - Rouge On Pockmarked Cheeks.flac -=- CDDA (100%)

263363188
EAC extraction logfile from 10. July 2006, 18:00 for CD
Brazzaville / Rouge On Pockmarked Cheeks

Used drive :
Read mode : Secure with NO C2, accurate stream, disable cache
Read offset correction : 102
Overread into Lead-In and Lead-Out : No

Used output format : Internal WAV Routines
44.100 Hz; 16 Bit; Stereo

Other options :
Fill up missing offset samples with silence : Yes
Delete leading and trailing silent blocks : No
Installed external ASPI interface

Range status and errors
Selected range
Filename CDImage.wav

Peak level 100.0 %
Range quality 100.0 %
CRC 2848470A
Copy OK

No errors occured

End of status report
#777Год: 2004
Жанр: Indie rock, Chamber Pop, Bossa Nova
Продолжительность: 00:49:12
Кодек: FLAC
Тип битрейта: CBR
Битрейт: 800

Трек лист:
01 - Intro
02 - Londres
03 - Love Is the Answer
04 - Old Folks
05 - Hong Kong Cafe
06 - Hastings Street
07 - Single Apartment
08 - Night Train to Moscow
09 - Interlude
10 - Lagos Slums
11 - 17
12 - L.A. River Lady
13 - Left Out
14 - Asteroid Fields
15 - Dark Eyes
AUDIOCHECKER v2.0 beta (build 457) - by Dester -
~~~~~~~~~~~~~~~~~~~~~~~~~~~~~~~~~~

Путь: ...\2004 - Hastings Street

01 -=- Brazzaville - 2004 - Hastings Street.flac -=- CDDA (100%)

63924580
EAC extraction logfile from 10. July 2006, 18:56 for CD
Brazzaville / Hastings Street

Used drive : HL-DT-STDVD-ROM GDR8163B Adapter: 0 ID: 0
Read mode : Secure with NO C2, accurate stream, disable cache
Read offset correction : 102
Overread into Lead-In and Lead-Out : No

Used output format : Internal WAV Routines
44.100 Hz; 16 Bit; Stereo

Other options :
Fill up missing offset samples with silence : Yes
Delete leading and trailing silent blocks : No
Installed external ASPI interface

Range status and errors
Selected range
Filename D:\iso\Brazzaville\2004-Hastings.Street\CDImage.wav

Peak level 99.9 %
Range quality 99.9 %
CRC DEC6AFF9
Copy OK

No errors occured

End of status report
#777Год: 2005
Жанр: Indie rock, Chamber Pop, Bossa Nova
Продолжительность: 01:07:59
Кодек: FLAC
Тип битрейта: CBR
Битрейт: 789

Трек лист:
01 - Last Days
02 - Hotel Ukraina
03 - Super Gizi
04 - Foreign Disaster Days
05 - Night Train To Moscow
06 - Casa Batllo
07 - Queenie
08 - Londres
09 - Genoa
10 - Motel Room
11 - Lagos Slums
12 - Voce
13 - Sewers Of Bangkok
14 - Christmas In E.C
15 - Love Sky
16 - Rollin Easy
AUDIOCHECKER v2.0 beta (build 457) - by Dester -
~~~~~~~~~~~~~~~~~~~~~~~~~~~~~~~~~~

Путь: ...\2005 - Welcome To Brazzaville

01 -=- Brazzaville - 2005 - Welcome To Brazzaville.flac -=- CDDA (99%)

110509140
EAC extraction logfile from 10. July 2006, 19:09 for CD
Brazzaville / Welcome to .... Brazzaville

Used drive : HL-DT-STDVD-ROM GDR8163B Adapter: 0 ID: 0
Read mode : Secure with NO C2, accurate stream, disable cache
Read offset correction : 102
Overread into Lead-In and Lead-Out : No

Used output format : Internal WAV Routines
44.100 Hz; 16 Bit; Stereo

Other options :
Fill up missing offset samples with silence : Yes
Delete leading and trailing silent blocks : No
Installed external ASPI interface

Range status and errors
Selected range
Filename D:\iso\Brazzaville\2005-Welcome to Brazzaville\CDImage.wav

Peak level 100.0 %
Range quality 100.0 %
CRC C4C6C42D
Copy OK

No errors occured

End of status report
#777Год: 2006
Жанр: Indie rock, Chamber Pop, Bossa Nova
Продолжительность: 00:41:42
Кодек: FLAC
Тип битрейта: CBR
Битрейт: 778

Трек лист:
01 - Peach Three
02 - Star Called Sun
03 - East L.A. Breeze
04 - Mr. Suicide
05 - 1983
06 - Jesse James
07 - Madonna
08 - Basphorus
09 - Ugly Babylon
10 - Taksim
11 - Blue Candles
12 - Morning Light
AUDIOCHECKER v2.0 beta (build 457) - by Dester -
~~~~~~~~~~~~~~~~~~~~~~~~~~~~~~~~~~

Путь: ...\2006 - East L.A. Breeze

01 -=- Brazzaville - 2006 - East L.A. Breeze.flac -=- CDDA (100%)

33005940
EAC extraction logfile from 4. July 2006, 15:17 for CD
Brazzaville / East L.A. Breeze

Used drive :
Read mode : Secure with NO C2, accurate stream, disable cache
Read offset correction : 12
Overread into Lead-In and Lead-Out : No

Used output format : Internal WAV Routines
44.100 Hz; 16 Bit; Stereo

Other options :
Fill up missing offset samples with silence : Yes
Delete leading and trailing silent blocks : No
Native Win32 interface for Win NT & 2000

Range status and errors
Selected range
Filename CDImage.wav

Peak level 96.6 %
Range quality 100.0 %
CRC D694FF88
Copy OK

No errors occured

End of status report
#777Год: 2008
Жанр: Indie rock, Chamber Pop, Bossa Nova
Продолжительность: 00:50:46
Кодек: FLAC
Тип битрейта: VBR

Трек лист:
01 - LAX
02 - 21st Century Girl
03 - Baltic Sea
04 - The Sun
05 - Leo
06 - Anabel
07 - The Clouds in Camarillo
08 - Aging Queens
09 - Hoover st.
10 - Up All Night
11 - Baby Blue
12 - The Hills of Anatolia
13 - The Clouds in Camarillo (w/ Minerwa)
14 - Aquamarine
AUDIOCHECKER v2.0 beta (build 457) - by Dester -
~~~~~~~~~~~~~~~~~~~~~~~~~~~~~~~~~~

Путь: ...\2008 - 21st Century Girl

01 -=- 01 - LAX.flac -=- CDDA (100%)
02 -=- 02 - 21st Century Girl.flac -=- CDDA (100%)
03 -=- 03 - Baltic Sea.flac -=- MPEG (97%)
04 -=- 04 - The Sun.flac -=- CDDA (100%)
05 -=- 05 - Leo.flac -=- CDDA (99%)
06 -=- 06 - Anabel.flac -=- CDDA (100%)
07 -=- 07 - The Clouds in Camarillo.flac -=- CDDA (100%)
08 -=- 08 - Aging Queens.flac -=- CDDA (100%)
09 -=- 09 - Hoover st.flac -=- CDDA (100%)
10 -=- 10 - Up All Night.flac -=- CDDA (100%)
11 -=- 11 - Baby Blue.flac -=- CDDA (100%)
12 -=- 12 - The Hills of Anatolia.flac -=- CDDA (100%)
13 -=- 13 - The Clouds in Camarillo (w Minerwa).flac -=- CDDA (100%)
14 -=- 14 - Aquamarine.flac -=- CDDA (100%)

Сводка 93,00% CDDA

116417700
#777Год: 2009
Жанр: Indie rock, Chamber Pop, Bossa Nova
Продолжительность: 00:42:50
Кодек: FLAC
Тип битрейта: VBR

Трек лист:
01 - Magura
02 - Girl from Vladivostok
03 - Teenage Summer Days
04 - Fallujah
05 - Richer Man
06 - Inland Empire Freeways
07 - Foolin' Myself
08 - Barcelona
09 - Palm Springs
10 - Morning Sun
11 - Hotel Devman
AUDIOCHECKER v2.0 beta (build 457) - by Dester -
~~~~~~~~~~~~~~~~~~~~~~~~~~~~~~~~~~

Путь: ...\2009 - David Arthur Brown - Teenage Summer Days

01 -=- 01 - Magura.flac -=- CDDA (100%)
02 -=- 02 - Girl from Vladivostok.flac -=- CDDA (100%)
03 -=- 03 - Teenage Summer Days.flac -=- CDDA (100%)
04 -=- 04 - Fallujah.flac -=- CDDA (100%)
05 -=- 05 - Richer Man.flac -=- CDDA (100%)
06 -=- 06 - Inland Empire Freeways.flac -=- CDDA (100%)
07 -=- 07 - Foolin' Myself.flac -=- CDDA (99%)
08 -=- 08 - Barcelona.flac -=- CDDA (100%)
09 -=- 09 - Palm Springs.flac -=- CDDA (100%)
10 -=- 10 - Morning Sun.flac -=- CDDA (100%)
11 -=- 11 - Hotel Devman.flac -=- CDDA (94%)

Сводка 99,36% CDDA

45693732
Exact Audio Copy V0.99 prebeta 5 from 4. May 2009

Отчёт EAC об извлечении, выполненном 29. сентября 2009, 17:07

David Arthur Brown / Teenage Summer Days

Дисковод: Optiarc DVD RW AD-7173S Adapter: 0 ID: 0

Режим чтения : Достоверность
Использование точного потока : Да
Отключение кэша аудио : Да
Использование указателей C2 : Нет

Коррекция смещения при чтении : 48
Способность читать области Lead-in и Lead-out : Нет
Заполнение пропущенных сэмплов тишиной : Да
Удаление блоков с тишиной в начале и конце : Нет
При вычислениях CRC использовались нулевые сэмплы : Да
Интерфейс : Встроенный Win32-интерфейс для Win NT/2000
Обработка зазоров : Добавлено к предыдущему треку

Выходной формат : Пользовательский кодировщик
Выбранный битрейт : 768 kBit/s
Качество : Высокий
Добавление ID3-тэга : Нет
Утилита сжатия : C:\Program Files\FLAC\flac.exe
Дополнительные параметры : -V -7 -T "artist=%a" -T "title=%t" -T "album=%g" -T "date=%y" -T "tracknumber=%n" -T "genre=%m" %s --picture=folder.jpg

TOC извлечённого CD

Трек | Старт | Длительность | Начальный сектор | Конечный сектор
---------------------------------------------------------------------
1 | 0:00.00 | 3:38.42 | 0 | 16391
2 | 3:38.42 | 3:50.40 | 16392 | 33681
3 | 7:29.07 | 2:58.27 | 33682 | 47058
4 | 10:27.34 | 3:44.30 | 47059 | 63888
5 | 14:11.64 | 5:42.13 | 63889 | 89551
6 | 19:54.02 | 3:48.10 | 89552 | 106661
7 | 23:42.12 | 3:31.43 | 106662 | 122529
8 | 27:13.55 | 4:31.60 | 122530 | 142914
9 | 31:45.40 | 3:42.35 | 142915 | 159599
10 | 35:28.00 | 3:32.09 | 159600 | 175508
11 | 39:00.09 | 3:50.18 | 175509 | 192776

Трек 1

Имя файла E:\!temp\David Arthur Brown - 01 - Magura.wav

Длина предзазора 0:00:02.00

Пиковый уровень 96.8 %
Качество трека 100.0 %
CRC теста 2A39044F
CRC копии 2A39044F
Копирование... OK

Трек 2

Имя файла E:\!temp\David Arthur Brown - 02 - Girl from Vladivostok.wav

Длина предзазора 0:00:01.66

Пиковый уровень 96.8 %
Качество трека 100.0 %
CRC теста 4056D814
CRC копии 4056D814
Копирование... OK

Трек 3

Имя файла E:\!temp\David Arthur Brown - 03 - Teenage Summer Days.wav

Длина предзазора 0:00:02.07

Пиковый уровень 96.6 %
Качество трека 100.0 %
CRC теста E0E52759
CRC копии E0E52759
Копирование... OK

Трек 4

Имя файла E:\!temp\David Arthur Brown - 04 - Fallujah.wav

Длина предзазора 0:00:02.04

Пиковый уровень 96.6 %
Качество трека 100.0 %
CRC теста F1C93449
CRC копии F1C93449
Копирование... OK

Трек 5

Имя файла E:\!temp\David Arthur Brown - 05 - Richer Man.wav

Длина предзазора 0:00:01.64

Пиковый уровень 100.0 %
Качество трека 100.0 %
CRC теста 9D9D0FF5
CRC копии 9D9D0FF5
Копирование... OK

Трек 6

Имя файла E:\!temp\David Arthur Brown - 06 - Inland Empire Freeways.wav

Длина предзазора 0:00:02.08

Пиковый уровень 99.6 %
Качество трека 99.9 %
CRC теста 8E26CE6D
CRC копии 8E26CE6D
Копирование... OK

Трек 7

Имя файла E:\!temp\David Arthur Brown - 07 - Foolin' Myself.wav

Длина предзазора 0:00:02.01

Пиковый уровень 94.9 %
Качество трека 100.0 %
CRC теста 7CA070D9
CRC копии 7CA070D9
Копирование... OK

Трек 8

Имя файла E:\!temp\David Arthur Brown - 08 - Barcelona.wav

Длина предзазора 0:00:02.11

Пиковый уровень 94.8 %
Качество трека 100.0 %
CRC теста 3CDC86A5
CRC копии 3CDC86A5
Копирование... OK

Трек 9

Имя файла E:\!temp\David Arthur Brown - 09 - Palm Springs.wav

Длина предзазора 0:00:02.02

Пиковый уровень 91.7 %
Качество трека 99.9 %
CRC теста 7F7528DE
CRC копии 7F7528DE
Копирование... OK

Трек 10

Имя файла E:\!temp\David Arthur Brown - 10 - Morning Sun.wav

Длина предзазора 0:00:01.60

Пиковый уровень 96.0 %
Качество трека 100.0 %
CRC теста 90906B89
CRC копии 90906B89
Копирование... OK

Трек 11

Имя файла E:\!temp\David Arthur Brown - 11 - Hotel Devman.wav

Длина предзазора 0:00:02.05

Пиковый уровень 98.5 %
Качество трека 100.0 %
CRC теста DB90695B
CRC копии DB90695B
Копирование... OK

Ошибок не произошло

Конец отчёта
#777Год: 2009
Жанр: Indie rock, Chamber Pop, Bossa Nova
Продолжительность: 00:41:03
Кодек: FLAC
Тип битрейта: CBR
Битрейт: 921

Трек лист:
01 - Jesse James
02 - Peach Tree
03 - Deng Xiaoping
04 - Foreign Disaster Days
05 - Magura
06 - Pablo's Lament
07 - Casa Batllo
08 - 17
09 - Madalena
10 - Bosphorus
11 - Taksim
AUDIOCHECKER v2.0 beta (build 457) - by Dester -
~~~~~~~~~~~~~~~~~~~~~~~~~~~~~~~~~~

Путь: ...\2009 - Brazzaville in Istanbul

1 -=- Brazzaville - 2009 - Brazzaville in Istanbul.flac -=- CDDA (99%)

229052228
Exact Audio Copy V0.99 prebeta 4 from 23. January 2008

EAC extraction logfile from 26. March 2010, 19:05

Brazzaville / Brazzaville in Istanbul

Used drive : TSSTcorpDVD-ROM SH-D163A Adapter: 3 ID: 0

Read mode : Secure
Utilize accurate stream : Yes
Defeat audio cache : Yes
Make use of C2 pointers : No

Read offset correction : 6
Overread into Lead-In and Lead-Out : No
Fill up missing offset samples with silence : Yes
Delete leading and trailing silent blocks : No
Null samples used in CRC calculations : Yes
Used interface : Native Win32 interface for Win NT & 2000
Gap handling : Appended to previous track

Used output format : User Defined Encoder
Selected bitrate : 192 kBit/s
Quality : High
Add ID3 tag : No
Command line compressor : C:\Program Files\FLAC\flac.exe
Additional command line options : -V -8 -T "artist=%a" -T "title=%t" -T "album=%g" -T "date=%y" -T "tracknumber=%n" -T "genre=%m" %s

TOC of the extracted CD

Track | Start | Length | Start sector | End sector
---------------------------------------------------------
1 | 0:00.00 | 3:44.71 | 0 | 16870
2 | 3:44.71 | 2:28.33 | 16871 | 28003
3 | 6:13.29 | 4:35.23 | 28004 | 48651
4 | 10:48.52 | 3:32.26 | 48652 | 64577
5 | 14:21.03 | 3:43.37 | 64578 | 81339
6 | 18:04.40 | 3:43.09 | 81340 | 98073
7 | 21:47.49 | 4:08.39 | 98074 | 116712
8 | 25:56.13 | 3:51.17 | 116713 | 134054
9 | 29:47.30 | 3:56.46 | 134055 | 151800
10 | 33:44.01 | 3:48.68 | 151801 | 168968
11 | 37:32.69 | 3:30.20 | 168969 | 184738

Track 1

Filename D:\MP3\02_WaveCD\00_My_Uploads\Brazzaville - Brazzaville in Istanbul FLAC\01 - Jesse James.wav

Pre-gap length 0:00:02.00

Peak level 100.0 %
Track quality 100.0 %
Test CRC 29AB4BBE
Copy CRC 29AB4BBE
Copy OK

Track 2

Filename D:\MP3\02_WaveCD\00_My_Uploads\Brazzaville - Brazzaville in Istanbul FLAC\02 - Peach Tree.wav

Peak level 100.0 %
Track quality 99.9 %
Test CRC B128CA8C
Copy CRC B128CA8C
Copy OK

Track 3

Filename D:\MP3\02_WaveCD\00_My_Uploads\Brazzaville - Brazzaville in Istanbul FLAC\03 - Deng Xiaoping.wav

Peak level 100.0 %
Track quality 100.0 %
Test CRC CB139DE0
Copy CRC CB139DE0
Copy OK

Track 4

Filename D:\MP3\02_WaveCD\00_My_Uploads\Brazzaville - Brazzaville in Istanbul FLAC\04 - Foreign Disaster Days.wav

Peak level 100.0 %
Track quality 100.0 %
Test CRC D9D668E4
Copy CRC D9D668E4
Copy OK

Track 5

Filename D:\MP3\02_WaveCD\00_My_Uploads\Brazzaville - Brazzaville in Istanbul FLAC\05 - Magura.wav

Peak level 100.0 %
Track quality 99.9 %
Test CRC B1928514
Copy CRC B1928514
Copy OK

Track 6

Filename D:\MP3\02_WaveCD\00_My_Uploads\Brazzaville - Brazzaville in Istanbul FLAC\06 - Pablo's Lament.wav

Peak level 100.0 %
Track quality 100.0 %
Test CRC 943DA832
Copy CRC 943DA832
Copy OK

Track 7

Filename D:\MP3\02_WaveCD\00_My_Uploads\Brazzaville - Brazzaville in Istanbul FLAC\07 - Casa Batllo.wav

Peak level 100.0 %
Track quality 100.0 %
Test CRC F708627F
Copy CRC F708627F
Copy OK

Track 8

Filename D:\MP3\02_WaveCD\00_My_Uploads\Brazzaville - Brazzaville in Istanbul FLAC\08 - 17.wav

Peak level 100.0 %
Track quality 100.0 %
Test CRC 12EFECD5
Copy CRC 12EFECD5
Copy OK

Track 9

Filename D:\MP3\02_WaveCD\00_My_Uploads\Brazzaville - Brazzaville in Istanbul FLAC\09 - Madalena.wav

Peak level 100.0 %
Track quality 100.0 %
Test CRC 3B4E452F
Copy CRC 3B4E452F
Copy OK

Track 10

Filename D:\MP3\02_WaveCD\00_My_Uploads\Brazzaville - Brazzaville in Istanbul FLAC\10 - Bosphorus.wav

Peak level 100.0 %
Track quality 100.0 %
Test CRC F05ABB45
Copy CRC F05ABB45
Copy OK

Track 11

Filename D:\MP3\02_WaveCD\00_My_Uploads\Brazzaville - Brazzaville in Istanbul FLAC\11 - Taksim.wav

Pre-gap length 0:00:01.00

Peak level 100.0 %
Track quality 100.0 %
Test CRC 2286669A
Copy CRC 2286669A
Copy OK

No errors occurred

End of status report
Правила, инструкции, FAQ!!!
Торрент  Добавлен [16 мар 2014, 00:37] Скачать торрент Магнет ссылка
Скачать торрент
20.97 КБ

Статус
Проверен 
 
Размер  2.64 ГБ
Приватный: Нет (DHT включён)
.torrent скачан  2
Как залить торрент? | Как скачать Torrent? | Как смотреть и слушать онлайн?  
Гость
 



Вернуться в Дискографии (Зарубежные)

Кто сейчас на конференции

Сейчас этот форум просматривают: нет зарегистрированных пользователей и гости: 0