Братья Систерс / The Sisters Brothers (2018) BDRip 1080p | iTunes


Статистика раздачи
Размер: 10.06 ГБ | Добавлен: 20 янв 2019, 22:47 | Скачали: 3287
Сидеров: 648  [0 байт/сек]    Личеров: 31  [0 байт/сек]

Сообщение Гость » 20 янв 2019, 22:47

Название: Братья Систерс
Оригинальное название: The Sisters Brothers
Год выхода: 2018
Жанр: Драма, комедия, криминал, приключения, вестерн
Режиссер: Жак Одиар
В ролях: Джон С. Райлли, Хоакин Феникс, Джейк Джилленхол, Риз Ахмед, Ребекка Рут, Эллисон Толман, Рутгер Хауэр, Кэрол Кейн, Патрис Коссоно, Зак Эбботт



О фильме: Братья-беспредельщики по фамилии Систерс по заданию таинственного Командора должны прикончить некоего Уорма, золотоискателя-авантюриста. Фартовые по жизни охотники за головами гонятся за новой жертвой, не подозревая, что их разведчик не так-то прост... Начинается игра на выживание: острый ум против безбашенной силы.

Страна: Франция, Испания, Румыния, США, Бельгия
Студия: Why Not Productions,Page 114, Annapurna Pictures
Продолжительность: 02:01:05
Перевод: Дублированный | iTunes

Качество: BDRip 1080p
Видео: MPEG-4 AVC, 1920x800, 10 Mbit/s, 24 fps
Звук:
Аудио #01: 48 kHz, AC3, 5.1, 384 Kbps | iTunes | RUS |
Аудио #02: 48 kHz, DTS, 5.1, 1510 Kbps | Оригинал | ENG |
Субтитры: Русские (full), английские



General
Unique ID : 219106820468894631241730931344399013657 (0xA4D6704BC356860484710861119E1719)
Complete name : D:Video111The.Sisters.Brothers.2018.BDRip.1080p.seleZen.mkv
Format : Matroska
Format version : Version 4
File size : 10.1 GiB
Duration : 2 h 1 min
Overall bit rate : 11.9 Mb/s
Movie name : The Sisters Brothers (2018) from селезень
Encoded date : UTC 2019-01-20 05:31:44
Writing application : mkvmerge v29.0.0 ('Like It Or Not') 64-bit
Writing library : libebml v1.3.6 + libmatroska v1.4.9

Video
ID : 1
Format : AVC
Format/Info : Advanced Video Codec
Format profile : High@L4.1
Format settings : CABAC / 5 Ref Frames
Format settings, CABAC : Yes
Format settings, ReFrames : 5 frames
Codec ID : V_MPEG4/ISO/AVC
Duration : 2 h 1 min
Bit rate : 10 000 kb/s
Width : 1 920 pixels
Height : 800 pixels
Display aspect ratio : 2.40:1
Frame rate mode : Constant
Frame rate : 24.000 FPS
Color space : YUV
Chroma subsampling : 4:2:0
Bit depth : 8 bits
Scan type : Progressive
Bits/(Pixel*Frame) : 0.271
Stream size : 8.45 GiB (84%)
Title : seleZen
Writing library : x264 core 148 r2705kMod 3f5ed56
Encoding settings : cabac=1 / ref=5 / deblock=1:-2:-2 / analyse=0x3:0x133 / me=umh / subme=10 / psy=1 / fade_compensate=0.00 / psy_rd=1.20:0.07 / mixed_ref=1 / me_range=24 / chroma_me=1 / trellis=2 / 8x8dct=1 / cqm=0 / deadzone=21,11 / fast_pskip=0 / chroma_qp_offset=-3 / threads=12 / lookahead_threads=2 / sliced_threads=0 / nr=0 / decimate=0 / interlaced=0 / bluray_compat=0 / constrained_intra=0 / fgo=0 / bframes=8 / b_pyramid=2 / b_adapt=2 / b_bias=0 / direct=3 / weightb=1 / open_gop=0 / weightp=2 / keyint=240 / keyint_min=24 / scenecut=40 / intra_refresh=0 / rc_lookahead=50 / rc=2pass / mbtree=0 / bitrate=10000 / ratetol=1.0 / qcomp=0.60 / qpmin=0 / qpmax=51 / qpstep=4 / cplxblur=20.0 / qblur=0.5 / vbv_maxrate=50000 / vbv_bufsize=62500 / nal_hrd=none / filler=0 / ip_ratio=1.40 / pb_ratio=1.30 / aq=3:0.80
Language : English
Default : Yes
Forced : No

Audio #1
ID : 2
Format : AC-3
Format/Info : Audio Coding 3
Commercial name : Dolby Digital
Codec ID : A_AC3
Duration : 2 h 1 min
Bit rate mode : Constant
Bit rate : 384 kb/s
Channel(s) : 6 channels
Channel layout : L R C LFE Ls Rs
Sampling rate : 48.0 kHz
Frame rate : 31.250 FPS (1536 SPF)
Bit depth : 16 bits
Compression mode : Lossy
Stream size : 333 MiB (3%)
Title : iTunes
Language : Russian
Service kind : Complete Main
Default : Yes
Forced : Yes

Audio #2
ID : 3
Format : DTS
Format/Info : Digital Theater Systems
Codec ID : A_DTS
Duration : 2 h 1 min
Bit rate mode : Constant
Bit rate : 1 509 kb/s
Channel(s) : 6 channels
Channel layout : C L R Ls Rs LFE
Sampling rate : 48.0 kHz
Frame rate : 93.750 FPS (512 SPF)
Bit depth : 24 bits
Compression mode : Lossy
Stream size : 1.28 GiB (13%)
Title : Original
Language : English
Default : No
Forced : No

Text #1
ID : 4
Format : UTF-8
Codec ID : S_TEXT/UTF8
Codec ID/Info : UTF-8 Plain Text
Duration : 1 h 51 min
Bit rate : 64 b/s
Count of elements : 1195
Stream size : 52.8 KiB (0%)
Title : Full
Language : Russian
Default : No
Forced : No

Text #2
ID : 5
Format : UTF-8
Codec ID : S_TEXT/UTF8
Codec ID/Info : UTF-8 Plain Text
Duration : 1 h 51 min
Bit rate : 64 b/s
Count of elements : 1195
Stream size : 52.8 KiB (0%)
Title : Full
Language : English
Default : No
Forced : No

Menu
00:00:00.000 : en:00:00:00.000
00:10:52.458 : en:00:10:52.458
00:22:14.167 : en:00:22:14.167
00:28:34.083 : en:00:28:34.083
00:41:19.625 : en:00:41:19.625
00:50:30.250 : en:00:50:30.250
00:59:41.083 : en:00:59:41.083
01:10:16.542 : en:01:10:16.542
01:20:06.500 : en:01:20:06.500
01:29:20.292 : en:01:29:20.292
01:40:09.083 : en:01:40:09.083
01:49:51.708 : en:01:49:51.708


Релиз от:

Правила, инструкции, FAQ!!!
Торрент  Добавлен [20 янв 2019, 22:47] Скачать торрент Магнет ссылка
Скачать торрент
14.29 КБ

Статус
Проверен 
 
Размер  10.06 ГБ
Приватный: Нет (DHT включён)
.torrent скачан  3287
Как залить торрент? | Как скачать Torrent? | Как смотреть и слушать онлайн?  
Гость
 



Вернуться в 720p | 1080p

Кто сейчас на конференции

Сейчас этот форум просматривают: нет зарегистрированных пользователей и гости: 0