Boston - Дискография (1976-2002) [FLAC|Lossless]<Rock, hard rock>


Статистика раздачи
Размер: 1.28 ГБ | Добавлен: 21 июл 2014, 09:40 | Скачали: 3
Сидеров: 23  [0 байт/сек]    Личеров: 55  [0 байт/сек]

Сообщение Гость » 21 июл 2014, 09:40

Boston - Дискография (1976-2002)

Страна: США
Год: 1976-2002
Жанр: Rock, hard rock
Продолжительность: 3:16:42

Кодек: FLAC
Битрейт: Lossless
Релиз потрековый

Трек лист:
1976 - Boston
1978 - Don't Look Back
1986 - Third Stage
1994 - Walk On
2002 - Corporate America


#777Boston — американская рок-группа, которая за тридцать лет своего существования выпустила всего пять студийных альбомов.
Во главе команды всегда стоял Том Шольц, остальные участники со временем менялись. Ещё в студенческие годы он написал большую часть песен, которые годы спустя легли в основу дебютного альбома, "Boston". Появление этого диска в 1976 году позволило вернуть классическому року часть молодёжной аудитории, которая увлеклась модными поветриями вроде панк-рока и диско. Альбом является одним из самых кассовых дебютных альбомов в истории США (17 млн проданных экземпляров).
Наряду с Queen команда сыграла решающую роль в разработке сложных гитарных гармоний, которые легли в основу музыки таких популярных групп восьмидесятых, как Def Leppard. Песня "More Than a Feeling" с дебютного альбома группы стала одним из самых известных стадионных гимнов в истории рок-музыки. Курт Кобейн признавал, что основной гитарный пассаж его песни "Smells Like Teen Spirit" был неосознанным заимствованием из "More Than a Feeling". Во время одного из концертных исполнений своей песни он даже спел припев "More Than a Feeling" в знак того, насколько надоел ему этот первый суперхит Nirvana.
В 1978 году вышел второй альбом группы, "Don’t Look Back", реализованный тиражом в семь миллионов копий. Участники команды были готовы немедленно записать третий диск, однако Том Шольц настаивал на том, что подготовка нового альбома требует времени. Его перфекционизм привёл к тому, что в 1979-83 годах Boston фактически прекратили существование. В 1986 году наконец появился их третий альбом, так и названный ("Third Stage"). Следующего диска, "Walk On", поклонникам группы пришлось ждать восемь лет; пятый альбом "Corporate America" поступил в продажу ещё восемь лет спустя.
В 2007 году вокалист и фронтмен группы Брэд Делп покончил с собой, перспективы существования Boston неясны
#777Продолжительность: 00:37:46

Треклист:

01. More Than A Feeling (4:45)
02. Peace Of Mind (5:03)
03. Foreplay/Long Time (7:51)
04. Rock & Roll Band (3:00)
05. Smokin' (4:21)
06. Hitch A Ride (4:12)
07. Something About You (3:48)
08. Let Me Take You Home Tonight (4:44)
Код:
Код: Выделить всё
Exact Audio Copy V0.99 prebeta 4 from 23. January 2008

EAC extraction logfile from 11. February 2009, 22:02

Boston / Boston - Mastersound Gold

Used drive  : LITE-ON DVDRW SH-16A7S   Adapter: 1  ID: 0

Read mode               : Secure
Utilize accurate stream : Yes
Defeat audio cache      : Yes
Make use of C2 pointers : No

Read offset correction                      : 6
Overread into Lead-In and Lead-Out          : No
Fill up missing offset samples with silence : Yes
Delete leading and trailing silent blocks   : No
Null samples used in CRC calculations       : Yes
Used interface                              : Native Win32 interface for Win NT & 2000
Gap handling                                : Appended to previous track

Used output format              : User Defined Encoder
Selected bitrate                : 1024 kBit/s
Quality                         : High
Add ID3 tag                     : No
Command line compressor         : C:\Program Files (x86)\FLAC\flac.exe
Additional command line options : -V -8 -T "artist=%a" -T "title=%t" -T "album=%g" -T "date=%y" -T "tracknumber=%n" -T "genre=%m" %s

TOC of the extracted CD

     Track |   Start  |  Length  | Start sector | End sector
    ---------------------------------------------------------
        1  |  0:00.00 |  4:45.12 |         0    |    21386
        2  |  4:45.12 |  5:03.33 |     21387    |    44144
        3  |  9:48.45 |  7:51.12 |     44145    |    79481
        4  | 17:39.57 |  3:00.35 |     79482    |    93016
        5  | 20:40.17 |  4:21.30 |     93017    |   112621
        6  | 25:01.47 |  4:11.68 |    112622    |   131514
        7  | 29:13.40 |  3:48.07 |    131515    |   148621
        8  | 33:01.47 |  4:44.28 |    148622    |   169949

Track  1

     Filename F:\EAC Rips\Boston - 1976 - Boston - MFSL\01 - More Than A Feeling.wav

     Pre-gap length  0:00:02.00

     Peak level 100.0 %
     Track quality 100.0 %
     Test CRC 81D2A816
     Copy CRC 81D2A816
     Accurately ripped (confidence 13)  [607B0F16]
     Copy OK

Track  2

     Filename F:\EAC Rips\Boston - 1976 - Boston - MFSL\02 - Peace Of Mind.wav

     Peak level 95.0 %
     Track quality 100.0 %
     Test CRC 8ABFB713
     Copy CRC 8ABFB713
     Accurately ripped (confidence 13)  [75FF2558]
     Copy OK

Track  3

     Filename F:\EAC Rips\Boston - 1976 - Boston - MFSL\03 - Foreplay,Long Time.wav

     Pre-gap length  0:00:00.40

     Peak level 100.0 %
     Track quality 100.0 %
     Test CRC 777AAFB5
     Copy CRC 777AAFB5
     Accurately ripped (confidence 13)  [F211A6CE]
     Copy OK

Track  4

     Filename F:\EAC Rips\Boston - 1976 - Boston - MFSL\04 - Rock & Roll Band.wav

     Pre-gap length  0:00:02.22

     Peak level 95.3 %
     Track quality 100.0 %
     Test CRC E4A26236
     Copy CRC E4A26236
     Accurately ripped (confidence 13)  [D510451F]
     Copy OK

Track  5

     Filename F:\EAC Rips\Boston - 1976 - Boston - MFSL\05 - Smokin'.wav

     Pre-gap length  0:00:01.09

     Peak level 100.0 %
     Track quality 100.0 %
     Test CRC 69BC4A8F
     Copy CRC 69BC4A8F
     Accurately ripped (confidence 13)  [5B08BECD]
     Copy OK

Track  6

     Filename F:\EAC Rips\Boston - 1976 - Boston - MFSL\06 - Hitch A Ride.wav

     Pre-gap length  0:00:02.26

     Peak level 93.2 %
     Track quality 100.0 %
     Test CRC 362B1FAD
     Copy CRC 362B1FAD
     Accurately ripped (confidence 13)  [32D3A51A]
     Copy OK

Track  7

     Filename F:\EAC Rips\Boston - 1976 - Boston - MFSL\07 - Something About You.wav

     Peak level 96.5 %
     Track quality 100.0 %
     Test CRC DB5AAAAA
     Copy CRC DB5AAAAA
     Accurately ripped (confidence 13)  [CA24A14F]
     Copy OK

Track  8

     Filename F:\EAC Rips\Boston - 1976 - Boston - MFSL\08 - Let Me Take You Home Tonight.wav

     Peak level 95.2 %
     Track quality 100.0 %
     Test CRC FED2CB50
     Copy CRC FED2CB50
     Accurately ripped (confidence 12)  [270011AC]
     Copy OK

All tracks accurately ripped

No errors occurred

End of status report
Код:
Код: Выделить всё
AUDIOCHECKER v2.0 beta (build 457) - by Dester -
~~~~~~~~~~~~~~~~~~~~~~~~~~~~~~~~~~
-=== DO NOT EDIT THIS FILE! ===-

Path: ...\1976 - Boston

1 -=- 08 - Let Me Take You Home Tonight.flac -=- CDDA (100%)
2 -=- 01 - More Than A Feeling.flac -=- CDDA (100%)
3 -=- 02 - Peace Of Mind.flac -=- CDDA (100%)
4 -=- 03 - Foreplay,Long Time.flac -=- CDDA (100%)
5 -=- 04 - Rock & Roll Band.flac -=- CDDA (100%)
6 -=- 05 - Smokin'.flac -=- CDDA (100%)
7 -=- 06 - Hitch A Ride.flac -=- CDDA (100%)
8 -=- 07 - Something About You.flac -=- CDDA (100%)

Summary 100,00% CDDA

244541700

#777Продолжительность: 00:33:37

Треклист:

01. Don't Look Back (5:58)
02. The Journey (1:47)
03. It's Easy (4:23)
04. A Man I'll Never Be (6:34)
05. Feelin' Satisfied (4:09)
06. Party (4:05)
07. Used To Bad News (2:56)
08. Don't Be Afraid (3:46)
Код:
Код: Выделить всё
AUDIOCHECKER v2.0 beta (build 457) - by Dester -
~~~~~~~~~~~~~~~~~~~~~~~~~~~~~~~~~~
-=== DO NOT EDIT THIS FILE! ===-

Path: ...\1978 - Don't Look Back

1 -=- 08 - Don't Be Afraid.flac -=- CDDA (100%)
2 -=- 01 - Don't Look Back.flac -=- CDDA (100%)
3 -=- 02 - The Journey.flac -=- CDDA (100%)
4 -=- 03 - It's Easy.flac -=- CDDA (100%)
5 -=- 04 - A Man I'll Never Be.flac -=- CDDA (100%)
6 -=- 05 - Feelin' Satisfied.flac -=- CDDA (100%)
7 -=- 06 - Party.flac -=- CDDA (100%)
8 -=- 07 - Used To Bad News.flac -=- CDDA (100%)

Summary 100,00% CDDA

59136532

#777Продолжительность: 00:36:21

Треклист:

01. Amanda (4:17)
02. We're Ready (3:57)
03. The Launch (2:57)
04. Cool The Engines (4:24)
05. My Destination (2:12)
06. A New World (0:36)
07. To Be A Man (3:30)
08. I Think I Like It (4:07)
09. Can'tcha Say (You Believe In Me) - Still In Love (5:13)
10. Hollyann (5:10)
Код:
Код: Выделить всё
AUDIOCHECKER v2.0 beta (build 457) - by Dester -
~~~~~~~~~~~~~~~~~~~~~~~~~~~~~~~~~~
-=== DO NOT EDIT THIS FILE! ===-

Path: ...\1986 - Third Stage

01 -=- 10 - Hollyann.flac -=- CDDA (100%)
02 -=- 01 - Amanda.flac -=- CDDA (100%)
03 -=- 02 - We're Ready.flac -=- CDDA (100%)
04 -=- 03 - The Launch.flac -=- CDDA (100%)
05 -=- 04 - Cool The Engines.flac -=- CDDA (100%)
06 -=- 05 - My Destination.flac -=- CDDA (100%)
07 -=- 06 - A New World.flac -=- CDDA (100%)
08 -=- 07 - To Be A Man.flac -=- CDDA (100%)
09 -=- 08 - I Think I Like It.flac -=- CDDA (100%)
10 -=- 09 - Can'tcha Say (You Believe In Me) - Still In Love.flac -=- CDDA (100%)

Summary 100,00% CDDA

200969300

#777Продолжительность: 00:44:23

Треклист:

01. I Need Your Love (5:33)
02. Surrender To Me (5:34)
03. Livin' For You (4:58)
04. Walkin' At Night (2:02)
05. Walk On (2:58)
06. Get Organ-ized (4:28)
07. Walk On (some more) (2:55)
08. What's Your Name (4:28)
09. Magdalene (5:58)
10. We Can Make It (5:30)
Код:
Код: Выделить всё
Exact Audio Copy V0.99 prebeta 4 from 23. January 2008

EAC extraction logfile from 18. January 2009, 20:35

Boston / Walk On

Used drive  : HL-DT-STBD-RE  GGW-H20L   Adapter: 0  ID: 0

Read mode               : Secure
Utilize accurate stream : Yes
Defeat audio cache      : Yes
Make use of C2 pointers : No

Read offset correction                      : 667
Overread into Lead-In and Lead-Out          : No
Fill up missing offset samples with silence : Yes
Delete leading and trailing silent blocks   : No
Null samples used in CRC calculations       : Yes
Used interface                              : Native Win32 interface for Win NT & 2000
Gap handling                                : Appended to previous track

Used output format              : User Defined Encoder
Selected bitrate                : 768 kBit/s
Quality                         : High
Add ID3 tag                     : No
Command line compressor         : C:\Program Files (x86)\Exact Audio Copy\FLAC\FLAC.EXE
Additional command line options : -V -8 -T "artist=%a" -T "title=%t" -T "album=%g" -T "date=%y" -T "tracknumber=%n" -T "genre=%m" %s

TOC of the extracted CD

     Track |   Start  |  Length  | Start sector | End sector
    ---------------------------------------------------------
        1  |  0:00.00 |  5:33.12 |         0    |    24986
        2  |  5:33.12 |  5:33.55 |     24987    |    50016
        3  | 11:06.67 |  4:57.50 |     50017    |    72341
        4  | 16:04.42 |  2:02.30 |     72342    |    81521
        5  | 18:06.72 |  2:57.58 |     81522    |    94854
        6  | 21:04.55 |  4:27.60 |     94855    |   114939
        7  | 25:32.40 |  2:54.72 |    114940    |   128061
        8  | 28:27.37 |  4:28.15 |    128062    |   148176
        9  | 32:55.52 |  5:57.48 |    148177    |   174999
       10  | 38:53.25 |  5:30.07 |    175000    |   199756

Track  1

     Filename F:\EAC Rips\Boston - 1994 - Walk On\01 - I Need Your Love.wav

     Pre-gap length  0:00:02.00

     Peak level 99.8 %
     Track quality 100.0 %
     Test CRC CD372F62
     Copy CRC CD372F62
     Accurately ripped (confidence 7)  [AE3DDE7D]
     Copy OK

Track  2

     Filename F:\EAC Rips\Boston - 1994 - Walk On\02 - Surrender To Me.wav

     Peak level 99.8 %
     Track quality 99.9 %
     Test CRC 1BA07380
     Copy CRC 1BA07380
     Accurately ripped (confidence 7)  [9ADA9A9C]
     Copy OK

Track  3

     Filename F:\EAC Rips\Boston - 1994 - Walk On\03 - Livin' For You.wav

     Peak level 99.8 %
     Track quality 100.0 %
     Test CRC 7F1C09AE
     Copy CRC 7F1C09AE
     Accurately ripped (confidence 7)  [9484D35C]
     Copy OK

Track  4

     Filename F:\EAC Rips\Boston - 1994 - Walk On\04 - Walkin' At Night.wav

     Peak level 70.9 %
     Track quality 100.0 %
     Test CRC 620484F1
     Copy CRC 620484F1
     Accurately ripped (confidence 6)  [53163079]
     Copy OK

Track  5

     Filename F:\EAC Rips\Boston - 1994 - Walk On\05 - Walk On.wav

     Peak level 99.8 %
     Track quality 100.0 %
     Test CRC 042CEBBB
     Copy CRC 042CEBBB
     Accurately ripped (confidence 7)  [1F5FDDF8]
     Copy OK

Track  6

     Filename F:\EAC Rips\Boston - 1994 - Walk On\06 - Get Organ-ized.wav

     Peak level 99.8 %
     Track quality 100.0 %
     Test CRC 333C76C8
     Copy CRC 333C76C8
     Accurately ripped (confidence 7)  [89239E52]
     Copy OK

Track  7

     Filename F:\EAC Rips\Boston - 1994 - Walk On\07 - Walk On (some more).wav

     Peak level 99.8 %
     Track quality 99.9 %
     Test CRC 8DEF1B04
     Copy CRC 8DEF1B04
     Accurately ripped (confidence 7)  [7C7F0E2D]
     Copy OK

Track  8

     Filename F:\EAC Rips\Boston - 1994 - Walk On\08 - What's Your Name.wav

     Peak level 99.8 %
     Track quality 100.0 %
     Test CRC 18666A33
     Copy CRC 18666A33
     Accurately ripped (confidence 7)  [86481F4A]
     Copy OK

Track  9

     Filename F:\EAC Rips\Boston - 1994 - Walk On\09 - Magdalene.wav

     Peak level 99.8 %
     Track quality 99.9 %
     Test CRC CC589806
     Copy CRC CC589806
     Accurately ripped (confidence 7)  [D4C0F613]
     Copy OK

Track 10

     Filename F:\EAC Rips\Boston - 1994 - Walk On\10 - We Can Make It.wav

     Peak level 98.4 %
     Track quality 99.9 %
     Test CRC 76A22245
     Copy CRC 76A22245
     Accurately ripped (confidence 7)  [59668790]
     Copy OK

All tracks accurately ripped

No errors occurred

End of status report
Код:
Код: Выделить всё
AUDIOCHECKER v2.0 beta (build 457) - by Dester -
~~~~~~~~~~~~~~~~~~~~~~~~~~~~~~~~~~
-=== DO NOT EDIT THIS FILE! ===-

Path: ...\1994 - Walk On

01 -=- 10 - We Can Make It.flac -=- CDDA (100%)
02 -=- 01 - I Need Your Love.flac -=- CDDA (100%)
03 -=- 02 - Surrender To Me.flac -=- CDDA (100%)
04 -=- 03 - Livin' For You.flac -=- CDDA (100%)
05 -=- 04 - Walkin' At Night.flac -=- CDDA (100%)
06 -=- 05 - Walk On.flac -=- CDDA (100%)
07 -=- 06 - Get Organ-ized.flac -=- CDDA (100%)
08 -=- 07 - Walk On (some more).flac -=- CDDA (100%)
09 -=- 08 - What's Your Name.flac -=- CDDA (100%)
10 -=- 09 - Magdalene.flac -=- CDDA (100%)

Summary 100,00% CDDA

75054004

#777Продолжительность: 00:44:34

Треклист:

01. I Had A Good Time (4:16)
02. Stare Out Your Window (3:20)
03. Corporate America (4:37)
04. With You (3:28)
05. Someone (4:11)
06. Turn It Off (4:38)
07. Cryin' (5:20)
08. Didnt Mean To Fall In Love (5:14)
09. You Gave Up On Love (4:23)
10. Livin' For You (Live) (5:08)
Код:
Код: Выделить всё
AUDIOCHECKER v2.0 beta (build 457) - by Dester -
~~~~~~~~~~~~~~~~~~~~~~~~~~~~~~~~~~
-=== DO NOT EDIT THIS FILE! ===-

Path: ...\2002 - Corporate America

01 -=- 10 - Livin' For You (Live).flac -=- CDDA (100%)
02 -=- 01 - I Had A Good Time.flac -=- CDDA (100%)
03 -=- 02 - Stare Out Your Window.flac -=- CDDA (100%)
04 -=- 03 - Corporate America.flac -=- CDDA (99%)
05 -=- 04 - With You.flac -=- CDDA (100%)
06 -=- 05 - Someone.flac -=- CDDA (100%)
07 -=- 06 - Turn It Off.flac -=- CDDA (100%)
08 -=- 07 - Cryin'.flac -=- CDDA (100%)
09 -=- 08 - Didnt Mean To Fall In Love.flac -=- CDDA (100%)
10 -=- 09 - You Gave Up On Love.flac -=- CDDA (100%)

Summary 99,90% CDDA

219435268

Правила, инструкции, FAQ!!!
Торрент  Добавлен [21 июл 2014, 09:40] Скачать торрент Магнет ссылка
Скачать торрент
18.05 КБ

Статус
Проверен 
 
Размер  1.28 ГБ
Приватный: Нет (DHT включён)
.torrent скачан  3
Как залить торрент? | Как скачать Torrent? | Как смотреть и слушать онлайн?  
Гость
 



Вернуться в Дискографии (Зарубежные)

Кто сейчас на конференции

Сейчас этот форум просматривают: нет зарегистрированных пользователей и гости: 0