Bосхoждeние Юпuтeр в 3Д / Juрitеr Аscеnding 3D (Эндu Вaчовcки, Лaна Вaчовcки / Аndy Wаchоwski, Lаna Wаchоwski) [2015, Фантастика, BDrip-AVC] Half OverUnder / Вертикальная анаморфная стереопара


Статистика раздачи
Размер: 10.86 ГБ | Добавлен: 30 июн 2015, 00:45 | Скачали: 176
Сидеров: 184  [0 байт/сек]    Личеров: 8  [0 байт/сек]

Сообщение Гость » 30 июн 2015, 00:45

Год выпуска: 2015
Страна: США, Великобритания (Warner Bros. Pictures, Village Roadshow Pictures, Ratpac Dune Entertainment)
Жанр: Фантастика, Боевик, Приключения
Продолжительность: 02:07:34

Перевод: Профессиональный дублированный (лицензия)

Режиссеры: Энди Вачовски / Andy Wachowski, Лана Вачовски / Lana Wachowski
Роли исполняли (дублировали):



Caine Wise - Ченнинг Татум (Александр Хошабаев)
Jupiter Jones - Мила Кунис
(Ирина Киреева)
Stinger Apini - Шон Бин (Владимир Антоник)
Balem Abrasax - Эдди Редмэйн (Илья Бледный)
Titus Abrasax - Дуглас Бут (Станислав Тикунов)
Kalique Abrasax - Таппенс Мидлтон (Полина Щербакова)
Diomika Tsing - Никки Амука-Бёрд (Инна Королёва)
Gemma Chatterjee - Кристина Коул (Мария Рыщенкова)
Nesh - Николас А. Ньюман
Phylo Percadium - Рамон Тикарам (Вадим Медведев)
Greeghan - Эрион Бакаре (Владислав Копп)

Описание: Юпитер Джонс родилась под ночным небом, и все знаки предсказывали, что девочке предстоят великие свершения. Юпитер выросла и каждый день видит во сне звезды, но просыпается в жесткой реальности, где она работает уборщицей и моет туалеты. Личная жизнь Юпитер тоже оставляет желать лучшего, пока девушка не встречает Кейна. Кейн, бывший военный охотник, прибывает на Землю, чтобы отыскать Юпитер и раскрыть девушке ее истинное предназначение. Благодаря своим генетическим особенностям Юпитер становится претенденткой невероятного наследия, способного изменить равновесие во Вселенной.
Доп. инфо: За исходный BD 3D большое спасибо пользователю 119905346!
    По словам режиссеров, объем сценария фильма составляет более 600 страниц.
    Первый фильм Энди и Ланы Вачовски в 3D-формате.
    Джозеф Гордон-Левитт рассматривался на роль в этом фильме.
    Изначально на главную женскую роль претендовала Натали Портман, но позднее она выбыла из проекта. Также перед Милой Кунис на эту роль пробовалась Руни Мара.
    Ондра Зелари рассматривался на роль в этом фильме.
    Во время съемок съемочная группа собрала установку из шести камер (Panocam), которую разместили на вертолете. Охватываемый установкой угол составил почти 180 градусов, это позволило на стадии пост-продакшна объединить перекрывающиеся кадры и создать ощущение, что камера движется независимо от фактического пути вертолета.
    Во время подготовки к съемкам Ченнингу Татуму приходилось носить специальный загубник, чтобы изменить форму нижней челюсти. Это приспособление мешало ему закрывать рот и вызывало затруднения в те моменты, когда ему нужно было говорить.
    Первоначально выход фильма был намечен на 20 июня 2014 года, но студия решила перенести дату премьеры на февраль 2015 года, чтобы уделить больше времени процессу пост-продакшна.
    Это первый фильм Энди и Ланы Вачовски с рейтингом «PG-13».
  • На 40 минуте Влад играет в игру Dark Souls 2.
Премьера: 27 января 2015 (5 февраля 2015)
Релиз на Blu-Ray (DVD) (Россия):
14 мая 2015
Бюджет:
$176 000 000
Кассовые сборы:
$181 881 467

..
Качество: BDRip (by Ash61)
Контейнер: MKV
Формат 3D: Half OverUnder / Вертикальная анаморфная стереопара
Порядок ракурсов: левый ракурс первый
Видео: AVC / 23,976 fps / 1920х1080p / 10.7 Mbps

Аудио:
#1 - Русский / AC3 / 48 KHz / 5.1 ch / 448 Kbps (Дубляж - BD CEE)
#2 - Украинский / AC3 / 48 KHz / 2.0 ch / 192 Kbps (Дубляж - iTunes)
#3 - Английский / AC3 / 48 KHz / 5.1 ch / 640 Kbps (Original)

Субтитры (SRT):
Вшитые (softsub):
#1 - Русские Форсированные (включены по умолчанию)
#2 - Русские Полные
#3 - Украинские Форсированные
#4 - English Full (i)
#5 - English SDH (i)

Внешние (UTF-8):
#1 - Русские Форсированные (включены по умолчанию)
#2 - Украинские Форсированные
General
Unique ID : 194412532084375368434837507904158313056 (0x92427DE0BE02C373B252B31A28782A60)
Complete name : E:\JupiterAscending(2015)3D-halfOU(Ash61)\JupiterAscending(2015)3D-halfOU(Ash61).mkv
Format : Matroska
Format version : Version 2
File size : 10.9 GiB
Duration : 2h 7mn
Overall bit rate : 12.2 Mbps
Movie name : Восхождение Юпитер / Jupiter Ascending (2015) 3D
Encoded date : UTC 2015-05-09 14:21:55
Writing application : mkvmerge v5.8.0 ('No Sleep / Pillow') built on Sep 2 2012 15:37:04
Writing library : libebml v1.2.3 + libmatroska v1.3.0

Video
ID : 1
Format : AVC
Format/Info : Advanced Video Codec
Format profile : High@L4.1
Format settings, CABAC : Yes
Format settings, ReFrames : 4 frames
Codec ID : V_MPEG4/ISO/AVC
Duration : 2h 7mn
Bit rate : 10.7 Mbps
Width : 1 920 pixels
Height : 1 080 pixels
Display aspect ratio : 16:9
Frame rate mode : Constant
Frame rate : 23.976 fps
Color space : YUV
Chroma subsampling : 4:2:0
Bit depth : 8 bits
Scan type : Progressive
Bits/(Pixel*Frame) : 0.215
Stream size : 9.50 GiB (88%)
Title : BDRip by Ash61
Writing library : x264 core 138 r2358 9e941d1
Encoding settings : cabac=1 / ref=4 / deblock=1:-3:-3 / analyse=0x3:0x113 / me=umh / subme=10 / psy=1 / psy_rd=1.00:0.00 / mixed_ref=1 / me_range=32 / chroma_me=1 / trellis=2 / 8x8dct=1 / cqm=0 / deadzone=21,11 / fast_pskip=1 / chroma_qp_offset=-2 / threads=12 / lookahead_threads=3 / sliced_threads=0 / nr=0 / decimate=1 / interlaced=0 / bluray_compat=0 / constrained_intra=0 / bframes=11 / b_pyramid=2 / b_adapt=2 / b_bias=0 / direct=3 / weightb=1 / open_gop=0 / weightp=2 / keyint=250 / keyint_min=23 / scenecut=40 / intra_refresh=0 / rc_lookahead=60 / rc=crf / mbtree=1 / crf=15.0 / qcomp=0.70 / qpmin=10 / qpmax=51 / qpstep=4 / vbv_maxrate=40000 / vbv_bufsize=30000 / crf_max=0.0 / nal_hrd=none / frame-packing=4 / ip_ratio=1.40 / aq=1:0.70
Language : English
Default : Yes
Forced : No

Audio #1
ID : 2
Format : AC-3
Format/Info : Audio Coding 3
Mode extension : CM (complete main)
Format settings, Endianness : Big
Codec ID : A_AC3
Duration : 2h 7mn
Bit rate mode : Constant
Bit rate : 448 Kbps
Channel(s) : 6 channels
Channel positions : Front: L C R, Side: L R, LFE
Sampling rate : 48.0 KHz
Bit depth : 16 bits
Compression mode : Lossy
Stream size : 409 MiB (4%)
Title : Дубляж - BD CEE
Language : Russian
Default : Yes
Forced : No

Audio #2
ID : 3
Format : AC-3
Format/Info : Audio Coding 3
Mode extension : CM (complete main)
Format settings, Endianness : Big
Codec ID : A_AC3
Duration : 2h 7mn
Bit rate mode : Constant
Bit rate : 192 Kbps
Channel(s) : 2 channels
Channel positions : Front: L R
Sampling rate : 48.0 KHz
Bit depth : 16 bits
Compression mode : Lossy
Stream size : 175 MiB (2%)
Title : Дубляж - iTunes (нормализованный)
Language : Ukrainian
Default : No
Forced : No

Audio #3
ID : 4
Format : AC-3
Format/Info : Audio Coding 3
Mode extension : CM (complete main)
Format settings, Endianness : Big
Codec ID : A_AC3
Duration : 2h 7mn
Bit rate mode : Constant
Bit rate : 640 Kbps
Channel(s) : 6 channels
Channel positions : Front: L C R, Side: L R, LFE
Sampling rate : 48.0 KHz
Bit depth : 16 bits
Compression mode : Lossy
Stream size : 584 MiB (5%)
Title : Original
Language : English
Default : No
Forced : No

Text #1
ID : 5
Format : UTF-8
Codec ID : S_TEXT/UTF8
Codec ID/Info : UTF-8 Plain Text
Title : Форсированные (iTunes)
Language : Russian
Default : Yes
Forced : No

Text #2
ID : 6
Format : UTF-8
Codec ID : S_TEXT/UTF8
Codec ID/Info : UTF-8 Plain Text
Title : Полные (iTunes)
Language : Russian
Default : No
Forced : No

Text #3
ID : 7
Format : UTF-8
Codec ID : S_TEXT/UTF8
Codec ID/Info : UTF-8 Plain Text
Title : Форсированные (iTunes)
Language : Ukrainian
Default : No
Forced : No

Text #4
ID : 8
Format : UTF-8
Codec ID : S_TEXT/UTF8
Codec ID/Info : UTF-8 Plain Text
Title : Full (i)
Language : English
Default : No
Forced : No

Text #5
ID : 9
Format : UTF-8
Codec ID : S_TEXT/UTF8
Codec ID/Info : UTF-8 Plain Text
Title : SDH (i)
Language : English
Default : No
Forced : No

Menu
00:00:00.000 : :1
00:08:45.024 : :2
00:19:31.170 : :3
00:31:32.974 : :4
00:41:42.542 : :5
00:49:35.639 : :6
00:58:29.631 : :7
01:09:20.031 : :8
01:19:07.201 : :9
01:29:09.427 : :10
01:36:08.513 : :11
01:43:26.575 : :12
01:52:58.772 : :13
01:57:59.489 : :14














Правила, инструкции, FAQ!!!
Торрент  Добавлен [30 июн 2015, 00:45] Скачать торрент Магнет ссылка
Скачать торрент
55.07 КБ

Статус
Проверен 
 
Размер  10.86 ГБ
Приватный: Нет (DHT включён)
.torrent скачан  176
Как залить торрент? | Как скачать Torrent? | Как смотреть и слушать онлайн?  
Гость
 



Вернуться в HD-Video в 3D

Кто сейчас на конференции

Сейчас этот форум просматривают: нет зарегистрированных пользователей и гости: 0