Bon Jovi - Discography (1984-2007) [FLAC, APE|~1000Kbps]<Rock>


Статистика раздачи
Размер: 13.64 ГБ | Добавлен: 10 фев 2016, 22:36 | Скачали: 7
Сидеров: 117  [0 байт/сек]    Личеров: 57  [0 байт/сек]

Сообщение Гость » 21 июл 2014, 08:39

Bon Jovi - Discography

(1980-2007)



Год: 1984-2007
Жанр: Hard-Rock
Кодек: FLAC, APE
Битрейт: ~1000 Kbps
Продолжительность: 33:53:18

Дискография
Продолжительность: 00:38:16
Кодек: APE
Треклист:
01 - Runaway
02 - Roulette
03 - She Don't Know Me
04 - Shot Through the Heart
05 - Love Lies
06 - Breakout
07 - Burning For Love
08 - Come Back
09 - Get Ready
Отчёт EAC об извлечении, выполненном 15. марта 2007, 10:09 для диска:
Bon Jovi / Bon Jovi

Дисковод: SONY DVD-ROM DDU1621 Adapter: 0 ID: 1
Режим чтения: Достоверный (C2: нет, Точный поток: да, Отключение кэша: да)
Комбинированное смещение чтения/записи: 0
Способность читать области Lead-in и Lead-out : Нет

Выходной формат: Внутренние WAV-операции
44.100 Гц; 16 бит; стерео

Другие параметры:
Заполнение пропущенных сэмплов тишиной : Да
Удаление блоков с тишиной в начале и конце : Нет
Установленный внешний ASPI-интерфейс

Характеристики диапазона извлечения и сообщения об ошибках
Выбранный диапазон
Имя файла H:\Bon Jovi Lossless\Bon Jovi - Bon Jovi.wav

Пиковый уровень 96.4 %
Качество диапазона 100.0 %
CRC EC244B52
Копирование... OK

Ошибок не произошло

Конец отчёта
#777Продолжительность: 00:47:00
Кодек: APE
Треклист:
01 - In And Out of Love
02 - The Price of Love
03 - Only Lonely
04 - King of the Mountain
05 - Silent Night
06 - Tokyo Road
07 - The Hardest Part is the Night
08 - Always Run to You
09 - To the Fire
10 - Secret Dreams
Отчёт EAC об извлечении, выполненном 15. марта 2007, 21:27 для диска:
Bon Jovi / 7800° Fahrenheit

Дисковод: SONY DVD-ROM DDU1621 Adapter: 0 ID: 1
Режим чтения: Достоверный (C2: нет, Точный поток: да, Отключение кэша: да)
Комбинированное смещение чтения/записи: 0
Способность читать области Lead-in и Lead-out : Нет

Выходной формат: Внутренние WAV-операции
44.100 Гц; 16 бит; стерео

Другие параметры:
Заполнение пропущенных сэмплов тишиной : Да
Удаление блоков с тишиной в начале и конце : Нет
Установленный внешний ASPI-интерфейс

Характеристики диапазона извлечения и сообщения об ошибках
Выбранный диапазон
Имя файла H:\Bon Jovi Lossless\1985 - Bon Jovi - 7800' Fahrenheit\Bon Jovi - 7800° Fahrenheit.wav

Пиковый уровень 98.0 %
Качество диапазона 99.9 %
CRC 8E669EE3
Копирование... OK

Ошибок не произошло

Конец отчёта
#777Продолжительность: 00:44:02
Кодек: APE
Треклист:
01 - Let It Rock
02 - You Give Love a Bad Name
03 - Livin' On a Prayer
04 - Social Disease
05 - Wanted Dead Or Alive
06 - Raise Your Hands
07 - Without Love
08 - I'd Die For You
09 - Never Say Goodbye
10 - Wild In the Streets
Отчёт EAC об извлечении, выполненном 15. марта 2007, 14:45 для диска:
Bon Jovi / Slippery When Wet

Дисковод: SONY DVD-ROM DDU1621 Adapter: 0 ID: 1
Режим чтения: Достоверный (C2: нет, Точный поток: да, Отключение кэша: да)
Комбинированное смещение чтения/записи: 0
Способность читать области Lead-in и Lead-out : Нет

Выходной формат: Внутренние WAV-операции
44.100 Гц; 16 бит; стерео

Другие параметры:
Заполнение пропущенных сэмплов тишиной : Да
Удаление блоков с тишиной в начале и конце : Нет
Установленный внешний ASPI-интерфейс

Характеристики диапазона извлечения и сообщения об ошибках
Выбранный диапазон
Имя файла H:\Bon Jovi Lossless\1986 - Bon Jovi - Slippery when wet\Bon Jovi - Slippery When Wet.wav

Пиковый уровень 95.5 %
Качество диапазона 99.9 %
CRC 0CD71F13
Копирование... OK

Ошибок не произошло

Конец отчёта
#777Продолжительность: 00:43:46
Кодек: APE
Треклист:
01 - Let It Rock
02 - You Give Love A Bad Name
03 - Livin' On A Prayer
04 - Social Disease
05 - Wanted Dead Or Alive
06 - Raise Your Hands
07 - Without Love
08 - I'd Die For You
09 - Never Say Goodbye
10 - Wild In The Streets
Exact Audio Copy V0.99 prebeta 4 from 23. January 2008
EAC extraction logfile from 6. March 2008, 1:44
Bon Jovi / Slippery When Wet (Digitally Remastered)
Used drive : PLEXTOR DVDR PX-760A Adapter: 1 ID: 1
Read mode : Secure
Utilize accurate stream : Yes
Defeat audio cache : Yes
Make use of C2 pointers : No
Read offset correction : 30
Overread into Lead-In and Lead-Out : No
Fill up missing offset samples with silence : Yes
Delete leading and trailing silent blocks : No
Null samples used in CRC calculations : No
Used interface : Installed external ASPI interface
Used output format : Monkey's Audio Lossless Encoder v3.99 DLL
Sample format : High Lossless Compression
TOC of the extracted CD
Track | Start | Length | Start sector | End sector
---------------------------------------------------------
1 | 0:00.00 | 5:25.37 | 0 | 24411
2 | 5:25.37 | 3:42.53 | 24412 | 41114
3 | 9:08.15 | 4:09.22 | 41115 | 59811
4 | 13:17.37 | 4:18.15 | 59812 | 79176
5 | 17:35.52 | 5:08.50 | 79177 | 102326
6 | 22:44.27 | 4:16.55 | 102327 | 121581
7 | 27:01.07 | 3:30.60 | 121582 | 137391
8 | 30:31.67 | 4:30.40 | 137392 | 157681
9 | 35:02.32 | 4:48.70 | 157682 | 179351
10 | 39:51.27 | 3:54.28 | 179352 | 196929
Range status and errors
Selected range
Filename C:\Bon Jovi - Slippery When Wet (Digitally Remastered).ape
Peak level 100.0 %
Range quality 100.0 %
Copy CRC 63844F11
Copy OK
No errors occurred
AccurateRip summary
Track 1 cannot be verified as accurate (confidence 25) [7557AE29], AccurateRip returned [09404F19]
Track 2 cannot be verified as accurate (confidence 23) [15EB6785], AccurateRip returned [4706DC54]
Track 3 cannot be verified as accurate (confidence 22) [BF7867A5], AccurateRip returned [E71CAEED]
Track 4 cannot be verified as accurate (confidence 25) [CF36F11C], AccurateRip returned [94BEAFFF]
Track 5 cannot be verified as accurate (confidence 25) [075D7E18], AccurateRip returned [196689F8]
Track 6 cannot be verified as accurate (confidence 25) [3397FF0B], AccurateRip returned [8E71E4D1]
Track 7 cannot be verified as accurate (confidence 25) [8A3458AE], AccurateRip returned [EB047977]
Track 8 cannot be verified as accurate (confidence 25) [41FD02E8], AccurateRip returned [AD211390]
Track 9 cannot be verified as accurate (confidence 26) [FA6DBB2D], AccurateRip returned [7A105236]
Track 10 cannot be verified as accurate (confidence 25) [0D802E1C], AccurateRip returned [49CDDFB6]
No tracks could be verified as accurate
You may have a different pressing from the one(s) in the database
End of status report
#777Продолжительность: 0:57:35
Кодек: APE
Треклист:
01- Lay Your Hands On Me
02 - Bad Medicine
03 - Born To Be My Baby
04 - Living In Sin
05 - Blood On Blood
06 - Homebound Train
07 - Wild Is The Wind
08 - Ride Cowboy Ride
09 - Stick To Your Guns
10 - I'll Be There For You
11 - 99 In The Shade
12 - Love For Sale
Exact Audio Copy V0.99 prebeta 4 from 23. January 2008
EAC extraction logfile from 6. March 2008, 1:44
Bon Jovi / Slippery When Wet (Digitally Remastered)
Used drive : PLEXTOR DVDR PX-760A Adapter: 1 ID: 1
Read mode : Secure
Utilize accurate stream : Yes
Defeat audio cache : Yes
Make use of C2 pointers : No
Read offset correction : 30
Overread into Lead-In and Lead-Out : No
Fill up missing offset samples with silence : Yes
Delete leading and trailing silent blocks : No
Null samples used in CRC calculations : No
Used interface : Installed external ASPI interface
Used output format : Monkey's Audio Lossless Encoder v3.99 DLL
Sample format : High Lossless Compression
TOC of the extracted CD
Track | Start | Length | Start sector | End sector
---------------------------------------------------------
1 | 0:00.00 | 5:25.37 | 0 | 24411
2 | 5:25.37 | 3:42.53 | 24412 | 41114
3 | 9:08.15 | 4:09.22 | 41115 | 59811
4 | 13:17.37 | 4:18.15 | 59812 | 79176
5 | 17:35.52 | 5:08.50 | 79177 | 102326
6 | 22:44.27 | 4:16.55 | 102327 | 121581
7 | 27:01.07 | 3:30.60 | 121582 | 137391
8 | 30:31.67 | 4:30.40 | 137392 | 157681
9 | 35:02.32 | 4:48.70 | 157682 | 179351
10 | 39:51.27 | 3:54.28 | 179352 | 196929
Range status and errors
Selected range
Filename C:\Bon Jovi - Slippery When Wet (Digitally Remastered).ape
Peak level 100.0 %
Range quality 100.0 %
Copy CRC 63844F11
Copy OK
No errors occurred
AccurateRip summary
Track 1 cannot be verified as accurate (confidence 25) [7557AE29], AccurateRip returned [09404F19]
Track 2 cannot be verified as accurate (confidence 23) [15EB6785], AccurateRip returned [4706DC54]
Track 3 cannot be verified as accurate (confidence 22) [BF7867A5], AccurateRip returned [E71CAEED]
Track 4 cannot be verified as accurate (confidence 25) [CF36F11C], AccurateRip returned [94BEAFFF]
Track 5 cannot be verified as accurate (confidence 25) [075D7E18], AccurateRip returned [196689F8]
Track 6 cannot be verified as accurate (confidence 25) [3397FF0B], AccurateRip returned [8E71E4D1]
Track 7 cannot be verified as accurate (confidence 25) [8A3458AE], AccurateRip returned [EB047977]
Track 8 cannot be verified as accurate (confidence 25) [41FD02E8], AccurateRip returned [AD211390]
Track 9 cannot be verified as accurate (confidence 26) [FA6DBB2D], AccurateRip returned [7A105236]
Track 10 cannot be verified as accurate (confidence 25) [0D802E1C], AccurateRip returned [49CDDFB6]
No tracks could be verified as accurate
You may have a different pressing from the one(s) in the database
End of status report
#777Продолжительность: 00:57:36
Кодек: APE
Треклист:
01- Lay Your Hands On Me
02 - Bad Medicine
03 - Born To Be My Baby
04 - Living In Sin
05 - Blood On Blood
06 - Homebound Train
07 - Wild Is The Wind
08 - Ride Cowboy Ride
09 - Stick To Your Guns
10 - I'll Be There For You
11 - 99 In The Shade
12 - Love For Sale
.
.
.
.
#777Продолжительность: 01:11:09
Кодек: FLAC
Треклист:
01 - I Believe
02 - Keep The Faith
03 - I'll Sleep When I'm Dead
04 - In These Arms
05 - Bed of Roses
06 - If I Was Your Mother
07 - Dry County
08 - Woman In Love
09 - Fear
10 - I Want You
11 - Blame It On The Love Of Rock & Roll
12 - Little Bit Of Soul
13 - Save A Prayer
Exact Audio Copy V0.99 prebeta 3 from 28. July 2007

EAC extraction logfile from 15. January 2008, 0:51

Bon Jovi / Keep The Faith

Used drive : ASUS DVD-E616P3H Adapter: 3 ID: 1

Read mode : Secure
Utilize accurate stream : Yes
Defeat audio cache : Yes
Make use of C2 pointers : No

Read offset correction : 738
Overread into Lead-In and Lead-Out : No
Fill up missing offset samples with silence : Yes
Delete leading and trailing silent blocks : No
Null samples used in CRC calculations : Yes
Used interface : Native Win32 interface for Win NT & 2000
Gap handling : Appended to previous track

Used output format : User Defined Encoder
Selected bitrate : 320 kBit/s
Quality : High
Add ID3 tag : No
Command line compressor : D:\Programme\Exact Audio Copy\Flac\flac.exe
Additional command line options : -5 -T "Artist=%a" -T "Title=%t" -T "Album=%g" -T "Date=%y" -T "Tracknumber=%n" -T "Genre=%m" %s -o %d

TOC of the extracted CD

Track | Start | Length | Start sector | End sector
---------------------------------------------------------
1 | 0:00.00 | 5:48.20 | 0 | 26119
2 | 5:48.20 | 5:46.40 | 26120 | 52109
3 | 11:34.60 | 4:43.10 | 52110 | 73344
4 | 16:17.70 | 5:19.17 | 73345 | 97286
5 | 21:37.12 | 6:34.30 | 97287 | 126866
6 | 28:11.42 | 4:27.28 | 126867 | 146919
7 | 32:38.70 | 9:52.02 | 146920 | 191321
8 | 42:30.72 | 3:48.38 | 191322 | 208459
9 | 46:19.35 | 3:06.52 | 208460 | 222461
10 | 49:26.12 | 5:36.63 | 222462 | 247724
11 | 55:03.00 | 4:24.42 | 247725 | 267566
12 | 59:27.42 | 5:45.63 | 267567 | 293504
13 | 65:13.30 | 5:55.50 | 293505 | 320179

Track 1

Filename Bon Jovi - Keep The Faith - 01 - I Believe.wav

Pre-gap length 0:00:02.00

Peak level 100.0 %
Track quality 100.0 %
Test CRC 09078784
Copy CRC 09078784
Track not present in AccurateRip database
Copy OK

Track 2

Filename Bon Jovi - Keep The Faith - 02 - Keep The Faith.wav

Peak level 100.0 %
Track quality 100.0 %
Test CRC FE1E4749
Copy CRC FE1E4749
Cannot be verified as accurate (confidence 1) [A50BEBC2], AccurateRip returned [842DCE61]
Copy OK

Track 3

Filename Bon Jovi - Keep The Faith - 03 - I'll Sleep When I'm Dead.wav

Pre-gap length 0:00:01.20

Peak level 100.0 %
Track quality 100.0 %
Test CRC 02257F4C
Copy CRC 02257F4C
Cannot be verified as accurate (confidence 1) [9FE994AD], AccurateRip returned [EB0B4AB9]
Copy OK

Track 4

Filename Bon Jovi - Keep The Faith - 04 - In These Arms.wav

Peak level 100.0 %
Track quality 100.0 %
Test CRC 296D265E
Copy CRC 296D265E
Track not present in AccurateRip database
Copy OK

Track 5

Filename Bon Jovi - Keep The Faith - 05 - Bed Of Roses.wav

Peak level 100.0 %
Track quality 100.0 %
Test CRC 63D494B6
Copy CRC 63D494B6
Cannot be verified as accurate (confidence 1) [3461254A], AccurateRip returned [C04580B3]
Copy OK

Track 6

Filename Bon Jovi - Keep The Faith - 06 - If I Was Your Mother.wav

Peak level 100.0 %
Track quality 100.0 %
Test CRC 541C9472
Copy CRC 541C9472
Track not present in AccurateRip database
Copy OK

Track 7

Filename Bon Jovi - Keep The Faith - 07 - Dry County.wav

Pre-gap length 0:00:01.33

Peak level 100.0 %
Track quality 100.0 %
Test CRC 651D3EA5
Copy CRC 651D3EA5
Cannot be verified as accurate (confidence 1) [5A1F9E33], AccurateRip returned [3D7915D8]
Copy OK

Track 8

Filename Bon Jovi - Keep The Faith - 08 - Woman In Love.wav

Peak level 100.0 %
Track quality 100.0 %
Test CRC E94769EB
Copy CRC E94769EB
Track not present in AccurateRip database
Copy OK

Track 9

Filename Bon Jovi - Keep The Faith - 09 - Fear.wav

Peak level 100.0 %
Track quality 100.0 %
Test CRC 1F8E0C2F
Copy CRC 1F8E0C2F
Track not present in AccurateRip database
Copy OK

Track 10

Filename Bon Jovi - Keep The Faith - 10 - I Want You.wav

Pre-gap length 0:00:01.25

Peak level 100.0 %
Track quality 100.0 %
Test CRC 828ED41C
Copy CRC 828ED41C
Track not present in AccurateRip database
Copy OK

Track 11

Filename Bon Jovi - Keep The Faith - 11 - Blame It On The Love Of Rock & Roll.wav

Pre-gap length 0:00:01.43

Peak level 100.0 %
Track quality 100.0 %
Test CRC 8463BE99
Copy CRC 8463BE99
Track not present in AccurateRip database
Copy OK

Track 12

Filename Bon Jovi - Keep The Faith - 12 - Little Bit Of Soul.wav

Pre-gap length 0:00:03.05

Peak level 100.0 %
Track quality 100.0 %
Test CRC 218AE309
Copy CRC 218AE309
Track not present in AccurateRip database
Copy OK

Track 13

Filename Bon Jovi - Keep The Faith - 13 - Save A Prayer.wav

Pre-gap length 0:00:01.58

Peak level 100.0 %
Track quality 99.9 %
Test CRC E3C8F003
Copy CRC E3C8F003
Cannot be verified as accurate (confidence 1) [49928501], AccurateRip returned [FAD829D7]
Copy OK

5 track(s) could not be verified as accurate
8 track(s) not present in the AccurateRip database

No tracks could be verified as accurate
You may have a different pressing from the one(s) in the database

No errors occurred

End of status report
#777Продолжительность: 01:05:15
Кодек: FLAC
Треклист:
01 - I Believe
02 - Keep The Faith
03 - I'll Sleep When I'm Dead
04 - In These Arms
05 - Bed of Roses
06 - If I Was Your Mother
07 - Dry County
08 - Woman In Love
09 - Fear
10 - I Want You
11 - Blame It On The Love Of Rock & Roll
12 - Little Bit Of Soul
EAC extraction logfile from 9. February 2007, 16:49 for CD
Bon Jovi / Keep The Faith

Used drive : _NEC DVD_RW ND-3500AG Adapter: 0 ID: 1
Read mode : Secure with NO C2, accurate stream, disable cache
Read offset correction : 48
Overread into Lead-In and Lead-Out : No

Used output format : C:\Program Files\FLAC\bin\flac.exe (User Defined Encoder)
192 kBit/s
Additional command line options : -8 -V -T "ARTIST=%a" -T "TITLE=%t" -T "ALBUM=%g" -T "DATE=%y" -T "TRACKNUMBER=%n" -T "GENRE=%m" -T "COMMENT=EAC Flac 1.1.3 -5" %s

Other options :
Fill up missing offset samples with silence : Yes
Delete leading and trailing silent blocks : No
Installed external ASPI interface

Track 1
Filename L:\UPLOAD\BON JOVI\Bon Jovi - Keep The Faith (1992) [FLAC] {1999 remaster}\01 - I Believe.wav

Pre-gap length 0:00:02.00

Peak level 100.0 %
Track quality 100.0 %
Test CRC 66A667FB
Copy CRC 66A667FB
Copy OK

Track 2
Filename L:\UPLOAD\BON JOVI\Bon Jovi - Keep The Faith (1992) [FLAC] {1999 remaster}\02 - Keep The Faith.wav

Pre-gap length 0:00:00.09

Peak level 100.0 %
Track quality 100.0 %
Test CRC 32CB6B0B
Copy CRC 32CB6B0B
Copy OK

Track 3
Filename L:\UPLOAD\BON JOVI\Bon Jovi - Keep The Faith (1992) [FLAC] {1999 remaster}\03 - I'll Sleep When I'm Dead.wav

Pre-gap length 0:00:01.26

Peak level 100.0 %
Track quality 100.0 %
Test CRC 06D4BA6C
Copy CRC 06D4BA6C
Copy OK

Track 4
Filename L:\UPLOAD\BON JOVI\Bon Jovi - Keep The Faith (1992) [FLAC] {1999 remaster}\04 - In These Arms.wav

Pre-gap length 0:00:02.06

Peak level 100.0 %
Track quality 100.0 %
Test CRC A3CC35B4
Copy CRC A3CC35B4
Copy OK

Track 5
Filename L:\UPLOAD\BON JOVI\Bon Jovi - Keep The Faith (1992) [FLAC] {1999 remaster}\05 - Bed of Roses.wav

Pre-gap length 0:00:02.00

Peak level 100.0 %
Track quality 100.0 %
Test CRC BAC5F9F0
Copy CRC BAC5F9F0
Copy OK

Track 6
Filename L:\UPLOAD\BON JOVI\Bon Jovi - Keep The Faith (1992) [FLAC] {1999 remaster}\06 - If I Was Your Mother.wav

Pre-gap length 0:00:01.80

Peak level 100.0 %
Track quality 100.0 %
Test CRC 271C425B
Copy CRC 271C425B
Copy OK

Track 7
Filename L:\UPLOAD\BON JOVI\Bon Jovi - Keep The Faith (1992) [FLAC] {1999 remaster}\07 - Dry County.wav

Pre-gap length 0:00:01.44

Peak level 100.0 %
Track quality 100.0 %
Test CRC 8E185953
Copy CRC 8E185953
Copy OK

Track 8
Filename L:\UPLOAD\BON JOVI\Bon Jovi - Keep The Faith (1992) [FLAC] {1999 remaster}\08 - Woman In Love.wav

Pre-gap length 0:00:01.92

Peak level 100.0 %
Track quality 100.0 %
Test CRC 7A9A8990
Copy CRC 7A9A8990
Copy OK

Track 9
Filename L:\UPLOAD\BON JOVI\Bon Jovi - Keep The Faith (1992) [FLAC] {1999 remaster}\09 - Fear.wav

Pre-gap length 0:00:01.42

Peak level 100.0 %
Track quality 100.0 %
Test CRC 626F0149
Copy CRC 626F0149
Copy OK

Track 10
Filename L:\UPLOAD\BON JOVI\Bon Jovi - Keep The Faith (1992) [FLAC] {1999 remaster}\10 - I Want You.wav

Pre-gap length 0:00:01.33

Peak level 100.0 %
Track quality 100.0 %
Test CRC 77F1E35A
Copy CRC 77F1E35A
Copy OK

Track 11
Filename L:\UPLOAD\BON JOVI\Bon Jovi - Keep The Faith (1992) [FLAC] {1999 remaster}\11 - Blame It On The Love Of Rock & Roll.wav

Pre-gap length 0:00:01.57

Peak level 100.0 %
Track quality 100.0 %
Test CRC 73442F8C
Copy CRC 73442F8C
Copy OK

Track 12
Filename L:\UPLOAD\BON JOVI\Bon Jovi - Keep The Faith (1992) [FLAC] {1999 remaster}\12 - Little Bit Of Soul.wav

Pre-gap length 0:00:03.06

Peak level 100.0 %
Track quality 100.0 %
Test CRC 72BE5AD5
Copy CRC 72BE5AD5
Copy OK

No errors occured

End of status report
#777Продолжительность: 01:03:48
Кодек: FLAC
Треклист:
01 - Hey God
02 - Something For The Rain
03 - The Ain't A Love Song
04 - These Days
05 - Lie To Me
06 - Damned
07 - My Guitar Lies Bleeding In My Arms
08 - (It's Hard) Letting You Go
09 - Heart Breaking Even
10 - Something To Believe In
11 - If That's What It Takes
12 - Diamond Ring
EAC extraction logfile from 1. March 2007, 18:18 for CD
Bon Jovi / These Days
Used drive : SONY DVD RW DRU-830A Adapter: 1 ID: 1
Read mode : Secure with NO C2, accurate stream, disable cache
Read offset correction : 12
Overread into Lead-In and Lead-Out : No
Used output format : C:\Program Files\FLAC\flac.exe (User Defined Encoder)
128 kBit/s
Additional command line options : -V -8 -T "artist=%a" -T "title=%t" -T "album=%g" -T "date=%y" -T "tracknumber=%n" -T "genre=%m" %s
Other options :
Fill up missing offset samples with silence : Yes
Delete leading and trailing silent blocks : No
Native Win32 interface for Win NT & 2000
Track 1
Filename C:\Documents and Settings\Michael Costa\Desktop\Torrents\Bon Jovi - These Days\01 - Hey God.wav
Pre-gap length 0:00:02.00
Peak level 100.0 %
Track quality 100.0 %
Test CRC 25CFED64
Copy CRC 25CFED64
Copy OK
Track 2
Filename C:\Documents and Settings\Michael Costa\Desktop\Torrents\Bon Jovi - These Days\02 - Something For The Pain.wav
Peak level 100.0 %
Track quality 100.0 %
Test CRC C122DE69
Copy CRC C122DE69
Copy OK
Track 3
Filename C:\Documents and Settings\Michael Costa\Desktop\Torrents\Bon Jovi - These Days\03 - This Ain't A Love Song.wav
Pre-gap length 0:00:02.16
Peak level 100.0 %
Track quality 100.0 %
Test CRC B33BBE2B
Copy CRC B33BBE2B
Copy OK
Track 4
Filename C:\Documents and Settings\Michael Costa\Desktop\Torrents\Bon Jovi - These Days\04 - These Days.wav
Peak level 100.0 %
Track quality 99.9 %
Test CRC 1241C9CC
Copy CRC 1241C9CC
Copy OK
Track 5
Filename C:\Documents and Settings\Michael Costa\Desktop\Torrents\Bon Jovi - These Days\05 - Lie To Me.wav
Pre-gap length 0:00:01.29
Peak level 100.0 %
Track quality 100.0 %
Test CRC 822980A4
Copy CRC 822980A4
Copy OK
Track 6
Filename C:\Documents and Settings\Michael Costa\Desktop\Torrents\Bon Jovi - These Days\06 - Damned.wav
Pre-gap length 0:00:01.37
Peak level 100.0 %
Track quality 99.5 %
Test CRC 9119EA5F
Copy CRC B4524140
Copy OK
Track 7
Filename C:\Documents and Settings\Michael Costa\Desktop\Torrents\Bon Jovi - These Days\07 - My Guitar Lies Bleeding In Your Arms.wav
Peak level 100.0 %
Track quality 99.9 %
Test CRC B6C52D9C
Copy CRC B6C52D9C
Copy OK
Track 8
Filename C:\Documents and Settings\Michael Costa\Desktop\Torrents\Bon Jovi - These Days\08 - (It's Hard) Letting You Go.wav
Peak level 100.0 %
Track quality 100.0 %
Test CRC 1D509C81
Copy CRC 1D509C81
Copy OK
Track 9
Filename C:\Documents and Settings\Michael Costa\Desktop\Torrents\Bon Jovi - These Days\09 - Hearts Breaking Even.wav
Pre-gap length 0:00:01.22
Peak level 100.0 %

Track quality 100.0 %
Test CRC 63865C97
Copy CRC 63865C97
Copy OK
Track 10
Filename C:\Documents and Settings\Michael Costa\Desktop\Torrents\Bon Jovi - These Days\10 - Something To Believe In.wav
Pre-gap length 0:00:01.57
Peak level 100.0 %
Track quality 100.0 %
Test CRC 07766897
Copy CRC 07766897
Copy OK
Track 11
Filename C:\Documents and Settings\Michael Costa\Desktop\Torrents\Bon Jovi - These Days\11 - If That's What It Takes.wav
Peak level 100.0 %
Track quality 100.0 %
Test CRC 8C217841
Copy CRC 8C217841
Copy OK
Track 12
Filename C:\Documents and Settings\Michael Costa\Desktop\Torrents\Bon Jovi - These Days\12 - Diamond Ring.wav
Peak level 100.0 %
Track quality 99.7 %
Test CRC BE08C13C
Copy CRC 8FB0CC5F
Copy OK
No errors occured
End of status report
#777Продолжительность: 01:13:43
Кодек: APE
Треклист:
01 - Hey God
02 - Something For The Rain
03 - The Ain't A Love Song
04 - These Days
05 - Lie To Me
06 - Damned
07 - My Guitar Lies Bleeding In My Arms
08 - (It's Hard) Letting You Go
09 - Heart Breaking Even
10 - Something To Believe In
11 - If That's What It Takes
12 - Diamond Ring
13 - All I Want Is Everything
14 - Bitter Wine
Exact Audio Copy V0.99 prebeta 4 from 23. January 2008
Отчёт EAC об извлечении, выполненном 30. мая 2008, 10:38
Bon Jovi / These Days
Дисковод: Optiarc DVD RW AD-5170A Adapter: 3 ID: 0
Режим чтения : Достоверность
Использование точного потока : Да
Отключение кэша аудио : Да
Использование указателей C2 : Нет
Коррекция смещения при чтении : 48
Способность читать области Lead-in и Lead-out : Да
Заполнение пропущенных сэмплов тишиной : Да
Удаление блоков с тишиной в начале и конце : Нет
При вычислениях CRC использовались нулевые сэмплы : Нет
Интерфейс : Установленный внешний ASPI-интерфейс
Выходной формат : Внутренние WAV-операции
Формат сэмплов : 44.100 Гц; 16 бит; стерео
TOC извлечённого CD
Трек | Старт | Длительность | Начальный сектор | Конечный сектор
---------------------------------------------------------------------
1 | 0:00.00 | 6:10.52 | 0 | 27801
2 | 6:10.52 | 4:48.28 | 27802 | 49429
3 | 10:59.05 | 5:07.07 | 49430 | 72461
4 | 16:06.12 | 6:27.73 | 72462 | 101559
5 | 22:34.10 | 5:34.20 | 101560 | 126629
6 | 28:08.30 | 4:33.42 | 126630 | 147146
7 | 32:41.72 | 5:41.68 | 147147 | 172789
8 | 38:23.65 | 5:51.42 | 172790 | 199156
9 | 44:15.32 | 5:06.30 | 199157 | 222136
10 | 49:21.62 | 5:25.63 | 222137 | 246574
11 | 54:47.50 | 5:17.02 | 246575 | 270351
12 | 60:04.52 | 3:47.60 | 270352 | 287436
13 | 63:52.37 | 5:16.18 | 287437 | 311154
14 | 69:08.55 | 4:34.28 | 311155 | 331732
Характеристики диапазона извлечения и сообщения об ошибках
Выбранный диапазон
Имя файла E:\Серега\Bon Jove 2005\Bon Jovi - These Days.wav
Пиковый уровень 97.7 %
Качество диапазона 99.9 %
CRC копии 8FF85AD1
Копирование... OK
Ошибок не произошло
Конец отчёта
#777Продолжительность: 01:02:34
Кодек: APE
Треклист:
01 - It's My Life
02 - Say It Isn't So
03 - Thank You For Loving Me
04 - Two Story Town
05 - Next 100 Years
06 - Just Older
07 - Mystery Train
08 - Save The World
09 - Captain Crash & The Beauty Queen From Mars
10 - She's A Mystery
11 - I Got The Girl
12 - One Wild Night
13 - I Could Make A Living Out Of Lovin' You
Отчёт EAC об извлечении, выполненном 15. марта 2007, 21:10 для диска:
Bon Jovi / Crush

Дисковод: SONY DVD-ROM DDU1621 Adapter: 0 ID: 1
Режим чтения: Достоверный (C2: нет, Точный поток: да, Отключение кэша: да)
Комбинированное смещение чтения/записи: 0
Способность читать области Lead-in и Lead-out : Нет

Выходной формат: Внутренние WAV-операции
44.100 Гц; 16 бит; стерео

Другие параметры:
Заполнение пропущенных сэмплов тишиной : Да
Удаление блоков с тишиной в начале и конце : Нет
Установленный внешний ASPI-интерфейс

Характеристики диапазона извлечения и сообщения об ошибках
Выбранный диапазон
Имя файла H:\Bon Jovi Lossless\2000 - Bon Jovi - Crash\Bon Jovi - Crush.wav

Пиковый уровень 100.0 %
Качество диапазона 100.0 %
CRC A64F96F7
Копирование... OK

Ошибок не произошло

Конец отчёта
#777Продолжительность: 00:49:06
Кодек: APE
Треклист:
01 - Undivided
02 - Everyday
03 - The Distance
04 - Joey
05 - Misunderstood
06 - All About Lovin' You
07 - Hook Me Up
08 - Right Side Of Wrong
09 - Love Me Back To Life
10 - You Had Me From Hello
11 - Bounce
12 - Open All Night
Отчёт EAC об извлечении, выполненном 15. марта 2007, 14:10 для диска:
Bon Jovi / Bounce

Дисковод: SONY DVD-ROM DDU1621 Adapter: 0 ID: 1
Режим чтения: Достоверный (C2: нет, Точный поток: да, Отключение кэша: да)
Комбинированное смещение чтения/записи: 0
Способность читать области Lead-in и Lead-out : Нет

Выходной формат: Внутренние WAV-операции
44.100 Гц; 16 бит; стерео

Другие параметры:
Заполнение пропущенных сэмплов тишиной : Да
Удаление блоков с тишиной в начале и конце : Нет
Установленный внешний ASPI-интерфейс

Характеристики диапазона извлечения и сообщения об ошибках
Выбранный диапазон
Имя файла H:\Bon Jovi Lossless\2002 - Bon Jovi - Bounce\Bon Jovi - Bounce.wav

Пиковый уровень 100.0 %
Качество диапазона 100.0 %
CRC 8A463779
Копирование... OK

Ошибок не произошло

Конец отчёта
#777Продолжительность: 00:53:33
Кодек: FLAC
Треклист:
01 - Have A Nice Day
02 - I Want To Be Loved
03 - Welcome To Wherever You Are
04 - Who Says You Can't Go Home
05 - Last Man Standing
06 - Bells Of Freedom
07 - Wildflower
08 - Last Cigarette
09 - I Am
10 - Complicated
11 - Novocaine
12 - Story Of My Life
13 - Dirty Little Secret (bonus track)
Exact Audio Copy V0.99 prebeta 4 from 23. January 2008
Отчёт EAC об извлечении, выполненном 11. октября 2008, 23:32
Bon Jovi / Have A Nice Day (Deluxe Limited Edition)
Дисковод: PIONEER DVD-RW DVR-K17RS Adapter: 1 ID: 0
Режим чтения : Достоверность
Использование точного потока : Да
Отключение кэша аудио : Да
Использование указателей C2 : Нет
Коррекция смещения при чтении : 48
Способность читать области Lead-in и Lead-out : Нет
Заполнение пропущенных сэмплов тишиной : Да
Удаление блоков с тишиной в начале и конце : Нет
При вычислениях CRC использовались нулевые сэмплы : Нет
Интерфейс : Встроенный Win32-интерфейс для Win NT/2000
Обработка зазоров : Не обнаружено, добавлено к предыдущему треку
Выходной формат : Пользовательский кодировщик
Выбранный битрейт : 768 kBit/s
Качество : Высокий
Добавление ID3-тэга : Нет
Утилита сжатия : C:\Program Files\Exact Audio Copy\FLAC\FLAC.EXE
Дополнительные параметры : -6 -V -T "ARTIST=%a" -T "TITLE=%t" -T "ALBUM=%g" -T "DATE=%y" -T "TRACKNUMBER=%n" -T "GENRE=%m" -T "COMMENT=%e" %s -o %d
TOC извлечённого CD
Трек | Старт | Длительность | Начальный сектор | Конечный сектор
---------------------------------------------------------------------
1 | 0:00.00 | 3:48.66 | 0 | 17165
2 | 3:48.66 | 3:49.31 | 17166 | 34371
3 | 7:38.22 | 3:47.03 | 34372 | 51399
4 | 11:25.25 | 4:40.50 | 51400 | 72449
5 | 16:06.00 | 4:37.14 | 72450 | 93238
6 | 20:43.14 | 4:55.69 | 93239 | 115432
7 | 25:39.08 | 4:13.59 | 115433 | 134466
8 | 29:52.67 | 3:38.24 | 134467 | 150840
9 | 33:31.16 | 3:53.43 | 150841 | 168358
10 | 37:24.59 | 3:37.07 | 168359 | 184640
11 | 41:01.66 | 4:49.01 | 184641 | 206316
12 | 45:50.67 | 4:09.11 | 206317 | 225002
13 | 50:00.03 | 3:32.46 | 225003 | 240948
Трек 1
Имя файла D:\Bon Jovi - Have A Nice Day (2005)\Bon Jovi\Have A Nice Day (Deluxe Limited Edition)\01 01. Have A Nice Day.wav
Пиковый уровень 100.0 %
Качество трека 100.0 %
CRC копии 93DC9BB6
Точное извлечение (достоверность 4) [03F84F23]
Копирование... OK
Трек 2
Имя файла D:\Bon Jovi - Have A Nice Day (2005)\Bon Jovi\Have A Nice Day (Deluxe Limited Edition)\02 02. I Want To Be Loved.wav
Пиковый уровень 100.0 %
Качество трека 100.0 %
CRC копии 6C6336AA
Точное извлечение (достоверность 3) [A66B47F5]
Копирование... OK
Трек 3
Имя файла D:\Bon Jovi - Have A Nice Day (2005)\Bon Jovi\Have A Nice Day (Deluxe Limited Edition)\03 03. Welcome To Wherever You Are.wav
Пиковый уровень 100.0 %
Качество трека 100.0 %
CRC копии EBE9D120
Точное извлечение (достоверность 3) [D79A400B]
Копирование... OK
Трек 4
Имя файла D:\Bon Jovi - Have A Nice Day (2005)\Bon Jovi\Have A Nice Day (Deluxe Limited Edition)\04 04. Who Says You Can't Go Home.wav
Пиковый уровень 100.0 %
Качество трека 100.0 %
CRC копии 41C094EF
Точное извлечение (достоверность 3) [7340C5EA]
Копирование... OK
Трек 5
Имя файла D:\Bon Jovi - Have A Nice Day (2005)\Bon Jovi\Have A Nice Day (Deluxe Limited Edition)\05 05. Last Man Standing.wav
Пиковый уровень 100.0 %
Качество трека 100.0 %
CRC копии 7D4422E5
Точное извлечение (достоверность 3) [FB0F13BA]
Копирование... OK
Трек 6
Имя файла D:\Bon Jovi - Have A Nice Day (2005)\Bon Jovi\Have A Nice Day (Deluxe Limited Edition)\06 06. Bells Of Freedom.wav
Пиковый уровень 100.0 %
Качество трека 100.0 %
CRC копии 2C6A26DE
Точное извлечение (достоверность 2) [9E06EF2B]
Копирование... OK
Трек 7
Имя файла D:\Bon Jovi - Have A Nice Day (2005)\Bon Jovi\Have A Nice Day (Deluxe Limited Edition)\07 07. Wildflower.wav
Пиковый уровень 100.0 %
Качество трека 100.0 %
CRC копии 2A4E17CF
Точное извлечение (достоверность 2) [06AA8A1D]
Копирование... OK
Трек 8
Имя файла D:\Bon Jovi - Have A Nice Day (2005)\Bon Jovi\Have A Nice Day (Deluxe Limited Edition)\08 08. Last Cigarette.wav
Пиковый уровень 100.0 %
Качество трека 100.0 %
CRC копии 9E5107E1
Точное извлечение (достоверность 3) [C42D081C]
Копирование... OK
Трек 9
Имя файла D:\Bon Jovi - Have A Nice Day (2005)\Bon Jovi\Have A Nice Day (Deluxe Limited Edition)\09 09. I Am.wav
Пиковый уровень 100.0 %
Качество трека 100.0 %
CRC копии 8948CFD3
Точное извлечение (достоверность 3) [B26F5664]

Копирование... OK
Трек 10
Имя файла D:\Bon Jovi - Have A Nice Day (2005)\Bon Jovi\Have A Nice Day (Deluxe Limited Edition)\10 10. Complicated.wav
Пиковый уровень 100.0 %
Качество трека 100.0 %
CRC копии 3CA0B15F
Точное извлечение (достоверность 4) [85C90E6B]
Копирование... OK
Трек 11
Имя файла D:\Bon Jovi - Have A Nice Day (2005)\Bon Jovi\Have A Nice Day (Deluxe Limited Edition)\11 11. Novocaine.wav
Пиковый уровень 100.0 %
Качество трека 100.0 %
CRC копии C2AA71D6
Точное извлечение (достоверность 3) [A34027EF]
Копирование... OK
Трек 12
Имя файла D:\Bon Jovi - Have A Nice Day (2005)\Bon Jovi\Have A Nice Day (Deluxe Limited Edition)\12 12. Story Of My Life.wav
Пиковый уровень 100.0 %
Качество трека 100.0 %
CRC копии 708379AE
Точное извлечение (достоверность 3) [8585E0EB]
Копирование... OK
Трек 13
Имя файла D:\Bon Jovi - Have A Nice Day (2005)\Bon Jovi\Have A Nice Day (Deluxe Limited Edition)\13 13. Dirty Little Secret (Bonus Track).wav
Пиковый уровень 100.0 %
Качество трека 100.0 %
CRC копии C8EED37C
Точное извлечение (достоверность 2) [B84BD7EE]
Копирование... OK
Все треки извлечены точно
Ошибок не произошло
Конец отчёта
#777Продолжительность: 00:49:55
Кодек: FLAC
Треклист:
01 - Lost Highway
02 - Summertime
03 - (You Want To) Make A Memoy
04 - Whole Lot Of Leavinґ
05 - We Got It Going On
06 - Any Other Day
07 - Seat Next To You
08 - Everybodyґs Broken
09 - Till We Ainґt Strangers Anymore
10 - The Last Night
11 - One Step Closer
12 - I Love This Town
EAC extraction logfile from 13. June 2007, 16:01 for CD
Bon Jovi / Lost Highway
Used drive : PIONEER DVD RW DVR-108 Adapter: 0 ID: 0
Read mode : Secure with NO C2, accurate stream, disable cache
Read offset correction : 48
Overread into Lead-In and Lead-Out : No
Used output format : Internal WAV Routines
44.100 Hz; 16 Bit; Stereo
Use compression offset : 0
Other options :
Fill up missing offset samples with silence : Yes
Delete leading and trailing silent blocks : No
Installed external ASPI interface
Range status and errors
Selected range
Filename H:\Toasten 2\Bon Jovi - Lost Highway.wav
Peak level 99.9 %
Range quality 99.9 %
CRC 90CCCAE4
Copy OK
No errors occured
End of status report
#777Продолжительность: 00:25:41
Кодек: FLAC
Треклист:
01 - Lie To Me
02 - Something For The Pain
03 - Always (Live)
04 - Keep The Faith (Live)
Exact Audio Copy V0.99 prebeta 3 from 28. July 2007

EAC extraction logfile from 11. October 2008, 11:22

Bon Jovi / Lie To Me (Single)

Used drive : TSSTcorpCD/DVDW SH-S183L Adapter: 3 ID: 0

Read mode : Secure
Utilize accurate stream : Yes
Defeat audio cache : No
Make use of C2 pointers : Yes

Combined read/write offset correction : 0
Overread into Lead-In and Lead-Out : No
Fill up missing offset samples with silence : Yes
Delete leading and trailing silent blocks : No
Null samples used in CRC calculations : No
Used interface : Native Win32 interface for Win NT & 2000
Gap handling : Appended to previous track

Used output format : User Defined Encoder
Selected bitrate : 768 kBit/s
Quality : High
Add ID3 tag : No
Command line compressor : C:\Program Files\Exact Audio Copy\FLAC\FLAC.EXE
Additional command line options : -6 -V -T "ARTIST=%a" -T "TITLE=%t" -T "ALBUM=%g" -T "DATE=%y" -T "TRACKNUMBER=%n" -T "GENRE=%m" -T "COMMENT=%e" %s -o %d

TOC of the extracted CD

Track | Start | Length | Start sector | End sector
---------------------------------------------------------
1 | 0:00.00 | 5:32.65 | 0 | 24964
2 | 5:32.65 | 5:30.45 | 24965 | 49759
3 | 11:03.35 | 7:18.37 | 49760 | 82646
4 | 18:21.72 | 7:19.33 | 82647 | 115604

Track 1

Filename C:\01. Bon Jovi - Lie To Me.wav

Pre-gap length 0:00:02.00

Peak level 100.0 %
Track quality 100.0 %
Copy CRC 8D579713
Copy OK

Track 2

Filename C:\02. Bon Jovi - Something For The Pain.wav

Pre-gap length 0:00:00.08

Peak level 100.0 %
Track quality 100.0 %
Copy CRC 3DFFED28
Copy OK

Track 3

Filename C:\03. Bon Jovi - Always (Live).wav

Pre-gap length 0:00:00.24

Peak level 100.0 %
Track quality 100.0 %
Copy CRC 4A3BA40B
Copy OK

Track 4

Filename C:\04. Bon Jovi - Keep The Faith (Live).wav

Peak level 100.0 %
Track quality 100.0 %
Copy CRC 0AD1AECC
Copy OK

No errors occurred

End of status report
#777Продолжительность: 01:02:58
Кодек: APE
Треклист:
01 - Queen Of New Orleans
02 - Janie, Dont Take Your Love To Town
03 - Midnight In Chelsea
04 - Ugly
05 - Staring At Your Window With A Suitcase In My Hand
06 - Every Word Was A Piece Of My Heart
07 - It's Just Me
08 - Destination Anywhere
09 - Learning How To Fall
10 - Naked
11 - Little City
12 - August 7, 4:15
13 - Cold Hard Heart
Отчёт EAC об извлечении, выполненном 15. марта 2007, 22:07 для диска:
Bon Jovi / Destination Anywhere
Дисковод: SONY DVD-ROM DDU1621 Adapter: 0 ID: 1
Режим чтения: Достоверный (C2: нет, Точный поток: да, Отключение кэша: да)
Комбинированное смещение чтения/записи: 0
Способность читать области Lead-in и Lead-out : Нет
Выходной формат: Внутренние WAV-операции
44.100 Гц; 16 бит; стерео
Другие параметры:
Заполнение пропущенных сэмплов тишиной : Да
Удаление блоков с тишиной в начале и конце : Нет
Установленный внешний ASPI-интерфейс
Характеристики диапазона извлечения и сообщения об ошибках
Выбранный диапазон
Имя файла H:\Bon Jovi Lossless\1997 - John Bon Jovi - Destination anywhere\Bon Jovi - Destination Anywhere.wav
Пиковый уровень 93.3 %
Качество диапазона 100.0 %
CRC 1E4610AC
Копирование... OK
Ошибок не произошло
Конец отчёта
#777Продолжительность: 00:15:24
Кодек: FLAC
Треклист:
01 - Real Life (Radio Mix)
02 - Keep The Faith (Live)
03 - Real Life (Instrumental)
Exact Audio Copy V0.99 prebeta 3 from 28. July 2007

EAC extraction logfile from 11. October 2008, 11:06

Bon Jovi / Real Life (CD Single)

Used drive : TSSTcorpCD/DVDW SH-S183L Adapter: 3 ID: 0

Read mode : Secure
Utilize accurate stream : Yes
Defeat audio cache : No
Make use of C2 pointers : Yes

Combined read/write offset correction : 0
Overread into Lead-In and Lead-Out : No
Fill up missing offset samples with silence : Yes
Delete leading and trailing silent blocks : No
Null samples used in CRC calculations : No
Used interface : Native Win32 interface for Win NT & 2000
Gap handling : Appended to previous track

Used output format : User Defined Encoder
Selected bitrate : 768 kBit/s
Quality : High
Add ID3 tag : No
Command line compressor : C:\Program Files\Exact Audio Copy\FLAC\FLAC.EXE
Additional command line options : -6 -V -T "ARTIST=%a" -T "TITLE=%t" -T "ALBUM=%g" -T "DATE=%y" -T "TRACKNUMBER=%n" -T "GENRE=%m" -T "COMMENT=%e" %s -o %d

TOC of the extracted CD

Track | Start | Length | Start sector | End sector
---------------------------------------------------------
1 | 0:00.00 | 3:48.47 | 0 | 17146
2 | 3:48.47 | 6:39.23 | 17147 | 47094
3 | 10:27.70 | 4:57.00 | 47095 | 69369

Track 1

Filename C:\01. Bon Jovi - Real Life (Radio Mix).wav

Pre-gap length 0:00:02.00

Peak level 99.9 %
Track quality 100.0 %
Copy CRC C238311A
Copy OK

Track 2

Filename C:\02. Bon Jovi - Keep The Faith (Live).wav

Peak level 99.9 %
Track quality 100.0 %
Copy CRC FE753C54
Copy OK

Track 3

Filename C:\03. Bon Jovi - Real Life (Instrumental).wav

Pre-gap length 0:00:00.14

Peak level 99.9 %
Track quality 100.0 %
Copy CRC 07B7BC35
Copy OK

No errors occurred

End of status report
#777Продолжительность: 00:12:53
Кодек: FLAC
Треклист:
01 - (You want to) make a memory
02 - I love this town (live from the Cannery Ballroom)
03 - Put the boy back in cowboy
Exact Audio Copy V0.99 prebeta 4 from 23. January 2008

EAC extraction logfile from 10. September 2008, 23:36

Bon Jovi / (You want to) make a memory

Used drive : TSSTcorpCDW/DVD TS-H492C Adapter: 4 ID: 0

Read mode : Secure
Utilize accurate stream : Yes
Defeat audio cache : Yes
Make use of C2 pointers : No

Read offset correction : 6
Overread into Lead-In and Lead-Out : No
Fill up missing offset samples with silence : Yes
Delete leading and trailing silent blocks : No
Null samples used in CRC calculations : Yes
Used interface : Native Win32 interface for Win NT & 2000
Gap handling : Appended to previous track

Used output format : User Defined Encoder
Selected bitrate : 1024 kBit/s
Quality : High
Add ID3 tag : No
Command line compressor : C:\Documents and Settings\Owner\№ЩЕБ И­ёй\Utilities\flac-1.2.1-win\bin\flac.exe
Additional command line options : -V -8 -T "artist=%a" -T "title=%t" -T "album=%g" -T "date=%y" -T "tracknumber=%n" -T "genre=%m" %s

TOC of the extracted CD

Track | Start | Length | Start sector | End sector
---------------------------------------------------------

1 | 0:00.00 | 4:07.12 | 0 | 18536
2 | 4:07.12 | 4:47.57 | 18537 | 40118
3 | 8:54.69 | 3:59.01 | 40119 | 58044
4 | 15:25.70 | 11:32.29 | 69445 | 121373

Track 1

Filename C:\Documents and Settings\Owner\№ЩЕБ И­ёй\Ж®·ЎДї ѕч·Оµе\(You want to) make a memory\01 - (You want to) make a memory.wav

Pre-gap length 0:00:02.00

Peak level 99.9 %
Track quality 100.0 %
Test CRC 857B8B81
Copy CRC 857B8B81
Copy OK

Track 2

Filename C:\Documents and Settings\Owner\№ЩЕБ И­ёй\Ж®·ЎДї ѕч·Оµе\(You want to) make a memory\02 - I love this town (live from the Cannery Ballroom).wav

Pre-gap length 0:00:01.28

Peak level 86.0 %
Track quality 100.0 %
Test CRC 0E4AED2A
Copy CRC 0E4AED2A
Copy OK

Track 3

Filename C:\Documents and Settings\Owner\№ЩЕБ И­ёй\Ж®·ЎДї ѕч·Оµе\(You want to) make a memory\03 - Put the boy back in cowboy.wav

Pre-gap length 0:00:01.69

Peak level 96.5 %
Track quality 100.0 %
Test CRC C322FDE0
Copy CRC C322FDE0
Copy OK

No errors occurred

End of status report
#777Продолжительность: 00:48:47
Кодек: FLAC
Треклист:
1 - Billy Get Your Guns
2 - Miracle
3 - Blaze Of Glory
4 - Blood Money
5 - Santa Fe
6 - Justice In The Barrel
7 - Never Say Die
8 - You Really Got Me Now
9 - Bang A Drum
10 - Dyin' Ain't Much Of A Livin'
11 - Guano City
EAC extraction logfile from 17. July 2006, 20:23 for CD
Jon Bon Jovi / Blaze of Glory / Young Guns II

Used drive : HL-DT-STDVD-ROM GDR8163B Adapter: 0 ID: 3
Read mode : Secure with NO C2, accurate stream, disable cache
Read offset correction : 102
Overread into Lead-In and Lead-Out : No

Used output format : Internal WAV Routines
44.100 Hz; 16 Bit; Stereo

Other options :
Fill up missing offset samples with silence : Yes
Delete leading and trailing silent blocks : No
Native Win32 interface for Win NT & 2000

Track 1
Filename E:\Music - mostly lossless\Bon Jovi\1990 - Blaze of Glory\01 - Billy Get Your Guns.wav

Pre-gap length 0:00:02.00

Peak level 100.0 %
Track quality 100.0 %
Test CRC F5A7A9BB
Copy CRC F5A7A9BB
Copy OK

Track 2
Filename E:\Music - mostly lossless\Bon Jovi\1990 - Blaze of Glory\02 - Miracle.wav

Pre-gap length 0:00:01.17

Peak level 100.0 %
Track quality 100.0 %
Test CRC B0B53420
Copy CRC B0B53420
Copy OK

Track 3
Filename E:\Music - mostly lossless\Bon Jovi\1990 - Blaze of Glory\03 - Blaze of Glory.wav

Pre-gap length 0:00:11.42

Peak level 100.0 %
Track quality 100.0 %
Test CRC 84A07A37
Copy CRC 84A07A37
Copy OK

Track 4
Filename E:\Music - mostly lossless\Bon Jovi\1990 - Blaze of Glory\04 - Blood Money.wav

Pre-gap length 0:00:01.00

Peak level 66.1 %
Track quality 100.0 %
Test CRC B27DADE9
Copy CRC B27DADE9
Copy OK

Track 5
Filename E:\Music - mostly lossless\Bon Jovi\1990 - Blaze of Glory\05 - Santa Fe.wav

Pre-gap length 0:00:01.07

Peak level 100.0 %
Track quality 99.9 %
Test CRC 5F718B5F
Copy CRC 5F718B5F
Copy OK

Track 6
Filename E:\Music - mostly lossless\Bon Jovi\1990 - Blaze of Glory\06 - Justice in the Barrel.wav

Pre-gap length 0:00:01.30

Peak level 100.0 %
Track quality 100.0 %
Test CRC 05EBADD0
Copy CRC 05EBADD0
Copy OK

Track 7
Filename E:\Music - mostly lossless\Bon Jovi\1990 - Blaze of Glory\07 - Never Say Die.wav

Pre-gap length 0:00:01.63

Peak level 100.0 %
Track quality 100.0 %
Test CRC 7EE9C6B7
Copy CRC 7EE9C6B7
Copy OK

Track 8
Filename E:\Music - mostly lossless\Bon Jovi\1990 - Blaze of Glory\08 - You Really Got Me Now.wav

Pre-gap length 0:00:01.35

Peak level 80.5 %
Track quality 100.0 %
Test CRC 304560F7
Copy CRC 304560F7
Copy OK

Track 9
Filename E:\Music - mostly lossless\Bon Jovi\1990 - Blaze of Glory\09 - Bang a Drum.wav

Pre-gap length 0:00:01.25

Peak level 100.0 %
Track quality 100.0 %
Test CRC 0A7326F2
Copy CRC 0A7326F2
Copy OK

Track 10
Filename E:\Music - mostly lossless\Bon Jovi\1990 - Blaze of Glory\10 - Dyin' Ain't Much of a Livin'.wav

Pre-gap length 0:00:07.58

Peak level 100.0 %
Track quality 99.9 %
Test CRC D8454F87
Copy CRC D8454F87
Copy OK

Track 11
Filename E:\Music - mostly lossless\Bon Jovi\1990 - Blaze of Glory\11 - Guano City.wav

Pre-gap length 0:00:07.67

Peak level 90.4 %
Track quality 100.0 %
Test CRC 99668F44
Copy CRC 99668F44
Copy OK

No errors occured

End of status report
#777Продолжительность: 00:56:06
Кодек: FLAC
Треклист:
1. I Believe
2. Wild in the streets
3. You give love a bad name
4. Born to be my baby
5. I can't help falling in love Bed of roses
6. Keep the faith
7. I'd die for you
8. Blaze of glory
9. Lay your hands on me
.
.
.
.
.
.
.
.
.
.
.
#777Продолжительность: 00:57:43
Кодек: FLAC
Треклист:
1. I'll sleep when i'm dead Jumpin' jack flash
2. Bad medicine Shout
3. Help me
4. Little wing Wanted dead or alive
5. In these arms Livin' on a prayer
6. I'll be there for you
.
.
.
.
.
.
.
.
.
.
.
#777Продолжительность: 01:17:02
Кодек: APE
Треклист:
01 - Livin' On A Prayer
02 - Keep The Faith
03 - Someday I'll Be Saturday Night
04 - Always
05 - Wanted Dead Or Alive
06 - Lay Your Hands On Me
07 - You Give Love A Bad Name
08 - Bed Of Roses
09 - Blaze Of Glory
10 - Tokyo Road
11 - Bad Medicine
12 - I'll Be There For You
13 - In & Out Of Love
14 - Runaway
15 - Never Say Goodbye
Отчёт EAC об извлечении, выполненном 15. марта 2007, 21:48 для диска:
Bon Jovi / Crossroad - The Best Of Bon Jovi

Дисковод: SONY DVD-ROM DDU1621 Adapter: 0 ID: 1
Режим чтения: Достоверный (C2: нет, Точный поток: да, Отключение кэша: да)
Комбинированное смещение чтения/записи: 0
Способность читать области Lead-in и Lead-out : Нет

Выходной формат: Внутренние WAV-операции
44.100 Гц; 16 бит; стерео

Другие параметры:
Заполнение пропущенных сэмплов тишиной : Да
Удаление блоков с тишиной в начале и конце : Нет
Установленный внешний ASPI-интерфейс

Характеристики диапазона извлечения и сообщения об ошибках
Выбранный диапазон
Имя файла H:\Bon Jovi Lossless\1994 - Bon Jovi - Cross road\Bon Jovi - Crossroad - The Best Of Bon Jovi.wav

Пиковый уровень 100.0 %
Качество диапазона 99.9 %
CRC 98DE14B3
Копирование... OK

Ошибок не произошло

Конец отчёта
#777Продолжительность: 01:17:26
Кодек:
Треклист:
01 - Livin' On A Prayer
02 - Keep The Faith
03 - Someday I'll Be Saturday Night
04 - Always
05 - Wanted Dead Or Alive
06 - Lay Your Hands On Me
07 - You Give Love A Bad Name
08 - Bed Of Roses
09 - Blaze Of Glory
10 - Tokyo Road

11 - Bad Medicine
12 - I'll Be There For You
13 - In & Out Of Love
14 - Runaway
15 - Never Say Goodbye
Exact Audio Copy V0.99 prebeta 4 from 23. January 2008
Отчёт EAC об извлечении, выполненном 30. мая 2008, 9:50
Bon Jovi / Cross Road
Дисковод: Optiarc DVD RW AD-5170A Adapter: 3 ID: 0
Режим чтения : Достоверность
Использование точного потока : Да
Отключение кэша аудио : Да
Использование указателей C2 : Нет
Коррекция смещения при чтении : 48
Способность читать области Lead-in и Lead-out : Да
Заполнение пропущенных сэмплов тишиной : Да
Удаление блоков с тишиной в начале и конце : Нет
При вычислениях CRC использовались нулевые сэмплы : Нет
Интерфейс : Установленный внешний ASPI-интерфейс
Выходной формат : Внутренние WAV-операции
Формат сэмплов : 44.100 Гц; 16 бит; стерео
TOC извлечённого CD
Трек | Старт | Длительность | Начальный сектор | Конечный сектор
---------------------------------------------------------------------
1 | 0:00.00 | 4:11.25 | 0 | 18849
2 | 4:11.25 | 5:44.53 | 18850 | 44702
3 | 9:56.03 | 4:39.57 | 44703 | 65684
4 | 14:35.60 | 5:53.50 | 65685 | 92209
5 | 20:29.35 | 5:07.00 | 92210 | 115234
6 | 25:36.35 | 5:58.68 | 115235 | 142152
7 | 31:35.28 | 3:44.25 | 142153 | 158977
8 | 35:19.53 | 6:34.72 | 158978 | 188599
9 | 41:54.50 | 5:40.00 | 188600 | 214099
10 | 47:34.50 | 5:42.58 | 214100 | 239807
11 | 53:17.33 | 5:16.60 | 239808 | 263567
12 | 58:34.18 | 5:41.42 | 263568 | 289184
13 | 64:15.60 | 4:27.25 | 289185 | 309234
14 | 68:43.10 | 3:54.21 | 309235 | 326805
15 | 72:37.31 | 4:48.71 | 326806 | 348476
Характеристики диапазона извлечения и сообщения об ошибках
Выбранный диапазон
Имя файла E:\Серега\Bon Jovi 1994\Bon Jovi - Cross Road.wav
Пиковый уровень 97.7 %
Качество диапазона 99.9 %
CRC копии 0C4CE957
Копирование... OK
Ошибок не произошло
Конец отчёта
#777Продолжительность: 01:13:54
Кодек: FLAC
Треклист:
01 - Blaze Of Glory
02 - Diamond Ring
03 - Always
04 - Never Say Good-Bye
05 - Living In Sin
06 - This Ain't A Love Song
07 - Bed Of Roses
08 - Dying Ain't Much Of A Living
09 - Wanted Dead Or Alive
10 - One Light Burning
11 - Lie To Me
12 - I'll Be There For You
13 - Silent Night
14 - Hearts Breaking Even
Exact Audio Copy V0.99 prebeta 4 from 23. January 2008
EAC extraction logfile from 1. September 2008, 18:37
Bon Jovi / Best Ballads
Used drive : Optiarc DVD RW AD-7173A Adapter: 3 ID: 1
Read mode : Secure
Utilize accurate stream : Yes
Defeat audio cache : Yes
Make use of C2 pointers : No
Read offset correction : 48
Overread into Lead-In and Lead-Out : No
Fill up missing offset samples with silence : Yes
Delete leading and trailing silent blocks : No
Null samples used in CRC calculations : Yes
Used interface : Installed external ASPI interface
Gap handling : Not detected, thus appended to previous track
Used output format : Internal WAV Routines
Sample format : 44.100 Hz; 16 Bit; Stereo
TOC of the extracted CD
Track | Start | Length | Start sector | End sector
---------------------------------------------------------
1 | 0:00.00 | 5:46.10 | 0 | 25959
2 | 5:46.10 | 3:46.72 | 25960 | 42981
3 | 9:33.07 | 5:53.58 | 42982 | 69514
4 | 15:26.65 | 4:51.17 | 69515 | 91356
5 | 20:18.07 | 4:38.58 | 91357 | 112264
6 | 24:56.65 | 5:04.70 | 112265 | 135134
7 | 30:01.60 | 6:39.47 | 135135 | 165106
8 | 36:41.32 | 4:38.68 | 165107 | 186024
9 | 41:20.25 | 5:11.37 | 186025 | 209386
10 | 46:31.62 | 5:51.13 | 209387 | 235724
11 | 52:23.00 | 5:35.15 | 235725 | 260864
12 | 57:58.15 | 5:46.72 | 260865 | 286886
13 | 63:45.12 | 5:04.10 | 286887 | 309696
14 | 68:49.22 | 5:04.53 | 309697 | 332549
Track 1
Filename D:\Works\CD-Rips\Bon Jovi - Best Ballads\Bon Jovi - 1997 - Best Ballads\01. Bon Jovi - Blaze Of Glory.wav
Peak level 86.9 %
Track quality 100.0 %
Test CRC 290B7394
Copy CRC 290B7394
Track not present in AccurateRip database
Copy OK
Track 2
Filename D:\Works\CD-Rips\Bon Jovi - Best Ballads\Bon Jovi - 1997 - Best Ballads\02. Bon Jovi - Diamond Ring.wav
Peak level 77.6 %
Track quality 100.0 %
Test CRC 7A077518
Copy CRC 7A077518
Accurately ripped (confidence 3) [B77666B0]
Copy OK
Track 3
Filename D:\Works\CD-Rips\Bon Jovi - Best Ballads\Bon Jovi - 1997 - Best Ballads\03. Bon Jovi - Always.wav
Peak level 76.0 %
Track quality 100.0 %
Test CRC 83D133B1
Copy CRC 83D133B1
Accurately ripped (confidence 3) [8C8546DA]
Copy OK
Track 4
Filename D:\Works\CD-Rips\Bon Jovi - Best Ballads\Bon Jovi - 1997 - Best Ballads\04. Bon Jovi - Never Say Good-Bye.wav
Peak level 76.4 %
Track quality 99.4 %
Test CRC B95ED48C
Copy CRC B95ED48C
Cannot be verified as accurate (confidence 3) [DD3F57E3], AccurateRip returned [111B57E3]
Copy OK
Track 5
Filename D:\Works\CD-Rips\Bon Jovi - Best Ballads\Bon Jovi - 1997 - Best Ballads\05. Bon Jovi - Living In Sin.wav
Peak level 77.2 %
Track quality 99.8 %
Test CRC 6D585329
Copy CRC 6D585329
Accurately ripped (confidence 3) [0421EAED]
Copy OK
Track 6
Filename D:\Works\CD-Rips\Bon Jovi - Best Ballads\Bon Jovi - 1997 - Best Ballads\06. Bon Jovi - This Ain't A Love Song.wav
Peak level 75.4 %
Track quality 100.0 %
Test CRC BF18C436
Copy CRC BF18C436
Accurately ripped (confidence 3) [8444BB02]
Copy OK
Track 7
Filename D:\Works\CD-Rips\Bon Jovi - Best Ballads\Bon Jovi - 1997 - Best Ballads\07. Bon Jovi - Bed Of Roses.wav
Peak level 64.5 %
Track quality 100.0 %
Test CRC 6B3B97E1
Copy CRC 6B3B97E1
Accurately ripped (confidence 3) [D81DE872]
Copy OK
Track 8
Filename D:\Works\CD-Rips\Bon Jovi - Best Ballads\Bon Jovi - 1997 - Best Ballads\08. Bon Jovi - Dying Ain't Much Of A Living.wav
Peak level 86.8 %
Track quality 100.0 %
Test CRC 992E69AD
Copy CRC 992E69AD
Accurately ripped (confidence 3) [6F057183]
Copy OK
Track 9
Filename D:\Works\CD-Rips\Bon Jovi - Best Ballads\Bon Jovi - 1997 - Best Ballads\09. Bon Jovi - Wanted Dead Or Alive.wav
Peak level 86.9 %
Track quality 99.9 %
Test CRC F8926143
Copy CRC F8926143
Accurately ripped (confidence 3) [571F4F9A]
Copy OK
Track 10
Filename D:\Works\CD-Rips\Bon Jovi - Best Ballads\Bon Jovi - 1997 - Best Ballads\10. Bon Jovi - One Light Burning.wav
Peak level 85.8 %
Track quality 100.0 %
Test CRC 70D42FEA
Copy CRC 70D42FEA
Accurately ripped (confidence 3) [E9F79762]
Copy OK
Track 11
Filename D:\Works\CD-Rips\Bon Jovi - Best Ballads\Bon Jovi - 1997 - Best Ballads\11. Bon Jovi - Lie To Me.wav
Peak level 92.1 %
Track quality 99.9 %
Test CRC 756870C5
Copy CRC 756870C5
Accurately ripped (confidence 3) [E4DB090A]
Copy OK
Track 12
Filename D:\Works\CD-Rips\Bon Jovi - Best Ballads\Bon Jovi - 1997 - Best Ballads\12. Bon Jovi - I'll Be There For You.wav
Peak level 96.8 %
Track quality 100.0 %
Test CRC BEB04C4F
Copy CRC BEB04C4F
Accurately ripped (confidence 3) [386DB7D7]
Copy OK
Track 13
Filename D:\Works\CD-Rips\Bon Jovi - Best Ballads\Bon Jovi - 1997 - Best Ballads\13. Bon Jovi - Silent Night.wav
Peak level 82.6 %
Track quality 99.9 %
Test CRC E3DD0E54
Copy CRC E3DD0E54
Accurately ripped (confidence 3) [BBB31D5C]
Copy OK
Track 14
Filename D:\Works\CD-Rips\Bon Jovi - Best Ballads\Bon Jovi - 1997 - Best Ballads\14. Bon Jovi - Hearts Breaking Even.wav
Peak level 73.9 %
Track quality 99.6 %
Test CRC ABF78864
Copy CRC ABF78864
Track not present in AccurateRip database
Copy OK
11 track(s) accurately ripped
1 track(s) could not be verified as accurate
2 track(s) not present in the AccurateRip database
Some tracks could not be verified as accurate
No errors occurred
End of status report
#777Продолжительность: 01:01:26
Кодек: APE
Треклист:
01 - Fields Of Fire
02 - I Thank You
03 - Mrs. Robinson
04 - Let's Make It Baby (demo)
05 - I Don't Like Mondays
06 - Crazy (live)
07 - Tumblin' DIce (live)
08 - Heaven Help Us (live)
09 - Levon
10 - Rosie
11 - How Long Has This Been Going On
12 - Father Time
13 - Mr. Sambo (instrumental)
Отчёт EAC об извлечении, выполненном 15. марта 2007, 22:29 для диска:
Bon Jovi / Fields Of Fire

Дисковод: SONY DVD-ROM DDU1621 Adapter: 0 ID: 1
Режим чтения: Достоверный (C2: нет, Точный поток: да, Отключение кэша: да)
Комбинированное смещение чтения/записи: 0
Способность читать области Lead-in и Lead-out : Нет

Выходной формат: Внутренние WAV-операции
44.100 Гц; 16 бит; стерео

Другие параметры:
Заполнение пропущенных сэмплов тишиной : Да
Удаление блоков с тишиной в начале и конце : Нет
Установленный внешний ASPI-интерфейс

Характеристики диапазона извлечения и сообщения об ошибках
Выбранный диапазон
Имя файла H:\Bon Jovi Lossless\1997 - Bon Jovi - Fields of fire\Bon Jovi - Fields Of Fire.wav

Пиковый уровень 82.1 %
Качество диапазона 100.0 %
CRC C7CC0E41
Копирование... OK

Ошибок не произошло

Конец отчёта
#777Продолжительность: 01:08:12
Кодек: FLAC

Треклист:
01 - You Give Love a Bad Name
02 - Livin' on a Prayer
03 - Raise Your Hands
04 - Wanted Dead or Alive
05 - Runaway
06 - She Don't Know Me
07 - Love Lies
08 - Burning for Love
09 - Lay Your Hands On Me
10 - Wild is the Wind
11 - I'll Be There For You
12 - Blaze of Glory
13 - Santa Fe
14 - Bed of Roses
AUDIOCHECKER v2.0 beta (build 457) - by Dester -
~~~~~~~~~~~~~~~~~~~~~~~~~~~~~~~~~~
-=== DO NOT EDIT THIS FILE! ===-
Path: ...\Bon Jovi - 2000 - Gold
01 -=- 01. Bon Jovi - You Give Love a Bad Name.wav -=- CDDA (100%)
02 -=- 02. Bon Jovi - Livin' on a Prayer.wav -=- CDDA (100%)
03 -=- 03. Bon Jovi - Raise Your Hands.wav -=- CDDA (100%)
04 -=- 04. Bon Jovi - Wanted Dead or Alive.wav -=- CDDA (100%)
05 -=- 05. Bon Jovi - Runaway.wav -=- CDDA (100%)
06 -=- 06. Bon Jovi - She Doesn't Know Me.wav -=- CDDA (100%)
07 -=- 07. Bon Jovi - Love Lies.wav -=- CDDA (100%)
08 -=- 08. Bon Jovi - Burning for Love.wav -=- CDDA (100%)
09 -=- 09. Bon Jovi - Lay Your Hands On Me.wav -=- CDDA (100%)
10 -=- 10. Bon Jovi - Wild is the Wind.wav -=- CDDA (100%)
11 -=- 11. Bon Jovi - I'll Be There For You.wav -=- CDDA (100%)
12 -=- 12. Bon Jovi - Blaze of Glory.wav -=- CDDA (99%)
13 -=- 13. Bon Jovi - Santa Fe.wav -=- CDDA (100%)
14 -=- 14. Bon Jovi - Bed of Roses.wav -=- CDDA (100%)
Summary 99,93% CDDA
172326452
#777Продолжительность: 01:13:15
Кодек: FLAC
Треклист:
01. Something for the pain
02. Breakout
03. I'll sleep when i'm dead
04. Diamond ring
05. Dyin' ain't much of a livin'
06. Let It Rock
07. Hey god
08. Mr. Bluesman
09. This Ain't a love song
10. Born to be my baby
11. Prince of love
12. I believe
13. Billy get your guns
14. I'd die for you
15. Love Lies
#777Продолжительность: 01:16:58
Кодек: FLAC
Треклист:
01 - One Wild Night 2001
02 - Bad Medicine
03 - Livin' On A Prayer
04 - You Give Love A Bad Name
05 - Keep The Faith
06 - It's My Life
07 - Blood On Blood
08 - Something For The Pain
09 - Born To Be My Baby
10 - Tokyo Road
11 - Hey God
12 - Just Older
13 - I'll Sleep When I'm Dead
14 - Runaway
15 - Wild In The Streets
16 - Next 100 Years
Exact Audio Copy V0.99 prebeta 3 from 28. July 2007

EAC extraction logfile from 28. May 2008, 3:59

Bon Jovi / Tokyo Road

Used drive : PIONEER DVD-RW DVR-111D Adapter: 0 ID: 0

Read mode : Secure
Utilize accurate stream : Yes
Defeat audio cache : Yes
Make use of C2 pointers : No

Read offset correction : 48
Overread into Lead-In and Lead-Out : No
Fill up missing offset samples with silence : Yes
Delete leading and trailing silent blocks : No
Null samples used in CRC calculations : Yes
Used interface : Native Win32 interface for Win NT & 2000
Gap handling : Appended to previous track

Used output format : User Defined Encoder
Selected bitrate : 192 kBit/s
Quality : High
Add ID3 tag : No
Command line compressor : D:\UTIL\flac-1.2.1-win\bin\flac.exe
Additional command line options : -V -8 -T "artist=%a" -T "title=%t" -T "album=%g" -T "date=%y" -T "tracknumber=%n" -T "genre=%m" %s

TOC of the extracted CD

Track | Start | Length | Start sector | End sector
---------------------------------------------------------
1 | 0:00.00 | 3:41.60 | 0 | 16634
2 | 3:41.60 | 5:14.37 | 16635 | 40221
3 | 8:56.22 | 4:08.50 | 40222 | 58871
4 | 13:04.72 | 3:42.25 | 58872 | 75546
5 | 16:47.22 | 5:43.70 | 75547 | 101341
6 | 22:31.17 | 3:43.30 | 101342 | 118096
7 | 26:14.47 | 6:15.00 | 118097 | 146221
8 | 32:29.47 | 4:45.63 | 146222 | 167659
9 | 37:15.35 | 4:38.02 | 167660 | 188511
10 | 41:53.37 | 5:40.33 | 188512 | 214044
11 | 47:33.70 | 6:10.32 | 214045 | 241826
12 | 53:44.27 | 4:27.30 | 241827 | 261881
13 | 58:11.57 | 4:41.10 | 261882 | 282966
14 | 62:52.67 | 3:50.73 | 282967 | 300289
15 | 66:43.65 | 3:55.25 | 300290 | 317939
16 | 70:39.15 | 6:19.00 | 317940 | 346364

Track 1

Filename H:\1\01 - One Wild Night 2001.wav

Pre-gap length 0:00:02.00

Peak level 94.4 %
Track quality 99.9 %
Test CRC F940F091
Copy CRC F940F091
Copy OK

Track 2

Filename H:\1\02 - Bad Medicine.wav

Peak level 100.0 %
Track quality 100.0 %
Test CRC A6473E46
Copy CRC A6473E46
Copy OK

Track 3

Filename H:\1\03 - Livin' On A Prayer.wav

Peak level 100.0 %
Track quality 100.0 %
Test CRC CAE32359
Copy CRC CAE32359
Copy OK

Track 4

Filename H:\1\04 - You Give Love A Bad Name.wav

Peak level 100.0 %
Track quality 100.0 %
Test CRC BD1020BA
Copy CRC BD1020BA
Copy OK

Track 5

Filename H:\1\05 - Keep The Faith.wav

Peak level 100.0 %
Track quality 100.0 %
Test CRC 5CFD7B3F
Copy CRC 5CFD7B3F
Copy OK

Track 6

Filename H:\1\06 - It's My Life.wav

Peak level 94.4 %
Track quality 100.0 %
Test CRC A1157DFD
Copy CRC A1157DFD
Copy OK

Track 7

Filename H:\1\07 - Blood On Blood.wav

Peak level 100.0 %
Track quality 100.0 %
Test CRC 23652899
Copy CRC 23652899
Copy OK

Track 8

Filename H:\1\08 - Something For The Pain.wav

Peak level 100.0 %
Track quality 100.0 %
Test CRC 361D5C3A
Copy CRC 361D5C3A
Copy OK

Track 9

Filename H:\1\09 - Born To Be My Baby.wav

Peak level 100.0 %
Track quality 100.0 %
Test CRC E2CB339B
Copy CRC E2CB339B
Copy OK

Track 10

Filename H:\1\10 - Tokyo Road.wav

Peak level 100.0 %
Track quality 100.0 %
Test CRC 46B317A4
Copy CRC 46B317A4
Copy OK

Track 11

Filename H:\1\11 - Hey God.wav

Peak level 100.0 %
Track quality 100.0 %
Test CRC 7506E536
Copy CRC 7506E536
Copy OK

Track 12

Filename H:\1\12 - Just Older.wav

Peak level 100.0 %
Track quality 100.0 %
Test CRC 2CD5EC93
Copy CRC 2CD5EC93
Copy OK

Track 13

Filename H:\1\13 - I'll Sleep When I'm Dead.wav

Peak level 100.0 %
Track quality 100.0 %
Test CRC 0A15447B
Copy CRC 0A15447B
Copy OK

Track 14

Filename H:\1\14 - Runaway.wav

Peak level 100.0 %
Track quality 100.0 %
Test CRC 585CD49B
Copy CRC 585CD49B
Copy OK

Track 15

Filename H:\1\15 - Wild In The Streets.wav

Peak level 100.0 %
Track quality 100.0 %
Test CRC 83F43B65
Copy CRC 83F43B65
Copy OK

Track 16

Filename H:\1\16 - Next 100 Years.wav

Peak level 100.0 %
Track quality 100.0 %
Test CRC F981A9EA
Copy CRC F981A9EA
Copy OK

No errors occurred

End of status report
#777Продолжительность: 00:23:43
Кодек: FLAC
Треклист:
01 - Tokyo Road (Live Version)
02 - Not Fade Away (Live Version-From Jon Bon Jovi Solo Tour)
03 - Next 100 Years (Live Version)
04 - Father Time (Live Version-From Richie Sambora Solo Tour)
Exact Audio Copy V0.99 prebeta 3 from 28. July 2007

EAC extraction logfile from 28. May 2008, 4:09

Bon Jovi / Tokyo Road Live

Used drive : PIONEER DVD-RW DVR-111D Adapter: 0 ID: 0

Read mode : Secure
Utilize accurate stream : Yes
Defeat audio cache : Yes
Make use of C2 pointers : No

Read offset correction : 48
Overread into Lead-In and Lead-Out : No
Fill up missing offset samples with silence : Yes
Delete leading and trailing silent blocks : No
Null samples used in CRC calculations : Yes
Used interface : Native Win32 interface for Win NT & 2000
Gap handling : Appended to previous track

Used output format : User Defined Encoder
Selected bitrate : 192 kBit/s
Quality : High
Add ID3 tag : No
Command line compressor : D:\UTIL\flac-1.2.1-win\bin\flac.exe
Additional command line options : -V -8 -T "artist=%a" -T "title=%t" -T "album=%g" -T "date=%y" -T "tracknumber=%n" -T "genre=%m" %s

TOC of the extracted CD

Track | Start | Length | Start sector | End sector
---------------------------------------------------------
1 | 0:00.00 | 7:14.15 | 0 | 32564
2 | 7:14.15 | 3:20.48 | 32565 | 47612
3 | 10:34.63 | 6:36.27 | 47613 | 77339
4 | 17:11.15 | 6:32.53 | 77340 | 106792

Track 1

Filename H:\2\01 - Tokyo Road (Live Version).wav

Pre-gap length 0:00:02.00

Peak level 100.0 %
Track quality 100.0 %
Test CRC E61E2908
Copy CRC E61E2908
Copy OK

Track 2

Filename H:\2\02 - Not Fade Away (Live Version-From Jon Bon Jovi Solo Tour).wav

Peak level 100.0 %
Track quality 100.0 %
Test CRC 38F4CF12
Copy CRC 38F4CF12
Copy OK

Track 3

Filename H:\2\03 - Next 100 Years(Live Version).wav

Peak level 100.0 %
Track quality 100.0 %
Test CRC 8AA98A59
Copy CRC 8AA98A59
Copy OK

Track 4

Filename H:\2\04 - Father Time (Live Version-From Richie Sambora Solo Tour).wav

Peak level 100.0 %
Track quality 100.0 %
Test CRC C424A694
Copy CRC C424A694
Copy OK

No errors occurred

End of status report
#777Продолжительность: 00:57:11
Кодек: APE
Треклист:
01 - Wanted Dead Or Alive
02 - Livin' On A Prayer
03 - Bad Medicine
04 - It's My Life
05 - Lay Your Hands On Me
06 - You Give Love A Bad Name
07 - Bed Of Roses
08 - Everyday
09 - Born To Be My Baby
10 - Keep The Faith
11 - I'll Be There For You
12 - Always
13 - The Distance (live)
EAC extraction logfile from 15. December 2007, 17:05 for CD
Bon Jovi / This Left Feels Right
Used drive : LITE-ON DVDRW LH-20A1P Adapter: 1 ID: 0
Read mode : Secure with NO C2, accurate stream, disable cache
Read offset correction : 6
Overread into Lead-In and Lead-Out : No
Used output format : Monkey's Audio Lossless Encoder v3.99 DLL
High Lossless Compression
Other options :
Fill up missing offset samples with silence : Yes
Delete leading and trailing silent blocks : No
Installed external ASPI interface
Range status and errors
Selected range
Filename N:\NEWSHOT\Bon Jovi - This Left Feels Right\Bon Jovi - This Left Feels Right.ape
Peak level 100.0 %
Range quality 100.0 %
CRC 55E9B99D
Copy OK
No errors occured
End of status report
#777Продолжительность: 00:54:35
Кодек: APE
Треклист:
01 - Why Aren't You Dead?
02 - The Radio Saved My Life Tonight
03 - Taking It Back
04 - Someday I'll Be Saturday Night (DEMO)
05 - Miss Fourth Of July
06 - Open All Night
07 - These Arms Are Open All Night
08 - I Get A Rush
09 - Someday Just Might Be Tonight
10 - Thief Of Hearts
11 - Last Man Standing
12 - I Just Want To Be Your Man
Отчёт EAC об извлечении, выполненном 15. марта 2007, 15:58 для диска:
BON JOVI / 100,000,000 Bon Jovi Fans Can't Be Wrong... (DISC 1)

Дисковод: SONY DVD-ROM DDU1621 Adapter: 0 ID: 1
Режим чтения: Достоверный (C2: нет, Точный поток: да, Отключение кэша: да)
Комбинированное смещение чтения/записи: 0
Способность читать области Lead-in и Lead-out : Нет

Выходной формат: Внутренние WAV-операции
44.100 Гц; 16 бит; стерео

Другие параметры:
Заполнение пропущенных сэмплов тишиной : Да
Удаление блоков с тишиной в начале и конце : Нет
Установленный внешний ASPI-интерфейс

Характеристики диапазона извлечения и сообщения об ошибках
Выбранный диапазон
Имя файла H:\Bon Jovi Lossless\2004 - Bon Jovi - 100 000 000 Bon Jovi fans can't be wrong\BON JOVI - 100,000,000 Bon Jovi Fans Can't Be Wrong... (DISC 1).wav

Пиковый уровень 100.0 %
Качество диапазона 99.9 %
CRC 4EBEA60D
Копирование... OK

Ошибок не произошло

Конец отчёта
#777Продолжительность: 00:52:09
Кодек: APE
Треклист:
01 - Garageland (Unreleased)
02 - Starting All Over Again (Japan Bonus Track)
03 - Maybe Someday (Unreleased)
04 - Last Chance Train (Unreleased)
05 - The Fire Inside (Unreleased)
06 - Every Beat Of My Heart (Unreleased)
07 - Rich Man Living In A Poor Man's House (Unreleased)
08 - The One That Got Away (Unreleased)
09 - You Can Sleep While I Dream (Unreleased)
10 - Outlaws Of Love (Unreleased)
11 - Good Guys Don't Always Wear White (From The Motion Picture Soundtrack To 'The...
12 - We Rule The Night (Unreleased)
Отчёт EAC об извлечении, выполненном 15. марта 2007, 13:33 для диска:
Bon Jovi / 100,000,000 Bon Jovi Fans Can't Be Wrong... (DISC 2)

Дисковод: SONY DVD-ROM DDU1621 Adapter: 0 ID: 1
Режим чтения: Достоверный (C2: нет, Точный поток: да, Отключение кэша: да)
Комбинированное смещение чтения/записи: 0
Способность читать области Lead-in и Lead-out : Нет

Выходной формат: Внутренние WAV-операции
44.100 Гц; 16 бит; стерео

Другие параметры:
Заполнение пропущенных сэмплов тишиной : Да
Удаление блоков с тишиной в начале и конце : Нет
Установленный внешний ASPI-интерфейс

Характеристики диапазона извлечения и сообщения об ошибках
Выбранный диапазон
Имя файла H:\Bon Jovi Lossless\Bon Jovi - 100 000 000 Bon Jovi fans can't be wrong\Bon Jovi - 100,000,000 Bon Jovi Fans Can't Be Wrong... (DISC 2).wav

Пиковый уровень 100.0 %
Качество диапазона 100.0 %
CRC B68416C4
Копирование... OK

Ошибок не произошло

Конец отчёта
#777Продолжительность: 00:55:51
Кодек: APE
Треклист:
01 - Edge Of A Broken Heart (From The Motion Picture Soundtrack To 'Disorderlies')
02 - Sympathy (Unreleased)
03 - Only In My Dreams - Featuring Tico Torres on Vocals (Unreleased)
04 - Shut Up And Kiss Me (Unreleased)
05 - Crazy Love (Unreleased)
06 - Lonely At The Top (International B-Side)
07 - Ordinary People (International B-Side)
08 - Flesh And Bone (Unreleased)
09 - Satellite (Unreleased)
10 - If I Can't Have Your Love - Featuring Richie Sambora on Vocals (Unreleased So...
11 - Real Life (From The Motion Picture Soundtrack To 'EDTV')
12 - Memphis Lives In Me - Featuring David Bryan on Vocals (Unreleased From The Or...
13 - Too Much Of A Good Thing (Unreleased)
Отчёт EAC об извлечении, выполненном 15. марта 2007, 15:08 для диска:
Bon Jovi / 100,000,000 Bon Jovi Fans Can't Be Wrong... (DISC 3)

Дисковод: SONY DVD-ROM DDU1621 Adapter: 0 ID: 1
Режим чтения: Достоверный (C2: нет, Точный поток: да, Отключение кэша: да)
Комбинированное смещение чтения/записи: 0
Способность читать области Lead-in и Lead-out : Нет

Выходной формат: Внутренние WAV-операции
44.100 Гц; 16 бит; стерео

Другие параметры:
Заполнение пропущенных сэмплов тишиной : Да
Удаление блоков с тишиной в начале и конце : Нет
Установленный внешний ASPI-интерфейс

Характеристики диапазона извлечения и сообщения об ошибках
Выбранный диапазон
Имя файла H:\Bon Jovi Lossless\2004 - Bon Jovi - 100 000 000 Bon Jovi fans can't be wrong\Bon Jovi - 100,000,000 Bon Jovi Fans Can't Be Wrong... (DISC 3).wav

Пиковый уровень 100.0 %
Качество диапазона 100.0 %
CRC B058CE64
Копирование... OK

Ошибок не произошло

Конец отчёта
#777Продолжительность: 01:01:28
Кодек: APE
Треклист:
01 - Love Ain't Nothing But A Four Letter Word (Unreleased)
02 - Love Ain't Nothing But A Four Letter Word (Original Demo)
03 - River Runs Dry (Unreleased)
04 - Always (Unreleased Demo)
05 - Kidnap An Angel (Unreleased)
06 - Breathe (B-Side)
07 - Out Of Bounds (Unreleased)
08 - Letter To A Friend (Unreleased)
09 - Temptation (International B-Side)
10 - Gotta Have A Reason (Unreleased)
11 - All I Wanna Do Is You (Unreleased)
12 - Billy (Unreleased)
13 - Nobody's Hero (Unreleased)
Отчёт EAC об извлечении, выполненном 15. марта 2007, 14:57 для диска:
Bon Jovi / 100,000,000 Bon Jovi Fans Can't Be Wrong... (DISC 4)

Дисковод: SONY DVD-ROM DDU1621 Adapter: 0 ID: 1
Режим чтения: Достоверный (C2: нет, Точный поток: да, Отключение кэша: да)
Комбинированное смещение чтения/записи: 0
Способность читать области Lead-in и Lead-out : Нет

Выходной формат: Внутренние WAV-операции
44.100 Гц; 16 бит; стерео

Другие параметры:
Заполнение пропущенных сэмплов тишиной : Да
Удаление блоков с тишиной в начале и конце : Нет
Установленный внешний ASPI-интерфейс

Характеристики диапазона извлечения и сообщения об ошибках
Выбранный диапазон
Имя файла H:\Bon Jovi Lossless\2004 - Bon Jovi - 100 000 000 Bon Jovi fans can't be wrong\Bon Jovi - 100,000,000 Bon Jovi Fans Can't Be Wrong... (DISC 4).wav

Пиковый уровень 100.0 %
Качество диапазона 100.0 %
CRC 00D7F04A
Копирование... OK

Ошибок не произошло

Конец отчёта
#777Продолжительность: 00:25:55
Кодек: FLAC
Треклист:
01 - Breakout (Live)
02 - Runaway (Live)
03 - Tokyo Road (Live)
04 - Wanted Dead or Alive (Live)
.
.
.
.
.
.
.
.
.
.
.
.
.
#777Продолжительность: 01:17:48
Кодек: FLAC
Треклист:
01 - It's My Life (November 27, 2000 - Toronto, Ontario, Canada)
02 - Livin' On A Prayer (August 30, 2000 - Zurich, Switzerland)
03 - You Give Love A Bad Name (August 30, 2000 - Zurich, Switzerland)
04 - Keep The Faith (September 20, 2000 - New York City, NY, USA)
05 - Someday I'll Be Saturday Night (November 10, 1995 - Melbourne, Australia)
06 - Rockin' In The Free World (Recorded On December 1, 1995 - Johannesburg, South...
07 - Something To Believe In (May 19, 1996 - Yokohama. Japan)
08 - Wanted Dead Or Alive (September 20, 2000 - New York City, NY, USA)
09 - Runaway (April 28, 1985 - Tokyo, Japan)
10 - In And Out Of Love (April 28, 1985 - Tokyo, Japan)
11 - I Don't Like Mondays (featuring Bob Geldof) (June 25, 1995 - London, England)
12 - Just Older (November 27, 2000 - Toronto, Ontario, Canada)
13 - Somethng For The Pain (November 10, 1995 - Melbourne, Australia)
14 - Bad Medicine (August 30, 2000 - Zurich, Switzerland)
15 - One Wild Night 2001 (November 27, 2000 - Toronto, Ontario, Canada)
Exact Audio Copy V0.99 prebeta 4 from 23. January 2008

EAC extraction logfile from 7. July 2008, 22:00

Bon Jovi / One Wild Night - Live 1985-2001

Used drive : HL-DT-STDVD-RAM GSA-H30N Adapter: 0 ID: 0

Read mode : Secure
Utilize accurate stream : Yes
Defeat audio cache : Yes
Make use of C2 pointers : No

Read offset correction : 102
Overread into Lead-In and Lead-Out : No
Fill up missing offset samples with silence : Yes
Delete leading and trailing silent blocks : No
Null samples used in CRC calculations : Yes
Used interface : Native Win32 interface for Win NT & 2000
Gap handling : Appended to previous track

Used output format : User Defined Encoder
Selected bitrate : 128 kBit/s
Quality : High
Add ID3 tag : No
Command line compressor : C:\Program Files\FLAC\flac.exe
Additional command line options : -V -8 -T "artist=%a" -T "title=%t" -T "album=%g" -T "date=%y" -T "tracknumber=%n" -T "genre=%m" %s

TOC of the extracted CD

Track | Start | Length | Start sector | End sector
---------------------------------------------------------
1 | 0:00.00 | 3:51.07 | 0 | 17331
2 | 3:51.07 | 5:13.73 | 17332 | 40879
3 | 9:05.05 | 3:53.67 | 40880 | 58421
4 | 12:58.72 | 6:19.67 | 58422 | 86913
5 | 19:18.64 | 6:30.36 | 86914 | 116199
6 | 25:49.25 | 5:40.27 | 116200 | 141726
7 | 31:29.52 | 6:00.53 | 141727 | 168779
8 | 37:30.30 | 6:00.12 | 168780 | 195791
9 | 43:30.42 | 4:47.30 | 195792 | 217346
10 | 48:17.72 | 6:12.35 | 217347 | 245281
11 | 54:30.32 | 5:37.50 | 245282 | 270606
12 | 60:08.07 | 5:13.35 | 270607 | 294116
13 | 65:21.42 | 4:22.69 | 294117 | 313835
14 | 69:44.36 | 4:19.71 | 313836 | 333331
15 | 74:04.32 | 3:44.02 | 333332 | 350133

Track 1

Filename C:\Documents and Settings\Administrator\My Documents\My music\01 - It's My Life (Toronto, Canada 2000).wav

Pre-gap length 0:00:02.00

Peak level 99.9 %
Track quality 99.9 %
Test CRC A63AADB0
Copy CRC A63AADB0
Copy OK

Track 2

Filename C:\Documents and Settings\Administrator\My Documents\My music\02 - Livin' on a Prayer (Zurich, Switzerland 2000).wav

Pre-gap length 0:00:02.00

Peak level 99.9 %
Track quality 100.0 %
Test CRC 6593E483
Copy CRC 6593E483
Copy OK

Track 3

Filename C:\Documents and Settings\Administrator\My Documents\My music\03 - You Give Love a Bad Name (Zurich, Switzerland 2000).wav

Pre-gap length 0:00:02.00

Peak level 99.9 %
Track quality 100.0 %
Test CRC 9B072A43
Copy CRC 9B072A43
Copy OK

Track 4

Filename C:\Documents and Settings\Administrator\My Documents\My music\04 - Keep the Faith (New York City, USA 2000).wav

Pre-gap length 0:00:02.00

Peak level 99.9 %
Track quality 99.9 %
Test CRC 75F0EEDD
Copy CRC 75F0EEDD
Copy OK

Track 5

Filename C:\Documents and Settings\Administrator\My Documents\My music\05 - Someday I'll Be Saturday Night (Melbourne, Australia 1995).wav

Pre-gap length 0:00:02.00

Peak level 99.9 %
Track quality 100.0 %
Test CRC 366731FE
Copy CRC 366731FE
Copy OK

Track 6

Filename C:\Documents and Settings\Administrator\My Documents\My music\06 - Rockin' in the Free World (Johannesburg, South Africa 1995).wav

Pre-gap length 0:00:02.00

Peak level 99.9 %
Track quality 99.9 %
Test CRC 04F2F825
Copy CRC 04F2F825
Copy OK

Track 7

Filename C:\Documents and Settings\Administrator\My Documents\My music\07 - Something to Believe In (Yokohama, Japan 1996).wav

Pre-gap length 0:00:02.00

Peak level 99.9 %
Track quality 100.0 %
Test CRC FFC4CAD9
Copy CRC FFC4CAD9
Copy OK

Track 8

Filename C:\Documents and Settings\Administrator\My Documents\My music\08 - Wanted Dead or Alive (New York City, USA 2000).wav

Pre-gap length 0:00:02.00

Peak level 99.9 %
Track quality 100.0 %
Test CRC CEC4F1EE
Copy CRC CEC4F1EE
Copy OK

Track 9

Filename C:\Documents and Settings\Administrator\My Documents\My music\09 - Runaway (Tokyo, Japan 1985).wav

Pre-gap length 0:00:02.00

Peak level 99.9 %
Track quality 100.0 %
Test CRC 469C2493
Copy CRC 469C2493
Copy OK

Track 10

Filename C:\Documents and Settings\Administrator\My Documents\My music\10 - In and Out of Love (Tokyo, Japan 1985).wav

Pre-gap length 0:00:02.00

Peak level 99.9 %
Track quality 100.0 %
Test CRC 7950E386
Copy CRC 7950E386
Copy OK

Track 11

Filename C:\Documents and Settings\Administrator\My Documents\My music\11 - I Don't Like Mondays (feat. Bob Geldof) (London, England 1995).wav

Pre-gap length 0:00:02.00

Peak level 99.9 %
Track quality 100.0 %
Test CRC 649DFADC
Copy CRC 649DFADC
Copy OK

Track 12

Filename C:\Documents and Settings\Administrator\My Documents\My music\12 - Just Older (Toronto, Canada 2000).wav

Pre-gap length 0:00:02.00

Peak level 99.9 %
Track quality 99.9 %
Test CRC 3D1C8D8B
Copy CRC 3D1C8D8B
Copy OK

Track 13

Filename C:\Documents and Settings\Administrator\My Documents\My music\13 - Somethng for the Pain (Melbourne, Australia 1995).wav

Pre-gap length 0:00:02.00

Peak level 99.9 %
Track quality 100.0 %
Test CRC 2E93FF36
Copy CRC 2E93FF36
Copy OK

Track 14

Filename C:\Documents and Settings\Administrator\My Documents\My music\14 - Bad Medicine (Zurich, Switzerland 2000).wav

Pre-gap length 0:00:02.00

Peak level 99.9 %
Track quality 100.0 %
Test CRC EEF28EC7
Copy CRC EEF28EC7
Copy OK

Track 15

Filename C:\Documents and Settings\Administrator\My Documents\My music\15 - One Wild Night 2001 (Toronto, Canada 2000).wav

Pre-gap length 0:00:02.00

Peak level 99.9 %
Track quality 100.0 %
Test CRC 540F989E
Copy CRC 540F989E
Copy OK

No errors occurred

End of status report


Торрент-файл обновлен 10.02.2016г, просьба перекачать
Правила, инструкции, FAQ!!!
Торрент  Добавлен [10 фев 2016, 22:36] Скачать торрент Магнет ссылка
Скачать торрент
129.36 КБ

Статус
Проверен 
 
Размер  13.64 ГБ
Приватный: Нет (DHT включён)
.torrent скачан  7
Как залить торрент? | Как скачать Torrent? | Как смотреть и слушать онлайн?  
Гость
 



Вернуться в Дискографии (Зарубежные)

Кто сейчас на конференции

Сейчас этот форум просматривают: нет зарегистрированных пользователей и гости: 0