Большой Бак в 3Д / Big Buck Bunny 3D (Саша Гудегебуре / Sacha Goedegebure) [2008, комедия, мультфильм, короткометражка, WEB-DLRip] Half OverUnder / Вертикальная анаморфная стереопара


Статистика раздачи
Размер: 484.38 МБ | Добавлен: 02 ноя 2014, 09:48 | Скачали: 1
Сидеров: 31  [0 байт/сек]    Личеров: 7  [0 байт/сек]

Сообщение Гость » 02 ноя 2014, 09:48

Большой Бак / Big Buck Bunny

Год выпуска: 2008
Страна: Нидерланды
Жанр: комедия, мультфильм, короткометражка
Продолжительность: 00:10:36
Перевод: Не требуется
Русские субтитры: нет

Режиссер: Саша Гудегебуре / Sacha Goedegebure

Описание: Большой Бак только проснулся в своей кроличьей норе, но три грызуна - Гамера, Фрэнк и Ринки - уже начали его доставать. Когда Гамера убивает бабочку, Бак решает что пора действовать!

Сэмпл: http://dfiles.ru/files/wbwwrkhd1



Качество: WEB-DLRip
Контейнер: AVI
Формат 3D: Half OverUnder / Вертикальная анаморфная стереопара
Порядок ракурсов: левый ракурс первый
Видео кодек: xVid
Аудио кодек: AC3
Видео: 1152x648, 30 fps, 5 820 Kbps, 0.260 bit/pixel
Аудио:AC-3, 48.0 kHz, 6ch, 320 Kbps
General
Format : AVI
Format/Info : Audio Video Interleave
File size : 484 MiB
Duration : 10mn 34s
Overall bit rate : 6 403 Kbps
Movie name : Big Buck Bunny, Sunflower version
Director : Blender Foundation 2008, Janus Bager Kristensen 2013
Genre : Animation
Writing application : Lavf55.44.100
Comment : Creative Commons Attribution 3.0 - http://bbb3d.renderfarming.net

Video
ID : 0
Format : xvid
Codec ID : xvid
Duration : 10mn 34s
Bit rate : 5 820 Kbps
Width : 1 152 pixels
Height : 648 pixels
Display aspect ratio : 16:9
Frame rate : 30.000 fps
Bits/(Pixel*Frame) : 0.260
Stream size : 440 MiB (91%)

Audio
ID : 1
Format : AC-3
Format/Info : Audio Coding 3
Codec ID : 00001000-0000-0020-8000-00AA00389B71
Duration : 10mn 34s
Bit rate : 320 Kbps
Channel count : 6 channels
Channel positions : Front: L C R, Side: L R, LFE
Sampling rate : 48.0 KHz
Bit depth : 16 bits
Compression mode : Lossy
Stream size : 24.2 MiB (5%)



Правила, инструкции, FAQ!!!
Торрент  Добавлен [02 ноя 2014, 09:48] Скачать торрент Магнет ссылка
Скачать торрент
19.4 КБ

Статус
Проверен 
 
Размер  484.38 МБ
Приватный: Нет (DHT включён)
.torrent скачан  1
Как залить торрент? | Как скачать Torrent? | Как смотреть и слушать онлайн?  
Гость
 



Вернуться в HD-Video в 3D

Кто сейчас на конференции

Сейчас этот форум просматривают: нет зарегистрированных пользователей и гости: 1