(Blues Piano) Champion Jack Dupree - All Night Long - Recorded Live In Concert - 1972 (1999), APE (image+.cue), lossless

Статистика раздачи
Размер: 152.51 МБ | Добавлен: 15 окт 2016, 21:08 | Скачали: 0
Сидеров: 0  [0 байт/сек]    Личеров: 0  [0 байт/сек]

Сообщение Гость » 15 окт 2016, 21:08

Champion Jack Dupree / All Night Long - Recorded Live In Concert

Жанр: Blues Piano
Страна-производитель диска: Germany
Год издания: 1972 (1999)
Издатель (лейбл): BEV Music AG
Номер по каталогу: 1703008-2
Страна: USA
Аудиокодек: APE (*.ape)
Тип рипа: image+.cue
Битрейт аудио: lossless
Продолжительность: 01:01:20
Источник (релизер): Someone Else
Наличие сканов в содержимом раздачи: да
Треклист:
01. All Night Long 06:34
02. Don't Mistreat A Good Woman 09:57
03. The Sheik Of Araby 03:01
04. Medley (a:Ain't That A Shame,b:Swanee River,c:Bluberry Hill) 08:03
05. Milk Cow Blues 07:36
06. Jack Dupree's Square Dance 03:08
07. Medley (a:Too Late, Too Late;b:I Feel Like A Millionaire) 07:23
08. Drum Solo 04:41
09. Yancey Special 10:56
Код: Выделить всё
Exact Audio Copy V1.0 beta 2 from 29. April 2011

Отчёт EAC об извлечении, выполненном 11. февраля 2013, 18:56

Champion Jack Dupree / All Night Long - Recorded Live In Concert

Дисковод: _NEC    DV-5800C   Adapter: 3  ID: 1

Режим чтения                 : Достоверность
Использование точного потока : Да
Отключение кэша аудио        : Да
Использование указателей C2  : Нет

Коррекция смещения при чтении                     : 12
Способность читать области Lead-in и Lead-out     : Нет
Заполнение пропущенных сэмплов тишиной            : Да
Удаление блоков с тишиной в начале и конце        : Нет
При вычислениях CRC использовались нулевые сэмплы : Нет
Интерфейс                                         : Встроенный Win32-интерфейс для Win NT/2000

Выходной формат : Внутренние WAV-операции
Формат сэмплов  : 44.100 Гц; 16 бит; стерео

TOC извлечённого CD

     Трек |   Старт  | Длительность | Начальный сектор | Конечный сектор
    ---------------------------------------------------------------------
       1  |  0:00.00 |    6:34.26   |           0      |      29575
       2  |  6:34.26 |    9:56.46   |       29576      |      74321
       3  | 16:30.72 |    3:01.24   |       74322      |      87920
       4  | 19:32.21 |    8:03.30   |       87921      |     124175
       5  | 27:35.51 |    7:36.32   |      124176      |     158407
       6  | 35:12.08 |    3:08.22   |      158408      |     172529
       7  | 38:20.30 |    7:22.51   |      172530      |     205730
       8  | 45:43.06 |    4:41.31   |      205731      |     226836
       9  | 50:24.37 |   10:55.72   |      226837      |     276033

Характеристики диапазона извлечения и сообщения об ошибках

Выбранный диапазон

     Имя файла D:\Champion Jack Dupree - All Night Long - Recorded Live In Concert.wav

     Пиковый уровень 98.8 %
     Скорость извлечения 8.1 X
     Качество диапазона 100.0 %
     CRC копии BD112914
     Копирование... OK

Ошибок не произошло

AccurateRip: сводка

Трек  1  отсутствует в базе данных
Трек  2  отсутствует в базе данных
Трек  3  отсутствует в базе данных
Трек  4  отсутствует в базе данных
Трек  5  отсутствует в базе данных
Трек  6  отсутствует в базе данных
Трек  7  отсутствует в базе данных
Трек  8  отсутствует в базе данных
Трек  9  отсутствует в базе данных

Ни одного трека нет в базе AccurateRip

Конец отчёта
Правила, инструкции, FAQ!!!
Торрент  Добавлен [15 окт 2016, 21:08] Скачать торрент Магнет ссылка
Скачать торрент
[ Размер 12.95 КБ / Просмотров 0 ]

Статус
Проверен 
 
Размер  152.51 МБ
Приватный: Нет (DHT включён)
.torrent скачан  0
Как залить торрент? | Как скачать Torrent? | Как смотреть и слушать онлайн?  
Гость
 


  • Похожие торренты
    Ответы
    Просмотры
    Последнее сообщение

Вернуться в Blues (Texas, Chicago, Modern and Others)

Кто сейчас на конференции

Сейчас этот форум просматривают: нет зарегистрированных пользователей и гости: 2