Блэйд: Трилогия / Blade: Trilogy (1998-2004) BDRip-AVC | D, P, P2, А

Статистика раздачи
Размер: 10.18 ГБ | Добавлен: 21 ноя 2013, 16:56 | Скачали: 26
Сидеров: 22  [0 байт/сек]    Личеров: 12  [0 байт/сек]

Сообщение Гость » 21 ноя 2013, 16:56

Название: Блэйд: Трилогия
Оригинальное название: Blade: Trilogy
Год выхода: 1998-2004
Жанр: Фантастика, ужасы, боевик
Режиссер: Стивен Норрингтон, Гильермо Дель Торо, Дэвид С. Гойер

В ролях: Уэсли Снайпс, Крис Кристофферсон, Стивен Дорфф, Н`Буш Райт, Донал Лог, Удо Кир, Арли Ховер, Трейси Лордс, Кевин Патрик Уоллс, Тим Гини, Рон Перлман, Леонор Варела, Норман Ридус, Томас Кречманн, Люк Госс, Мэтт Шульце, Дэнни Джон-Джулс, Донни Йен, Доминик Пёрселл, Джессика Бил, Райан Рейнольдс, Паркер Поузи, Марк Берри, Джон Майкл Хиггинс, Каллум Кит Ренни, Майкл Пол Левески

О фильме: Блэйд: Получеловек-полувампир Блэйд намерен уничтожить виновника своей судьбы — Дьякона Фроста. Когда-то в кровь Блэйда попало совсем немного вампирского яда, но с течением времени он стал ощущать неизбежность своего превращения. Желая избавить людей от тайной и могущественной армии вампиров, заполонившей общество, он отправляется на решающий бой…

Блэйд 2: Мир вампиров в ужасе от появления новой расы супер-кровососов! Именно благодаря этому, легендарный Блэйд и его учитель Уистлер вынуждены объединиться со своими кровными врагами Кровавой Стаей, — элитным отрядом вампиров-воинов.

Блэйд 3: Троица: Фатальные события могут привести к захвату власти в мире вампирами. Блэйд — единственный, кто может предотвратить страшные перемены и воспрепятствовать превращению мира в «Планету вампиров». Стремясь помешать Блэйду в реализации его плана, верхушка вампиров во главе с Даникой Талос натравливают на него людей. Полиция начинает охоту на того, кого теперь все считают жутким монстром…


----------------------------------------------------

----------------------------------------------------


Страна: США, Германия
Студия: Amen Ra Films, Imaginary Forces, Marvel Enterprises, New Line Cinema, Justin Pictures, Linovo Productions GmbH & Co. KG, Milk & Honey, Pacific Title & Art Studio, Shawn Danielle Productions Ltd.
Продолжительность: 02:00:16, 01:56:53, 01:52:52
Перевод: Дублированный, профессиональный (многоголосый закадровый), профессиональный (двухголосый закадровый, авторский (одноголосый закадровый)

Файл
Кодек: h.264
Качество: BDRip-AVC
Видео: ~ 2269 Кбит/с, 1024x436, 1024x576

Звук:
Блэйд | Blade [1998]
• №1: Русский (AC3, 6 ch, 384 Кбит/с) Дублированный
• №2: Русский (AC3, 6 ch, 384 Кбит/с) Профессиональный многоголосый [Киномания]
• №3: Русский (AC3, 6 ch, 384 Кбит/с) Профессиональный двухголосый [Петр Гланц и Инна Королева]
• №4: Русский (AC3, 6 ch, 384 Кбит/с) авторский одноголосый [Андрей Гаврилов]
• №5: Русский (AC3, 6 ch, 384 Кбит/с) Авторский одноголосый [Юрий Живов]
• №6: Русский (AC3, 6 ch, 384 Кбит/с) Авторский одноголосый [Дмитрий Пучков "Гоблин"]
• №7: Английский (AC3, 6 ch, 384 Кбит/с)

Блэйд 2 | Blade II [2002]
• №1: Русский (AC3, 6 ch, 384 Кбит/с) Дублированный
• №2: Русский (AC3, 6 ch, 384 Кбит/с) Профессиональный двухголосый [Петр Гланц и Инна Королева]
• №3: Русский (AC3, 6 ch, 384 Кбит/с) Авторский одноголосый [Юрий Живов]
• №4: Русский (AC3, 6 ch, 384 Кбит/с) Авторский одноголосый [Дмитрий Пучков "Гоблин"]
• №5: Английский (AC3, 6 ch, 384 Кбит/с)

Блэйд 3: Троица | Blade: Trinity [2004]
• №1: Русский (AC3, 6 ch, 384 Кбит/с) Дублированный
• №2: Английский (AC3, 6 ch, 384 Кбит/с)

Субтитры: Русские, английские

-------------------------------------------------------------------
x264 [info]: frame I:1452 Avg QP:16.29 size: 66171
x264 [info]: frame P:44754 Avg QP:19.42 size: 23199
x264 [info]: frame B:126810 Avg QP:21.00 size: 7644
-------------------------------------------------------------------

Полное имя : Blade.1998.x264.BDRip.(AVC).0ptimus.mkv
Формат : Matroska
Версия формата : Version 4 / Version 2
Размер файла : 4,22 Гбайт
Продолжительность : 2 ч. 0 м.
Общий поток : 5023 Кбит/сек
Название фильма : Блэйд | Blade [1998] -=BDRip (AVC) by 0ptimus=-
Дата кодирования : UTC 2013-11-16 14:54:18
Программа кодирования : mkvmerge v6.1.0 ('Old Devil') built on Mar 2 2013 14:32:37
Библиотека кодирования : libebml v1.3.0 + libmatroska v1.4.0

Видео
Идентификатор : 1
Формат : AVC
Формат/Информация : Advanced Video Codec
Профиль формата : High@L4.1
Параметр CABAC формата : Да
Параметр ReFrames формата : 9 кадров
Идентификатор кодека : V_MPEG4/ISO/AVC
Продолжительность : 2 ч. 0 м.
Битрейт : 2333 Кбит/сек
Ширина : 1024 пикселя
Высота : 436 пикселей
Соотношение сторон : 2,35:1
Частота кадров : 23,976 кадра/сек
Цветовое пространство : YUV
Субдискретизация насыщенности : 4:2:0
Битовая глубина : 8 бит
Тип развёртки : Прогрессивная
Бит/(Пиксели*Кадры) : 0.218
Размер потока : 1,88 Гбайт (44%)
Заголовок : Rip by 0ptimus
Библиотека кодирования : x264 core 133 r2334 a3ac64b
Настройки программы : cabac=1 / ref=9 / deblock=1:-3:-3 / analyse=0x3:0x113 / me=umh / subme=11 / psy=1 / psy_rd=1.00:0.20 / mixed_ref=1 / me_range=48 / chroma_me=1 / trellis=2 / 8x8dct=1 / cqm=0 / deadzone=21,11 / fast_pskip=0 / chroma_qp_offset=-3 / threads=4 / lookahead_threads=1 / sliced_threads=0 / nr=0 / decimate=0 / interlaced=0 / bluray_compat=0 / constrained_intra=0 / bframes=10 / b_pyramid=2 / b_adapt=2 / b_bias=0 / direct=3 / weightb=1 / open_gop=0 / weightp=2 / keyint=240 / keyint_min=23 / scenecut=40 / intra_refresh=0 / rc_lookahead=40 / rc=2pass / mbtree=0 / bitrate=2333 / ratetol=1.0 / qcomp=0.60 / qpmin=0 / qpmax=69 / qpstep=4 / cplxblur=20.0 / qblur=0.5 / vbv_maxrate=50000 / vbv_bufsize=50000 / nal_hrd=none / ip_ratio=1.40 / pb_ratio=1.30 / aq=1:1.00
Язык : English

Аудио #1
Идентификатор : 2
Формат : AC-3
Формат/Информация : Audio Coding 3
Расширение режима : CM (complete main)
Идентификатор кодека : A_AC3
Продолжительность : 2 ч. 0 м.
Вид битрейта : Постоянный
Битрейт : 384 Кбит/сек
Каналы : 6 каналов
Расположение каналов : Front: L C R, Side: L R, LFE
Частота : 48,0 КГц
Битовая глубина : 16 бит
Метод сжатия : С потерями
Размер потока : 330 Мбайт (8%)
Заголовок : Дублированный AC3 5.1 @ 384 kbps
Язык : Russian

Аудио #2
Идентификатор : 3
Формат : AC-3
Формат/Информация : Audio Coding 3
Расширение режима : CM (complete main)
Идентификатор кодека : A_AC3
Продолжительность : 2 ч. 0 м.
Вид битрейта : Постоянный
Битрейт : 384 Кбит/сек
Каналы : 6 каналов
Расположение каналов : Front: L C R, Side: L R, LFE
Частота : 48,0 КГц
Битовая глубина : 16 бит
Метод сжатия : С потерями
Размер потока : 330 Мбайт (8%)
Заголовок : Многоголосый [Киномания] AC3 5.1 @ 384 kbps
Язык : Russian

Аудио #3
Идентификатор : 4
Формат : AC-3
Формат/Информация : Audio Coding 3
Расширение режима : CM (complete main)
Идентификатор кодека : A_AC3
Продолжительность : 2 ч. 0 м.
Вид битрейта : Постоянный
Битрейт : 384 Кбит/сек
Каналы : 6 каналов
Расположение каналов : Front: L C R, Side: L R, LFE
Частота : 48,0 КГц
Битовая глубина : 16 бит
Метод сжатия : С потерями
Размер потока : 330 Мбайт (8%)
Заголовок : Двухголосый [Петр Гланц и Инна Королева] AC3 5.1 @ 384 kbps
Язык : Russian

Аудио #4
Идентификатор : 5
Формат : AC-3
Формат/Информация : Audio Coding 3
Расширение режима : CM (complete main)
Идентификатор кодека : A_AC3
Продолжительность : 2 ч. 0 м.
Вид битрейта : Постоянный
Битрейт : 384 Кбит/сек
Каналы : 6 каналов
Расположение каналов : Front: L C R, Side: L R, LFE
Частота : 48,0 КГц
Битовая глубина : 16 бит
Метод сжатия : С потерями
Размер потока : 330 Мбайт (8%)
Заголовок : Авторский [Андрей Гаврилов] AC3 5.1 @ 384 kbps
Язык : Russian

Аудио #5
Идентификатор : 6
Формат : AC-3
Формат/Информация : Audio Coding 3
Расширение режима : CM (complete main)
Идентификатор кодека : A_AC3
Продолжительность : 2 ч. 0 м.
Вид битрейта : Постоянный
Битрейт : 384 Кбит/сек
Каналы : 6 каналов
Расположение каналов : Front: L C R, Side: L R, LFE
Частота : 48,0 КГц
Битовая глубина : 16 бит
Метод сжатия : С потерями
Размер потока : 330 Мбайт (8%)
Заголовок : Авторский [Юрий Живов] AC3 5.1 @ 384 kbps
Язык : Russian

Аудио #6
Идентификатор : 7
Формат : AC-3
Формат/Информация : Audio Coding 3
Расширение режима : CM (complete main)
Идентификатор кодека : A_AC3
Продолжительность : 2 ч. 0 м.
Вид битрейта : Постоянный
Битрейт : 384 Кбит/сек
Каналы : 6 каналов
Расположение каналов : Front: L C R, Side: L R, LFE
Частота : 48,0 КГц
Битовая глубина : 16 бит
Метод сжатия : С потерями
Размер потока : 330 Мбайт (8%)
Заголовок : Авторский [Дмитрий Пучков "Гоблин"] AC3 5.1 @ 384 kbps
Язык : Russian

Аудио #7
Идентификатор : 8
Формат : AC-3
Формат/Информация : Audio Coding 3
Расширение режима : CM (complete main)
Идентификатор кодека : A_AC3
Продолжительность : 2 ч. 0 м.
Вид битрейта : Постоянный
Битрейт : 384 Кбит/сек
Каналы : 6 каналов
Расположение каналов : Front: L C R, Side: L R, LFE
Частота : 48,0 КГц
Битовая глубина : 16 бит
Метод сжатия : С потерями
Размер потока : 330 Мбайт (8%)
Язык : English

Текст #1
Идентификатор : 9
Формат : UTF-8
Идентификатор кодека : S_TEXT/UTF8
Идентификатор кодека/Информация : UTF-8 Plain Text
Заголовок : SDH
Язык : English

Текст #2
Идентификатор : 10
Формат : UTF-8
Идентификатор кодека : S_TEXT/UTF8
Идентификатор кодека/Информация : UTF-8 Plain Text
Заголовок : v.1
Язык : Russian

Текст #3
Идентификатор : 11
Формат : UTF-8
Идентификатор кодека : S_TEXT/UTF8
Идентификатор кодека/Информация : UTF-8 Plain Text
Заголовок : v.2
Язык : Russian

Меню
00:00:00.000 : en:1. Opening Titles - The Birth of the Daywalker
00:02:04.332 : en:2. Blind Date
00:03:06.227 : en:3. Club Blood
00:06:49.534 : en:4. The Daywalker
00:09:49.547 : en:5. "Put Him Out."
00:11:00.618 : en:6. The Mighty Quinn
00:13:47.201 : en:7. Saving Karen
00:16:58.058 : en:8. Blade's Lair
00:19:33.338 : en:9. The House of Erebus
00:22:50.452 : en:10. The Herbalist
00:23:44.798 : en:11. The Injection
00:27:28.063 : en:12. Rules of Encounter
00:31:04.404 : en:13. In the Archives
00:33:02.814 : en:14. The Glyphs
00:35:01.599 : en:15. Cops and Robbers
00:39:19.982 : en:16. Waiting for Prey
00:41:47.254 : en:17. Schoolgirl Rap
00:44:31.627 : en:18. Rooftop Party
00:47:35.143 : en:19. Pearl Before Swine
00:50:10.966 : en:20. Pages From the Book
00:54:01.363 : en:21. Company Calls
00:57:10.093 : en:22. "No. I'm Something Else."
00:58:08.485 : en:23. The Story of Blade
01:01:33.064 : en:24. First Dawn and Last
01:05:21.626 : en:25. Secrets of the Blood
01:08:59.552 : en:26. Spf 36
01:12:45.652 : en:27. The Raid
01:14:50.777 : en:28. "You're the Chosen One."
01:19:15.459 : en:29. Cutting Off Roots
01:22:38.995 : en:30. The Gate Crasher
01:25:00.345 : en:31. A Mother's Love
01:27:56.980 : en:32. The Temple of the Night
01:31:32.945 : en:33. Everyone to Their Places
01:34:34.877 : en:34. The Sarcophagus of the Daywalker
01:37:00.439 : en:35. The Ceremony
01:40:33.444 : en:36. Frost vs. the Daywalker
01:54:02.835 : en:37. Moscow Nights
01:55:13.489 : en:38. End Credits

-------------------------------------------------------------------
x264 [info]: frame I:1259 Avg QP:14.79 size: 97716
x264 [info]: frame P:45819 Avg QP:18.58 size: 25612
x264 [info]: frame B:121067 Avg QP:20.48 size: 6736
-------------------------------------------------------------------

Полное имя : Blade-2.2002.x264.BDRip.(AVC).0ptimus.mkv
Формат : Matroska
Версия формата : Version 4 / Version 2
Размер файла : 3,54 Гбайт
Продолжительность : 1 ч. 56 м.
Общий поток : 4332 Кбит/сек
Название фильма : Блэйд 2 | Blade II [2002] -=BDRip (AVC) by 0ptimus=-
Дата кодирования : UTC 2013-11-16 14:31:25
Программа кодирования : mkvmerge v6.1.0 ('Old Devil') built on Mar 2 2013 14:32:37
Библиотека кодирования : libebml v1.3.0 + libmatroska v1.4.0

Видео
Идентификатор : 1
Формат : AVC
Формат/Информация : Advanced Video Codec
Профиль формата : High@L4.1
Параметр CABAC формата : Да
Параметр ReFrames формата : 9 кадров
Идентификатор кодека : V_MPEG4/ISO/AVC
Продолжительность : 1 ч. 56 м.
Битрейт : 2411 Кбит/сек
Ширина : 1024 пикселя
Высота : 576 пикселей
Соотношение сторон : 16:9
Частота кадров : 23,976 кадра/сек
Цветовое пространство : YUV
Субдискретизация насыщенности : 4:2:0
Битовая глубина : 8 бит
Тип развёртки : Прогрессивная
Бит/(Пиксели*Кадры) : 0.170
Размер потока : 1,90 Гбайт (54%)
Заголовок : Rip by 0ptimus
Библиотека кодирования : x264 core 133 r2334 a3ac64b
Настройки программы : cabac=1 / ref=9 / deblock=1:-3:-3 / analyse=0x3:0x113 / me=umh / subme=11 / psy=1 / psy_rd=1.00:0.20 / mixed_ref=1 / me_range=48 / chroma_me=1 / trellis=2 / 8x8dct=1 / cqm=0 / deadzone=21,11 / fast_pskip=0 / chroma_qp_offset=-3 / threads=4 / lookahead_threads=1 / sliced_threads=0 / nr=0 / decimate=0 / interlaced=0 / bluray_compat=0 / constrained_intra=0 / bframes=11 / b_pyramid=2 / b_adapt=2 / b_bias=0 / direct=3 / weightb=1 / open_gop=0 / weightp=2 / keyint=240 / keyint_min=23 / scenecut=40 / intra_refresh=0 / rc_lookahead=40 / rc=2pass / mbtree=0 / bitrate=2411 / ratetol=1.0 / qcomp=0.60 / qpmin=0 / qpmax=69 / qpstep=4 / cplxblur=20.0 / qblur=0.5 / vbv_maxrate=50000 / vbv_bufsize=50000 / nal_hrd=none / ip_ratio=1.40 / pb_ratio=1.30 / aq=1:1.00
Язык : English

Аудио #1
Идентификатор : 2
Формат : AC-3
Формат/Информация : Audio Coding 3
Расширение режима : CM (complete main)
Идентификатор кодека : A_AC3
Продолжительность : 1 ч. 56 м.
Вид битрейта : Постоянный
Битрейт : 384 Кбит/сек
Каналы : 6 каналов
Расположение каналов : Front: L C R, Side: L R, LFE
Частота : 48,0 КГц
Битовая глубина : 16 бит
Метод сжатия : С потерями
Размер потока : 321 Мбайт (9%)
Заголовок : Дублированный AC3 5.1 @ 384 kbps
Язык : Russian

Аудио #2
Идентификатор : 3
Формат : AC-3
Формат/Информация : Audio Coding 3
Расширение режима : CM (complete main)
Идентификатор кодека : A_AC3
Продолжительность : 1 ч. 56 м.
Вид битрейта : Постоянный
Битрейт : 384 Кбит/сек
Каналы : 6 каналов
Расположение каналов : Front: L C R, Side: L R, LFE
Частота : 48,0 КГц
Битовая глубина : 16 бит
Метод сжатия : С потерями
Размер потока : 321 Мбайт (9%)
Заголовок : Двухголосый [Петр Гланц и Инна Королева] AC3 5.1 @ 384 kbps
Язык : Russian

Аудио #3
Идентификатор : 4
Формат : AC-3
Формат/Информация : Audio Coding 3
Расширение режима : CM (complete main)
Идентификатор кодека : A_AC3
Продолжительность : 1 ч. 56 м.
Вид битрейта : Постоянный
Битрейт : 384 Кбит/сек
Каналы : 6 каналов
Расположение каналов : Front: L C R, Side: L R, LFE
Частота : 48,0 КГц
Битовая глубина : 16 бит
Метод сжатия : С потерями
Размер потока : 321 Мбайт (9%)
Заголовок : Авторский [Юрий Живов] AC3 5.1 @ 384 kbps
Язык : Russian

Аудио #4
Идентификатор : 5
Формат : AC-3
Формат/Информация : Audio Coding 3
Расширение режима : CM (complete main)
Идентификатор кодека : A_AC3
Продолжительность : 1 ч. 56 м.
Вид битрейта : Постоянный
Битрейт : 384 Кбит/сек
Каналы : 6 каналов
Расположение каналов : Front: L C R, Side: L R, LFE
Частота : 48,0 КГц
Битовая глубина : 16 бит
Метод сжатия : С потерями
Размер потока : 321 Мбайт (9%)
Заголовок : Авторский [Дмитрий Пучков "Гоблин"] AC3 5.1 @ 384 kbps
Язык : Russian

Аудио #5
Идентификатор : 6
Формат : AC-3
Формат/Информация : Audio Coding 3
Расширение режима : CM (complete main)
Идентификатор кодека : A_AC3
Продолжительность : 1 ч. 56 м.
Вид битрейта : Постоянный
Битрейт : 384 Кбит/сек
Каналы : 6 каналов
Расположение каналов : Front: L C R, Side: L R, LFE
Частота : 48,0 КГц
Битовая глубина : 16 бит
Метод сжатия : С потерями
Размер потока : 321 Мбайт (9%)
Заголовок : AC3 5.1 @ 384 kbps
Язык : English

Текст #1
Идентификатор : 7
Формат : UTF-8
Идентификатор кодека : S_TEXT/UTF8
Идентификатор кодека/Информация : UTF-8 Plain Text
Язык : English

Текст #2
Идентификатор : 8
Формат : UTF-8
Идентификатор кодека : S_TEXT/UTF8
Идентификатор кодека/Информация : UTF-8 Plain Text
Заголовок : v.1
Язык : Russian

Текст #3
Идентификатор : 9
Формат : UTF-8
Идентификатор кодека : S_TEXT/UTF8
Идентификатор кодека/Информация : UTF-8 Plain Text
Заголовок : v.2
Язык : Russian

Меню
00:00:00.000 : en:Blood Donors / Main Title
00:05:03.136 : en:Bike the Bullet
00:08:45.358 : en:Blood Lines
00:10:58.658 : en:"Detox"
00:17:00.644 : en:Suspicious Activity
00:23:12.891 : en:"Cancer with a Purpose"
00:27:50.377 : en:Healthy Skepticism
00:28:37.090 : en:Dealer Frenzy
00:30:03.885 : en:Leadership Training
00:33:27.630 : en:"the House of Pain"
00:52:03.537 : en:Immunity Challenge
00:55:23.445 : en:Mutant Misery
00:58:13.615 : en:Blood Bath
00:59:13.883 : en:Carrier Autopsy
01:03:29.764 : en:"Keep Your Enemies Closer"
01:08:14.423 : en:Daylight Hunting
01:14:30.257 : en:"Regroup"
01:18:51.727 : en:Collateral Damage
01:22:00.790 : en:Designing Vermin
01:32:09.232 : en:Thirst Quenching
01:38:02.751 : en:Prodigal Son
01:46:24.378 : en:Romantic Sunrise
01:48:28.460 : en:Loose End
01:49:13.964 : en:End Credits

-------------------------------------------------------------------
x264 [info]: frame I:1401 Avg QP:16.19 size: 61828
x264 [info]: frame P:45017 Avg QP:19.08 size: 21243
x264 [info]: frame B:116040 Avg QP:20.58 size: 7859
-------------------------------------------------------------------

Полное имя : Blade.Trinity.2004.x264.BDRip.(AVC).0ptimus.mkv
Формат : Matroska
Версия формата : Version 4 / Version 2
Размер файла : 2,43 Гбайт
Продолжительность : 1 ч. 52 м.
Общий поток : 3078 Кбит/сек
Название фильма : Блэйд 3: Троица | Blade: Trinity [2004] -=BDRip (AVC) by 0ptimus=-
Дата кодирования : UTC 2013-11-16 13:50:19
Программа кодирования : mkvmerge v6.1.0 ('Old Devil') built on Mar 2 2013 14:32:37
Библиотека кодирования : libebml v1.3.0 + libmatroska v1.4.0

Видео
Идентификатор : 1
Формат : AVC
Формат/Информация : Advanced Video Codec
Профиль формата : High@L4.1
Параметр CABAC формата : Да
Параметр ReFrames формата : 9 кадров
Идентификатор кодека : V_MPEG4/ISO/AVC
Продолжительность : 1 ч. 52 м.
Битрейт : 2308 Кбит/сек
Ширина : 1024 пикселя
Высота : 436 пикселей
Соотношение сторон : 2,35:1
Частота кадров : 23,976 кадра/сек
Цветовое пространство : YUV
Субдискретизация насыщенности : 4:2:0
Битовая глубина : 8 бит
Тип развёртки : Прогрессивная
Бит/(Пиксели*Кадры) : 0.216
Размер потока : 1,77 Гбайт (73%)
Заголовок : Rip by 0ptimus
Библиотека кодирования : x264 core 133 r2334 a3ac64b
Настройки программы : cabac=1 / ref=9 / deblock=1:-3:-3 / analyse=0x3:0x113 / me=umh / subme=11 / psy=1 / psy_rd=1.00:0.20 / mixed_ref=1 / me_range=48 / chroma_me=1 / trellis=2 / 8x8dct=1 / cqm=0 / deadzone=21,11 / fast_pskip=0 / chroma_qp_offset=-3 / threads=4 / lookahead_threads=1 / sliced_threads=0 / nr=0 / decimate=0 / interlaced=0 / bluray_compat=0 / constrained_intra=0 / bframes=11 / b_pyramid=2 / b_adapt=2 / b_bias=0 / direct=3 / weightb=1 / open_gop=0 / weightp=2 / keyint=240 / keyint_min=23 / scenecut=40 / intra_refresh=0 / rc_lookahead=40 / rc=2pass / mbtree=0 / bitrate=2308 / ratetol=1.0 / qcomp=0.60 / qpmin=0 / qpmax=69 / qpstep=4 / cplxblur=20.0 / qblur=0.5 / vbv_maxrate=50000 / vbv_bufsize=50000 / nal_hrd=none / ip_ratio=1.40 / pb_ratio=1.30 / aq=1:1.00
Язык : English

Аудио #1
Идентификатор : 2
Формат : AC-3
Формат/Информация : Audio Coding 3
Расширение режима : CM (complete main)
Идентификатор кодека : A_AC3
Продолжительность : 1 ч. 52 м.
Вид битрейта : Постоянный
Битрейт : 384 Кбит/сек
Каналы : 6 каналов
Расположение каналов : Front: L C R, Side: L R, LFE
Частота : 48,0 КГц
Битовая глубина : 16 бит
Метод сжатия : С потерями
Размер потока : 310 Мбайт (12%)
Заголовок : Дублированный AC3 5.1 @ 384 kbps
Язык : Russian

Аудио #2
Идентификатор : 3
Формат : AC-3
Формат/Информация : Audio Coding 3
Расширение режима : CM (complete main)
Идентификатор кодека : A_AC3
Продолжительность : 1 ч. 52 м.
Вид битрейта : Постоянный
Битрейт : 384 Кбит/сек
Каналы : 6 каналов
Расположение каналов : Front: L C R, Side: L R, LFE
Частота : 48,0 КГц
Битовая глубина : 16 бит
Метод сжатия : С потерями
Размер потока : 310 Мбайт (12%)
Заголовок : AC3 5.1 @ 384 kbps
Язык : English

Текст #1
Идентификатор : 4
Формат : UTF-8
Идентификатор кодека : S_TEXT/UTF8
Идентификатор кодека/Информация : UTF-8 Plain Text
Язык : Russian

Текст #2
Идентификатор : 5
Формат : UTF-8
Идентификатор кодека : S_TEXT/UTF8
Идентификатор кодека/Информация : UTF-8 Plain Text
Язык : English

Меню
00:00:00.000 : en:Syrian Desert
00:06:47.407 : en:Main Titles/Human
00:12:59.361 : en:New Junter
00:17:16.076 : en:Losing the War
00:18:48.418 : en:Abigail
00:22:48.283 : en:Shoot to Kill
00:27:05.623 : en:Dr Vance
00:34:22.894 : en:A Rescue
00:41:07.673 : en:The Nightstalkers
00:45:40.904 : en:Dracula
00:50:55.886 : en:Daystar
00:54:10.747 : en:Hunting
00:58:08.026 : en:It's Drake
01:08:05.164 : en:The Final Solution
01:17:54.711 : en:Use It
01:21:59.915 : en:Target Practice
01:28:32.056 : en:Friends Are Coming
01:33:30.229 : en:The Fat Lady Sings
01:41:31.710 : en:Drake vs Blade
01:46:13.158 : en:Thirst Always Wins
01:50:45.013 : en:The War Never Ends
01:53:51.991 : en:End Credits




Релиз от:
Правила, инструкции, FAQ!!!
Торрент  Добавлен [21 ноя 2013, 16:56] Скачать торрент Магнет ссылка
Скачать торрент
[ Размер 26.43 КБ / Просмотров 25 ]

Статус
Проверен 
 
Размер  10.18 ГБ
Приватный: Нет (DHT включён)
.torrent скачан  26
Как залить торрент? | Как скачать Torrent? | Как смотреть и слушать онлайн?  
Гость
 


  • Похожие торренты
    Ответы
    Просмотры
    Последнее сообщение

Вернуться в Трилогии

Кто сейчас на конференции

Сейчас этот форум просматривают: нет зарегистрированных пользователей и гости: 0