Библиотекарь: Трилогия / The Librarian: Trilogy (2004-2008) BDRip 720p


Статистика раздачи
Размер: 14.33 ГБ | Добавлен: 27 окт 2014, 17:56 | Скачали: 153
Сидеров: 93  [0 байт/сек]    Личеров: 42  [0 байт/сек]

Сообщение Гость » 27 окт 2014, 17:56

Библиотекарь: В поисках копья судьбы / The Librarian: Quest for the Spear (2004)


Информация о фильме
Название: Библиотекарь: В поисках копья судьбы
Оригинальное название: The Librarian: Quest for the Spear
Год выхода: 2004
Жанр: фэнтези, боевик, приключения
Режиссер: Питер Уинтер
В ролях: Ноа Уайли, Соня Уолгер, Боб Ньюхарт, Кайл МакЛоклен, Келли Ху, Дэвид Дайан Фишер, Джейн Куртин, Олимпия Дукакис, Лиза Бреннер, Марио Иван Мартинес

О фильме: Из тайных хранилищ Нью-Йоркской Публичной библиотеки похищен магический артефакт — фрагмент Копья Судьбы. Библиотекарь Флинн Карсен должен вернуть его любой ценой и заодно найти оставшиеся два фрагмента прежде, чем ими завладеют злодеи...



Страна: USA, Germany
Студия: Turner Network Television (TNT), Electric Entertainment, ApolloProScreen Filmproduktion
Продолжительность: 01:30:13
Перевод: профессиональный (многоголосый закадровый)
Субтитры: русские, английские

Файл
Кодек: MPEG-4 AVC/H.264
Качество: BDRip [720p]
Видео: 1280 x 720, (16:9), 6 297 kbps, 25.000 fps, 0.273 b/px
Звук:
Аудио # 1: AC3, 6 ch, 448 kbps, 48 000 Hz [Многоголосый закадровый (R5 - СОЮЗ Видео)]
Аудио # 2: АС3, 2 ch, 192 kbps, 48 000 Hz [Многоголосый закадровый (ICTV) (Украинский)]
Аудио # 3: AC3, 6 ch, 640 kbps, 48 000 Hz [Оригинальный]

Общее
Уникальный идентификатор : 192628124482271270882500599321062146027 (0x90EAD3CA66DA044CBC077A4EE4FDFFEB)
Полное имя : E:Video-TorrentБиблиотекарь. Трилогия [BDRip] [720p][2004] Библиотекарь. В поисках копья судьбы [BDRip] [720p].mkv
Формат : Matroska
Версия формата : Version 4 / Version 2
Размер файла : 4,77 Гбайт
Продолжительность : 1 ч. 30 м.
Общий поток : 7572 Кбит/сек
Название фильма : Библиотекарь: В поисках копья судьбы / The Librarian: Quest for the Spear (2004) BDRip [720]
Дата кодирования : UTC 2014-10-26 20:51:10
Программа кодирования : mkvmerge v7.2.0 ('On Every Street') 32bit built on Sep 13 2014 15:42:11
Библиотека кодирования : libebml v1.3.0 + libmatroska v1.4.1
DURATION : 01:27:36.683000000
NUMBER_OF_FRAMES : 963
NUMBER_OF_BYTES : 33747
_STATISTICS_WRITING_APP : mkvmerge v7.2.0 ('On Every Street') 32bit built on Sep 13 2014 15:42:11
_STATISTICS_WRITING_DATE_UTC : 2014-10-26 20:51:10
_STATISTICS_TAGS : BPS DURATION NUMBER_OF_FRAMES NUMBER_OF_BYTES

Видео
Идентификатор : 1
Формат : AVC
Формат/Информация : Advanced Video Codec
Профиль формата : High@L4.1
Параметр CABAC формата : Да
Параметр ReFrames формата : 5 кадров
Идентификатор кодека : V_MPEG4/ISO/AVC
Продолжительность : 1 ч. 30 м.
Битрейт : 6297 Кбит/сек
Ширина : 1280 пикселей
Высота : 720 пикселей
Соотношение сторон : 16:9
Режим частоты кадров : Постоянный
Частота кадров : 25,000 кадров/сек
Цветовое пространство : YUV
Субдискретизация насыщенности : 4:2:0
Битовая глубина : 8 бит
Тип развёртки : Прогрессивная
Бит/(Пиксели*Кадры) : 0.273
Размер потока : 3,87 Гбайт (81%)
Заголовок : [2004] Библиотекарь. В поисках копья судьбы [BDRip] [720p]
Библиотека кодирования : x264 core 67 r1134M b8808bf
Настройки программы : cabac=1 / ref=5 / deblock=1:-1:-1 / analyse=0x3:0x113 / me=umh / subme=7 / psy_rd=1.0:0.0 / mixed_ref=1 / me_range=16 / chroma_me=1 / trellis=2 / 8x8dct=1 / cqm=0 / deadzone=21,11 / chroma_qp_offset=-2 / threads=6 / nr=0 / decimate=1 / mbaff=0 / bframes=3 / b_pyramid=0 / b_adapt=2 / b_bias=0 / direct=3 / wpredb=1 / keyint=250 / keyint_min=25 / scenecut=40 / rc=2pass / bitrate=6297 / ratetol=1.0 / qcomp=0.60 / qpmin=10 / qpmax=51 / qpstep=4 / cplxblur=20.0 / qblur=0.5 / vbv_maxrate=50000 / vbv_bufsize=50000 / ip_ratio=1.40 / pb_ratio=1.30 / aq=1:1.00
Язык : English
Default : Да
Forced : Нет

Аудио #1
Идентификатор : 2
Формат : AC-3
Формат/Информация : Audio Coding 3
Расширение режима : CM (complete main)
Параметр Endianness формата : Big
Идентификатор кодека : A_AC3
Продолжительность : 1 ч. 30 м.
Вид битрейта : Постоянный
Битрейт : 448 Кбит/сек
Каналы : 6 каналов
Расположение каналов : Front: L C R, Side: L R, LFE
Частота : 48,0 КГц
Битовая глубина : 16 бит
Метод сжатия : С потерями
Размер потока : 289 Мбайт (6%)
Заголовок : Многоголосый закадровый R5 - СОЮЗ Видео
Язык : Russian
Default : Да
Forced : Нет

Аудио #2
Идентификатор : 3
Формат : AC-3
Формат/Информация : Audio Coding 3
Расширение режима : CM (complete main)
Параметр Endianness формата : Big
Идентификатор кодека : A_AC3
Продолжительность : 1 ч. 30 м.
Вид битрейта : Постоянный
Битрейт : 192 Кбит/сек
Каналы : 2 канала
Расположение каналов : Front: L R
Частота : 48,0 КГц
Битовая глубина : 16 бит
Метод сжатия : С потерями
Размер потока : 124 Мбайт (3%)
Заголовок : Многоголосый закадровый ICTV
Язык : Ukrainian
Default : Нет
Forced : Нет

Аудио #3
Идентификатор : 4
Формат : AC-3
Формат/Информация : Audio Coding 3
Расширение режима : CM (complete main)
Параметр Endianness формата : Big
Идентификатор кодека : A_AC3
Продолжительность : 1 ч. 30 м.
Вид битрейта : Постоянный
Битрейт : 640 Кбит/сек
Каналы : 6 каналов
Расположение каналов : Front: L C R, Side: L R, LFE
Частота : 48,0 КГц
Битовая глубина : 16 бит
Метод сжатия : С потерями
Размер потока : 413 Мбайт (8%)
Заголовок : Оригинальный
Язык : English
Default : Нет
Forced : Нет

Текст #1
Идентификатор : 5
Формат : UTF-8
Идентификатор кодека : S_TEXT/UTF8
Идентификатор кодека/Информация : UTF-8 Plain Text
Заголовок : Русские
Язык : Russian
Default : Нет
Forced : Нет

Текст #2
Идентификатор : 6
Формат : UTF-8
Идентификатор кодека : S_TEXT/UTF8
Идентификатор кодека/Информация : UTF-8 Plain Text
Заголовок : English
Язык : English
Default : Нет
Forced : Нет




Библиотекарь 2: Возвращение в Копи Царя Соломона / The Librarian: Return to King Solomon's Mines (2006)

#777
Информация о фильме
Название: Библиотекарь 2: Возвращение в Копи Царя Соломона
Оригинальное название: The Librarian: Return to King Solomon's Mines
Год выхода: 2006
Жанр: фэнтези, боевик, приключения
Режиссер: Джонатан Фрейкс
В ролях: Ноа Уайли, Габриель Анвар, Боб Ньюхарт, Джейн Куртин, Олимпия Дукакис, Эрик Авари, Хаким Кае-Казим, Роберт Фоксуорт, Занн МаКларнон, Лиза Бреннер

О фильме: Флин Карсен, интеллигентный юноша, сотрудник Нью Йоркской библиотеки. Но в его душе всегда жила страсть к приключениям, тайнам и всему тому, чем грезит любой мальчишка. Однажды, ему на глаза попадается интереснейший труд о легендарных Копях Царя Соломона. Флин решает найти мифические сокровища, променяв затхлый воздух помещения и книжных клопов на дух романтики и авантюризма…



Страна: USA
Студия: Turner Network Television (TNT), Electric Entertainment, Blue Sky Films
Продолжительность: 01:32:03
Перевод: профессиональный (многоголосый закадровый)
Субтитры: русские, английские

Файл
Кодек: MPEG-4 AVC/H.264
Качество: BDRip [720p]
Видео: 1280 x 720, (16:9), 6 159 kbps, 23.976 fps, 0.279 b/px
Звук:
Аудио # 1: AC3, 6 ch, 448 kbps, 48 000 Hz [Многоголосый закадровый (R5 - СОЮЗ Видео)]
Аудио # 2: АС3, 2 ch, 192 kbps, 48 000 Hz [Многоголосый закадровый (ICTV) (Украинский)]
Аудио # 3: AC3, 6 ch, 640 kbps, 48 000 Hz [Оригинальный]
Общее
Уникальный идентификатор : 214978781591629747642441827959458407267 (0xA1BB6843FEB3D82EB33E16CC0202A363)
Полное имя : E:Video-TorrentБиблиотекарь. Трилогия [BDRip] [720p][2006] Библиотекарь 2. Возвращение в Копи Царя Соломона [BDRip] [720p].mkv
Формат : Matroska
Версия формата : Version 4 / Version 2
Размер файла : 4,78 Гбайт
Продолжительность : 1 ч. 32 м.
Общий поток : 7441 Кбит/сек
Название фильма : Библиотекарь 2: Возвращение в Копи Царя Соломона / The Librarian: Return to King Solomon's Mines (2006) BDRip [720]
Дата кодирования : UTC 2014-10-26 20:55:52
Программа кодирования : mkvmerge v7.2.0 ('On Every Street') 32bit built on Sep 13 2014 15:42:11
Библиотека кодирования : libebml v1.3.0 + libmatroska v1.4.1
DURATION : 01:29:31.705000000
NUMBER_OF_FRAMES : 1209
NUMBER_OF_BYTES : 40163
_STATISTICS_WRITING_APP : mkvmerge v7.2.0 ('On Every Street') 32bit built on Sep 13 2014 15:42:11
_STATISTICS_WRITING_DATE_UTC : 2014-10-26 20:55:52
_STATISTICS_TAGS : BPS DURATION NUMBER_OF_FRAMES NUMBER_OF_BYTES

Видео
Идентификатор : 1
Формат : AVC
Формат/Информация : Advanced Video Codec
Профиль формата : High@L4.1
Параметр CABAC формата : Да
Параметр ReFrames формата : 5 кадров
Идентификатор кодека : V_MPEG4/ISO/AVC
Продолжительность : 1 ч. 32 м.
Битрейт : 6159 Кбит/сек
Ширина : 1280 пикселей
Высота : 720 пикселей
Соотношение сторон : 16:9
Режим частоты кадров : Постоянный
Частота кадров : 23,976 кадра/сек
Цветовое пространство : YUV
Субдискретизация насыщенности : 4:2:0
Битовая глубина : 8 бит
Тип развёртки : Прогрессивная
Бит/(Пиксели*Кадры) : 0.279
Размер потока : 3,87 Гбайт (81%)
Заголовок : [2006] Библиотекарь 2. Возвращение в Копи Царя Соломона [BDRip] [720p]
Библиотека кодирования : x264 core 67 r1134M b8808bf
Настройки программы : cabac=1 / ref=5 / deblock=1:-1:-1 / analyse=0x3:0x113 / me=umh / subme=7 / psy_rd=1.0:0.0 / mixed_ref=1 / me_range=16 / chroma_me=1 / trellis=2 / 8x8dct=1 / cqm=0 / deadzone=21,11 / chroma_qp_offset=-2 / threads=6 / nr=0 / decimate=1 / mbaff=0 / bframes=3 / b_pyramid=0 / b_adapt=2 / b_bias=0 / direct=3 / wpredb=1 / keyint=250 / keyint_min=25 / scenecut=40 / rc=2pass / bitrate=6159 / ratetol=1.0 / qcomp=0.60 / qpmin=10 / qpmax=51 / qpstep=4 / cplxblur=20.0 / qblur=0.5 / vbv_maxrate=50000 / vbv_bufsize=50000 / ip_ratio=1.40 / pb_ratio=1.30 / aq=1:1.00
Язык : English
Default : Да
Forced : Нет

Аудио #1
Идентификатор : 2
Формат : AC-3
Формат/Информация : Audio Coding 3
Расширение режима : CM (complete main)
Параметр Endianness формата : Big
Идентификатор кодека : A_AC3
Продолжительность : 1 ч. 32 м.
Вид битрейта : Постоянный
Битрейт : 448 Кбит/сек
Каналы : 6 каналов
Расположение каналов : Front: L C R, Side: L R, LFE
Частота : 48,0 КГц
Битовая глубина : 16 бит
Метод сжатия : С потерями
Размер потока : 295 Мбайт (6%)
Заголовок : Многоголосый закадровый R5 - СОЮЗ Видео
Язык : Russian
Default : Да
Forced : Нет

Аудио #2
Идентификатор : 3
Формат : AC-3
Формат/Информация : Audio Coding 3
Расширение режима : CM (complete main)
Параметр Endianness формата : Big
Идентификатор кодека : A_AC3
Продолжительность : 1 ч. 32 м.
Вид битрейта : Постоянный
Битрейт : 192 Кбит/сек
Каналы : 2 канала
Расположение каналов : Front: L R
Частота : 48,0 КГц
Битовая глубина : 16 бит
Метод сжатия : С потерями
Размер потока : 126 Мбайт (3%)
Заголовок : Многоголосый закадровый ICTV
Язык : Ukrainian
Default : Нет
Forced : Нет

Аудио #3
Идентификатор : 4
Формат : AC-3
Формат/Информация : Audio Coding 3
Расширение режима : CM (complete main)
Параметр Endianness формата : Big
Идентификатор кодека : A_AC3
Продолжительность : 1 ч. 32 м.
Вид битрейта : Постоянный
Битрейт : 640 Кбит/сек
Каналы : 6 каналов
Расположение каналов : Front: L C R, Side: L R, LFE
Частота : 48,0 КГц
Битовая глубина : 16 бит
Метод сжатия : С потерями
Размер потока : 421 Мбайт (9%)
Заголовок : Оригинальный
Язык : English
Default : Нет
Forced : Нет

Текст #1
Идентификатор : 5
Формат : UTF-8
Идентификатор кодека : S_TEXT/UTF8
Идентификатор кодека/Информация : UTF-8 Plain Text
Заголовок : Русские
Язык : Russian
Default : Нет
Forced : Нет

Текст #2
Идентификатор : 6
Формат : UTF-8
Идентификатор кодека : S_TEXT/UTF8
Идентификатор кодека/Информация : UTF-8 Plain Text
Заголовок : English
Язык : English
Default : Нет
Forced : Нет




Библиотекарь 3: Проклятие иудовой чаши / The Librarian: The Curse of the Judas Chalice (2008)

#777
Информация о фильме
Название: Библиотекарь 3: Проклятие иудовой чаши
Оригинальное название: The Librarian: The Curse of the Judas Chalice
Год выхода: 2008
Жанр: фэнтези, боевик, приключения
Режиссер: Джонатан Фрейкс
В ролях: Ноа Уайли, Брюс Дэвисон, Стана Катич, Боб Ньюхарт, Джейн Куртин, Дикран Тулейн, Джейсон Дуглас, Элизабет Бурвант, Джо Кнезевич, Дэвид Борн

О фильме: Третья часть захватывающих приключений Флина Карсена, в которой Флину вновь предстоит спасти мир, но уже от угрожающего всеобщему спокойствию воскрешения Графа Дракулы. Находясь в отпуске, Флин знакомится с умопомрачительной красоткой Симоной, которая совершенно неожиданно для Флина узнает в нем Библиотекаря и обращается к нему за помощью. Вместе они пытаются опередить русского злодея в поисках Чаши Иуды, которая одна способна воскресить к жизни великого вампира...



Страна: USA
Студия: Electric Entertainment
Продолжительность: 01:30:08
Перевод: профессиональный (многоголосый закадровый)
Субтитры: русские, английские

Файл
Кодек: MPEG-4 AVC/H.264
Качество: BDRip [720p]
Видео: 1280 x 720, (16:9), 6 303 kbps, 23.976 fps, 0.285 b/px
Звук:
Аудио # 1: AC3, 6 ch, 448 kbps, 48 000 Hz [Многоголосый закадровый (R5 - СОЮЗ Видео)]
Аудио # 2: АС3, 2 ch, 192 kbps, 48 000 Hz [Многоголосый закадровый (ICTV) (Украинский)]
Аудио # 3: AC3, 6 ch, 640 kbps, 48 000 Hz [Оригинальный]

Общее
Уникальный идентификатор : 170293612348829866664757487349558493081 (0x801D5B530DBCED54BEC4637129E93F99)
Полное имя : E:Video-TorrentБиблиотекарь. Трилогия [BDRip] [720p][2008] Библиотекарь 3. Проклятие иудовой чаши [BDRip] [720p].mkv
Формат : Matroska
Версия формата : Version 4 / Version 2
Размер файла : 4,78 Гбайт
Продолжительность : 1 ч. 30 м.
Общий поток : 7582 Кбит/сек
Название фильма : Библиотекарь 3: Проклятие иудовой чаши / The Librarian: The Curse of the Judas Chalice (2008) BDRip [720]
Дата кодирования : UTC 2014-10-26 21:00:21
Программа кодирования : mkvmerge v7.2.0 ('On Every Street') 32bit built on Sep 13 2014 15:42:11
Библиотека кодирования : libebml v1.3.0 + libmatroska v1.4.1
DURATION : 01:27:01.670000000
NUMBER_OF_FRAMES : 950
NUMBER_OF_BYTES : 37921
_STATISTICS_WRITING_APP : mkvmerge v7.2.0 ('On Every Street') 32bit built on Sep 13 2014 15:42:11
_STATISTICS_WRITING_DATE_UTC : 2014-10-26 21:00:21
_STATISTICS_TAGS : BPS DURATION NUMBER_OF_FRAMES NUMBER_OF_BYTES

Видео
Идентификатор : 1
Формат : AVC
Формат/Информация : Advanced Video Codec
Профиль формата : High@L4.1
Параметр CABAC формата : Да
Параметр ReFrames формата : 5 кадров
Идентификатор кодека : V_MPEG4/ISO/AVC
Продолжительность : 1 ч. 30 м.
Битрейт : 6303 Кбит/сек
Ширина : 1280 пикселей
Высота : 720 пикселей
Соотношение сторон : 16:9
Режим частоты кадров : Постоянный
Частота кадров : 23,976 кадра/сек
Цветовое пространство : YUV
Субдискретизация насыщенности : 4:2:0
Битовая глубина : 8 бит
Тип развёртки : Прогрессивная
Бит/(Пиксели*Кадры) : 0.285
Размер потока : 3,87 Гбайт (81%)
Заголовок : [2008] Библиотекарь 3. Проклятие иудовой чаши [BDRip] [720p]
Библиотека кодирования : x264 core 67 r1134 b8808bf
Настройки программы : cabac=1 / ref=5 / deblock=1:0:0 / analyse=0x3:0x133 / me=umh / subme=7 / psy_rd=1.0:0.0 / mixed_ref=1 / me_range=16 / chroma_me=1 / trellis=1 / 8x8dct=1 / cqm=2 / deadzone=21,11 / chroma_qp_offset=-2 / threads=3 / nr=0 / decimate=1 / mbaff=0 / bframes=3 / b_pyramid=1 / b_adapt=1 / b_bias=0 / direct=1 / wpredb=1 / keyint=250 / keyint_min=25 / scenecut=40 / rc=2pass / bitrate=6303 / ratetol=1.0 / qcomp=0.60 / qpmin=10 / qpmax=51 / qpstep=4 / cplxblur=20.0 / qblur=0.5 / ip_ratio=1.40 / pb_ratio=1.30 / aq=1:1.00
Язык : English
Default : Да
Forced : Нет
DURATION : 01:30:08.329000000
NUMBER_OF_FRAMES : 129670
NUMBER_OF_BYTES : 4260917857
_STATISTICS_WRITING_APP : mkvmerge v7.2.0 ('On Every Street') 32bit built on Sep 13 2014 15:42:11
_STATISTICS_WRITING_DATE_UTC : 2014-10-26 21:00:21
_STATISTICS_TAGS : BPS DURATION NUMBER_OF_FRAMES NUMBER_OF_BYTES

Аудио #1
Идентификатор : 2
Формат : AC-3
Формат/Информация : Audio Coding 3
Расширение режима : CM (complete main)
Параметр Endianness формата : Big
Идентификатор кодека : A_AC3
Продолжительность : 1 ч. 30 м.
Вид битрейта : Постоянный
Битрейт : 448 Кбит/сек
Каналы : 6 каналов
Расположение каналов : Front: L C R, Side: L R, LFE
Частота : 48,0 КГц
Битовая глубина : 16 бит
Метод сжатия : С потерями
Размер потока : 289 Мбайт (6%)
Заголовок : Многоголосый закадровый R5 - СОЮЗ Видео
Язык : Russian
Default : Да
Forced : Нет

Аудио #2
Идентификатор : 3
Формат : AC-3
Формат/Информация : Audio Coding 3
Расширение режима : CM (complete main)
Параметр Endianness формата : Big
Идентификатор кодека : A_AC3
Продолжительность : 1 ч. 30 м.
Вид битрейта : Постоянный
Битрейт : 192 Кбит/сек
Каналы : 2 канала
Расположение каналов : Front: L R
Частота : 48,0 КГц
Битовая глубина : 16 бит
Метод сжатия : С потерями
Размер потока : 124 Мбайт (3%)
Заголовок : Многоголосый закадровый ICTV
Язык : Ukrainian
Default : Нет
Forced : Нет

Аудио #3
Идентификатор : 4
Формат : AC-3
Формат/Информация : Audio Coding 3
Расширение режима : CM (complete main)
Параметр Endianness формата : Big
Идентификатор кодека : A_AC3
Продолжительность : 1 ч. 30 м.
Вид битрейта : Постоянный
Битрейт : 640 Кбит/сек
Каналы : 6 каналов
Расположение каналов : Front: L C R, Side: L R, LFE
Частота : 48,0 КГц
Битовая глубина : 16 бит
Метод сжатия : С потерями
Размер потока : 413 Мбайт (8%)
Заголовок : Оригинальный
Язык : English
Default : Нет
Forced : Нет

Текст #1
Идентификатор : 5
Формат : UTF-8
Идентификатор кодека : S_TEXT/UTF8
Идентификатор кодека/Информация : UTF-8 Plain Text
Заголовок : Русские
Язык : Russian
Default : Нет
Forced : Нет

Текст #2
Идентификатор : 6
Формат : UTF-8
Идентификатор кодека : S_TEXT/UTF8
Идентификатор кодека/Информация : UTF-8 Plain Text
Заголовок : English
Язык : English
Default : Нет
Forced : Нет


Правила, инструкции, FAQ!!!
Торрент  Добавлен [27 окт 2014, 17:56] Скачать торрент Магнет ссылка
Скачать торрент
37.17 КБ

Статус
Проверен 
 
Размер  14.33 ГБ
Приватный: Нет (DHT включён)
.torrent скачан  153
Как залить торрент? | Как скачать Torrent? | Как смотреть и слушать онлайн?  
Гость
 



Вернуться в Трилогии

Кто сейчас на конференции

Сейчас этот форум просматривают: нет зарегистрированных пользователей и гости: 0