Библиотекарь: Трилогия / The Librarian: Trilogy (2004, 2006, 2008) BDRip-1080p | P

Статистика раздачи
Размер: 29.95 ГБ | Добавлен: 10 май 2013, 18:33 | Скачали: 65
Сидеров: 19  [0 байт/сек]    Личеров: 6  [0 байт/сек]

Сообщение Гость » 10 май 2013, 18:33


#777

Название : Библиотекарь: В поисках копья судьбы
Оригинальное название : The Librarian: Quest for the Spear

Год выхода : 2004
Страна : США
Производство : ApolloProScreen GmbH & Co. Filmproduktion KG, Electric Entertainment, Turner Network Television (TNT)
Жанр : фэнтези, боевик, триллер, драма, мелодрама, комедия, приключения
Режиссер : Питер Уинтер

В фильме снимались : Ноа Уайл, Соня Уолгер, Боб Ньюхарт, Кайл МакЛоклен, Келли Ху, Джейн Куртин, Дэвид Дайан Фишер, Олимпия Дукакис, Лиза Бреннер, Марио Иван Мартинес


Вкратце : Из тайных хранилищ Нью-Йоркской Публичной библиотеки похищен магический артефакт — фрагмент Копья Судьбы. Библиотекарь Флинн Карсен должен вернуть его любой ценой и заодно найти оставшиеся два фрагмента прежде, чем ими завладеют злодеи.
Продолжительность : 1:30:13
Перевод : Профессиональный (многоголосый, закадровый) "СОЮЗ Видео"
Релиз : Anoobeas


Формат : MKV
Качество : BDRip-1080p
Видео : H.264/AVC, 1920x1080, 13.8 Mbps, High@L4.1, 25.000 fps
Звук 1: Русский, AC3, 384 Kbps, 48 kHz, Front: L C R, Side: L R, LFE
Звук 2: Английский, DTS, 1510 Kbps, 48 kHz, Front: L C R, Side: L R, LFE
Субтитры : SRT : rus, eng





Video
ID : 1
Format : AVC
Format/Info : Advanced Video Codec
Format profile : High@L4.1
Format settings, CABAC : Yes
Format settings, ReFrames : 4 frames
Muxing mode : Container profile=Unknown@4.1
Codec ID : V_MPEG4/ISO/AVC
Duration : 1h 30mn
Bit rate : 13.8 Mbps
Width : 1 920 pixels
Height : 1 080 pixels
Display aspect ratio : 16:9
Frame rate : 25.000 fps
Color space : YUV
Chroma subsampling : 4:2:0
Bit depth : 8 bits
Scan type : Progressive
Bits/(Pixel*Frame) : 0.266
Stream size : 8.50 GiB (86%)
Title : Rip by -=ANoobis=-
Writing library : x264 core 125 r2200 999b753
Encoding settings : cabac=1 / ref=4 / deblock=1:-3:-3 / analyse=0x3:0x112 / me=umh / subme=9 / psy=1 / psy_rd=1.00:0.15 / mixed_ref=1 / me_range=32 / chroma_me=1 / trellis=2 / 8x8dct=1 / cqm=0 / deadzone=21,11 / fast_pskip=0 / chroma_qp_offset=-3 / threads=12 / lookahead_threads=2 / sliced_threads=0 / nr=0 / decimate=0 / interlaced=0 / bluray_compat=0 / constrained_intra=0 / bframes=6 / b_pyramid=2 / b_adapt=2 / b_bias=0 / direct=3 / weightb=1 / open_gop=0 / weightp=2 / keyint=250 / keyint_min=25 / scenecut=40 / intra_refresh=0 / rc_lookahead=50 / rc=2pass / mbtree=1 / bitrate=13800 / ratetol=1.0 / qcomp=0.70 / qpmin=0 / qpmax=69 / qpstep=4 / cplxblur=20.0 / qblur=0.5 / ip_ratio=1.40 / aq=1:1.00
Matrix coefficients : BT.709-5, BT.1361, IEC 61966-2-4 709, SMPTE RP177

Audio #1
ID : 2
Format : AC-3
Format/Info : Audio Coding 3
Mode extension : CM (complete main)
Codec ID : A_AC3
Duration : 1h 30mn
Bit rate mode : Constant
Bit rate : 384 Kbps
Channel(s) : 6 channels
Channel positions : Front: L C R, Side: L R, LFE
Sampling rate : 48.0 KHz
Stream size : 248 MiB (2%)
Title : AC3 MVO R5 Soyuz Video
Language : Russian

Audio #2
ID : 3
Format : DTS
Format/Info : Digital Theater Systems
Codec ID : A_DTS
Duration : 1h 30mn
Bit rate mode : Constant
Bit rate : 1 510 Kbps
Channel(s) : 6 channels
Channel positions : Front: L C R, Side: L R, LFE
Sampling rate : 48.0 KHz
Bit depth : 16 bits
Stream size : 974 MiB (10%)
Title : DTS Eng

Text #1
ID : 4
Format : UTF-8
Codec ID : S_TEXT/UTF8
Codec ID/Info : UTF-8 Plain Text
Language : Russian

Text #2
ID : 5
Format : UTF-8
Codec ID : S_TEXT/UTF8
Codec ID/Info : UTF-8 Plain Text

Menu
00:00:00.000 : :Chapter 01
00:06:09.919 : :Chapter 02
00:10:14.880 : :Chapter 03
00:16:22.480 : :Chapter 04
00:21:47.920 : :Chapter 05
00:29:30.719 : :Chapter 06
00:37:35.319 : :Chapter 07
00:43:01.239 : :Chapter 08
00:48:54.399 : :Chapter 09
00:53:09.760 : :Chapter 10
00:58:38.320 : :Chapter 11
01:04:20.960 : :Chapter 12
01:08:27.720 : :Chapter 13
01:11:56.120 : :Chapter 14
01:15:10.240 : :Chapter 15
01:21:14.120 : :Chapter 16
01:24:28.720 : :Chapter 17
01:28:07.360 : :Chapter 18
01:30:11.640 : :Chapter 19



#777

Название : Библиотекарь 2: Возвращение в Копи Царя Соломона
Оригинальное название : The Librarian: Return to King Solomon's Mines
Год выхода : 2006
Страна : США
Производство : Electric Entertainment, Turner Network Television (TNT)
Жанр : фэнтези, боевик, приключения
Режиссер : Джонатан Фрейкс

В фильме снимались: Ноа Уайл, Габриель Анвар, Боб Ньюхарт, Джейн Куртин, Олимпия Дукакис, Эрик Авари, Хаким Кае-Казим, Роберт Фоксуорт, Занн МаКларнон, Лиза Бреннер


Вкратце: Флин Карсен, интеллигентный юноша, сотрудник Нью Йоркской библиотеки. Но в его душе всегда жила страсть к приключениям, тайнам и всему тому, чем грезит любой мальчишка. Однажды, ему на глаза попадается интереснейший труд о легендарных Копях Царя Соломона. Флин решает найти мифические сокровища, променяв затхлый воздух помещения и книжных клопов на дух романтики и авантюризма…
Продолжительность : 1:32:03
Перевод : Профессиональный (многоголосый, закадровый) "СОЮЗ Видео"
Релиз : Anoobeas


Формат : MKV
Качество : BDRip-1080p
Видео : H.264/AVC, 1920x1080, 13.8 Mbps, High@L4.1, 23.976 fps
Звук 1: Русский, AC3, 448 Kbps, 48 kHz, Front: L C R, Side: L R, LFE
Звук 2: Английский, DTS, 1510 Kbps, 48 kHz, Front: L C R, Side: L R, LFE
Субтитры : SRT : rus, eng





Video
ID : 1
Format : AVC
Format/Info : Advanced Video Codec
Format profile : High@L4.1
Format settings, CABAC : Yes
Format settings, ReFrames : 4 frames
Muxing mode : Container profile=Unknown@4.1
Codec ID : V_MPEG4/ISO/AVC
Duration : 1h 32mn
Bit rate : 13.8 Mbps
Width : 1 920 pixels
Height : 1 080 pixels
Display aspect ratio : 16:9
Frame rate : 23.976 fps
Color space : YUV
Chroma subsampling : 4:2:0
Bit depth : 8 bits
Scan type : Progressive
Bits/(Pixel*Frame) : 0.278
Stream size : 8.67 GiB (86%)
Title : Rip by -=ANoobis=-
Writing library : x264 core 125 r2200 999b753
Encoding settings : cabac=1 / ref=4 / deblock=1:-3:-3 / analyse=0x3:0x112 / me=umh / subme=9 / psy=1 / psy_rd=1.00:0.15 / mixed_ref=1 / me_range=32 / chroma_me=1 / trellis=2 / 8x8dct=1 / cqm=0 / deadzone=21,11 / fast_pskip=0 / chroma_qp_offset=-3 / threads=12 / lookahead_threads=2 / sliced_threads=0 / nr=0 / decimate=0 / interlaced=0 / bluray_compat=0 / constrained_intra=0 / bframes=6 / b_pyramid=2 / b_adapt=2 / b_bias=0 / direct=3 / weightb=1 / open_gop=0 / weightp=2 / keyint=250 / keyint_min=23 / scenecut=40 / intra_refresh=0 / rc_lookahead=50 / rc=2pass / mbtree=1 / bitrate=13800 / ratetol=1.0 / qcomp=0.70 / qpmin=0 / qpmax=69 / qpstep=4 / cplxblur=20.0 / qblur=0.5 / ip_ratio=1.40 / aq=1:1.00
Matrix coefficients : BT.709-5, BT.1361, IEC 61966-2-4 709, SMPTE RP177

Audio #1
ID : 2
Format : AC-3
Format/Info : Audio Coding 3
Mode extension : CM (complete main)
Codec ID : A_AC3
Duration : 1h 32mn
Bit rate mode : Constant
Bit rate : 448 Kbps
Channel(s) : 6 channels
Channel positions : Front: L C R, Side: L R, LFE
Sampling rate : 48.0 KHz
Stream size : 295 MiB (3%)
Title : AC3 MVO R5 Soyuz Video
Language : Russian

Audio #2
ID : 3
Format : DTS
Format/Info : Digital Theater Systems
Codec ID : A_DTS
Duration : 1h 32mn
Bit rate mode : Constant
Bit rate : 1 510 Kbps
Channel(s) : 6 channels
Channel positions : Front: L C R, Side: L R, LFE
Sampling rate : 48.0 KHz
Bit depth : 16 bits
Stream size : 994 MiB (10%)
Title : DTS Eng

Text #1
ID : 4
Format : UTF-8
Codec ID : S_TEXT/UTF8
Codec ID/Info : UTF-8 Plain Text
Language : Russian

Text #2
ID : 5
Format : UTF-8
Codec ID : S_TEXT/UTF8
Codec ID/Info : UTF-8 Plain Text

Menu
00:00:00.000 : :Chapter 01
00:06:43.111 : :Chapter 02
00:13:56.335 : :Chapter 03
00:20:16.173 : :Chapter 04
00:25:46.419 : :Chapter 05
00:30:01.424 : :Chapter 06
00:35:29.836 : :Chapter 07
00:40:03.484 : :Chapter 08
00:46:13.896 : :Chapter 09
00:49:05.609 : :Chapter 10
00:54:40.819 : :Chapter 11
01:01:43.700 : :Chapter 12
01:05:06.193 : :Chapter 13
01:10:26.805 : :Chapter 14
01:15:43.539 : :Chapter 15
01:19:39.149 : :Chapter 16
01:25:24.119 : :Chapter 17
01:32:02.918 : :Chapter 18



#777

Название : Библиотекарь 3: Проклятие Иудовой чаши
Оригинальное название : The Librarian: The Curse of the Judas Chalice
Год выхода : 2008
Страна : США
Производство : Electric Entertainment
Жанр : фэнтези, боевик, приключения
Режиссер : Джонатан Фрейкс

В фильме снимались: Ноа Уайл, Брюс Дэвисон, Стана Катик, Боб Ньюхарт, Джейн Куртин, Дэвид Борн, Джейсон Дуглас, Элизабет Бурвант, Джо Кнезевич


Вкратце: Третья часть захватывающих приключений Флина Карсена, в которой Флину вновь предстоит спасти мир, но уже от угрожающего всеобщему спокойствию воскрешения Графа Дракулы. Находясь в отпуске, Флин знакомится с умопомрачительной красоткой Симоной, которая совершенно неожиданно для Флина узнает в нем Библиотекаря и обращается к нему за помощью. Вместе они пытаются опередить русского злодея в поисках Чаши Иуды, которая одна способна воскресить к жизни великого вампира.

Продолжительность : 1:30:10
Перевод : Профессиональный (многоголосый, закадровый) "СОЮЗ Видео"
Релиз : Anoobeas


Формат : MKV
Качество : BDRip-1080p
Видео : H.264/AVC, 1920x1080, 13.8 Mbps, High@L4.1, 23.976 fps
Звук 1: Русский, AC3, 448 Kbps, 48 kHz, Front: L C R, Side: L R, LFE
Звук 2: Английский, DTS, 1510 Kbps, 48 kHz, Front: L C R, Side: L R, LFE
Субтитры : SRT : rus, eng





Video
ID : 1
Format : AVC
Format/Info : Advanced Video Codec
Format profile : High@L4.1
Format settings, CABAC : Yes
Format settings, ReFrames : 4 frames
Muxing mode : Container profile=Unknown@4.1
Codec ID : V_MPEG4/ISO/AVC
Duration : 1h 30mn
Bit rate : 13.8 Mbps
Width : 1 920 pixels
Height : 1 080 pixels
Display aspect ratio : 16:9
Frame rate : 23.976 fps
Color space : YUV
Chroma subsampling : 4:2:0
Bit depth : 8 bits
Scan type : Progressive
Bits/(Pixel*Frame) : 0.278
Stream size : 8.50 GiB (86%)
Title : Rip by -=ANoobis=-
Writing library : x264 core 125 r2200 999b753
Encoding settings : cabac=1 / ref=4 / deblock=1:-3:-3 / analyse=0x3:0x112 / me=umh / subme=9 / psy=1 / psy_rd=1.00:0.15 / mixed_ref=1 / me_range=32 / chroma_me=1 / trellis=2 / 8x8dct=1 / cqm=0 / deadzone=21,11 / fast_pskip=0 / chroma_qp_offset=-3 / threads=12 / lookahead_threads=2 / sliced_threads=0 / nr=0 / decimate=0 / interlaced=0 / bluray_compat=0 / constrained_intra=0 / bframes=6 / b_pyramid=2 / b_adapt=2 / b_bias=0 / direct=3 / weightb=1 / open_gop=0 / weightp=2 / keyint=250 / keyint_min=23 / scenecut=40 / intra_refresh=0 / rc_lookahead=50 / rc=2pass / mbtree=1 / bitrate=13800 / ratetol=1.0 / qcomp=0.70 / qpmin=0 / qpmax=69 / qpstep=4 / cplxblur=20.0 / qblur=0.5 / ip_ratio=1.40 / aq=1:1.00
Matrix coefficients : BT.709-5, BT.1361, IEC 61966-2-4 709, SMPTE RP177

Audio #1
ID : 2
Format : AC-3
Format/Info : Audio Coding 3
Mode extension : CM (complete main)
Codec ID : A_AC3
Duration : 1h 30mn
Bit rate mode : Constant
Bit rate : 448 Kbps
Channel(s) : 6 channels
Channel positions : Front: L C R, Side: L R, LFE
Sampling rate : 48.0 KHz
Stream size : 289 MiB (3%)
Title : AC3 MVO R5 Soyuz Video
Language : Russian

Audio #2
ID : 3
Format : DTS
Format/Info : Digital Theater Systems
Codec ID : A_DTS
Duration : 1h 30mn
Bit rate mode : Constant
Bit rate : 1 510 Kbps
Channel(s) : 6 channels
Channel positions : Front: L C R, Side: L R, LFE
Sampling rate : 48.0 KHz
Bit depth : 24 bits
Stream size : 974 MiB (10%)
Title : DTS Eng

Text #1
ID : 4
Format : UTF-8
Codec ID : S_TEXT/UTF8
Codec ID/Info : UTF-8 Plain Text
Language : Russian

Text #2
ID : 5
Format : UTF-8
Codec ID : S_TEXT/UTF8
Codec ID/Info : UTF-8 Plain Text

Menu
00:00:00.000 : :Chapter 01
00:08:32.011 : :Chapter 02
00:15:56.955 : :Chapter 03
00:22:48.200 : :Chapter 04
00:27:34.319 : :Chapter 05
00:36:47.079 : :Chapter 06
00:44:46.850 : :Chapter 07
00:51:23.663 : :Chapter 08
00:58:51.903 : :Chapter 09
01:06:33.072 : :Chapter 10
01:12:23.046 : :Chapter 11
01:22:24.689 : :Chapter 12
01:29:33.618 : :Chapter 13
01:30:08.154 : :Chapter 14





Правила, инструкции, FAQ!!!
Торрент  Добавлен [10 май 2013, 18:33] Скачать торрент Магнет ссылка
Скачать торрент
[ Размер 75.67 КБ / Просмотров 26 ]

Статус
Проверен 
 
Размер  29.95 ГБ
Приватный: Нет (DHT включён)
.torrent скачан  65
Как залить торрент? | Как скачать Torrent? | Как смотреть и слушать онлайн?  
Гость
 


  • Похожие торренты
    Ответы
    Просмотры
    Последнее сообщение

Вернуться в Трилогии

Кто сейчас на конференции

Сейчас этот форум просматривают: нет зарегистрированных пользователей и гости: 0