Библиотекарь.Трилогия / The Librarian (2004,2006,2008) BDRip [H.264]


Статистика раздачи
Размер: 7.26 ГБ | Добавлен: 09 апр 2015, 00:02 | Скачали: 3
Сидеров: 109  [0 байт/сек]    Личеров: 4  [0 байт/сек]

Сообщение Гость » 09 апр 2015, 00:02

Библиотекарь: В поисках копья судьбы / The Librarian: Quest for the Spear (2004) BDRip


Русское название: Библиотекарь: В поисках копья судьбы
Оригинальное название: The Librarian: Quest for the Spear
Год выпуска: 2004
Страна: США, Германия
Слоган: «Intelligence can only get you so far when you have to save the world.»
Жанр: фэнтези, боевик, триллер, драма, мелодрама, комедия, приключения

Режиссер: Питер Уинзер
Ноа Уайли (Flynn Carsen), Соня Уолгер (Nicole Noone), Боб Ньюхарт (Judson), Кайл МакЛоклен (Edward Wilde), Келли Ху (Lana), Дэвид Дайан Фишер (Rhodes), Джейн Куртин (Charlene), Олимпия Дукакис (Margie Carsen), Лиза Бреннер (Debra), Марио Иван Мартинес (Professor Harris), Клайд Кусацу (Head Monk), Алехандра Голла (Student #1)
Описание фильма: Из тайных хранилищ Нью-Йоркской Публичной библиотеки похищен магический артефакт - фрагмент Копья Судьбы. Библиотекарь Флинн Карсен должен вернуть его любой ценой и заодно найти оставшиеся два фрагмента прежде, чем ими завладеют злодеи.

Продолжительность: 01:30:13
Перевод: Многоголосый закадровый (Союз-Видео)
Язык субтитров: Русские, английские
Вид субтитров: вшитые отключаемые

Качество видео: BDRip
Видеокодек: MPEG-4 AVC/H.264
Битрейт видео: ~2 845 Kbps
Размер кадра: 1024x576
Аудио 1: Русский: AC3; 384 Kbps; CBR; 6 ch
Аудио 2: Англ-ий: AC3; 384 Kbps; CBR; 6 ch
General
Unique ID : 219299882470589226447541802329400160910 (0xA4FB9EFCCF4CF8F18CEA51B4C43C328E)
Complete name : D:\Bibliotekarj.Trilogija.2004.2006.2008.(H.264).BDRip\Bibliotekarj.2004.x264.BDRip.(AVC).mkv
Format : Matroska
Format version : Version 4 / Version 2
File size : 2.28 GiB
Duration : 1h 30mn
Overall bit rate : 3 613 Kbps
Movie name : Библиотекарь: В поисках копья судьбы | The Librarian: Quest for the Spear [2004]
Encoded date : UTC 2013-03-11 15:16:20
Writing application : mkvmerge v6.1.0 ('Old Devil') built on Mar 2 2013 14:32:37
Writing library : libebml v1.3.0 + libmatroska v1.4.0

Video
ID : 1
Format : AVC
Format/Info : Advanced Video Codec
Format profile :
Format settings, CABAC : Yes
Format settings, ReFrames : 9 frames
Codec ID : V_MPEG4/ISO/AVC
Duration : 1h 30mn
Bit rate : 2 845 Kbps
Width : 1 024 pixels
Height : 576 pixels
Display aspect ratio : 16:9
Frame rate mode : Constant
Frame rate : 25.000 fps
Color space : YUV
Chroma subsampling : 4:2:0
Bit depth : 8 bits
Scan type : Progressive
Bits/(Pixel*Frame) : 0.193
Stream size : 1.75 GiB (77%)
Title : Rip by 0ptimus
Writing library : x264 core 129 r2245 bc13772
Encoding settings : cabac=1 / ref=9 / deblock=1:-3:-3 / analyse=0x3:0x113 / me=umh / subme=11 / psy=1 / psy_rd=1.00:0.20 / mixed_ref=1 / me_range=32 / chroma_me=1 / trellis=2 / 8x8dct=1 / cqm=0 / deadzone=21,11 / fast_pskip=0 / chroma_qp_offset=-3 / threads=4 / lookahead_threads=1 / sliced_threads=0 / nr=0 / decimate=0 / interlaced=0 / bluray_compat=0 / constrained_intra=0 / bframes=12 / b_pyramid=2 / b_adapt=2 / b_bias=0 / direct=3 / weightb=1 / open_gop=0 / weightp=2 / keyint=240 / keyint_min=24 / scenecut=40 / intra_refresh=0 / rc_lookahead=40 / rc=2pass / mbtree=0 / bitrate=2845 / ratetol=1.0 / qcomp=0.60 / qpmin=0 / qpmax=69 / qpstep=4 / cplxblur=20.0 / qblur=0.5 / vbv_maxrate=50000 / vbv_bufsize=50000 / nal_hrd=none / ip_ratio=1.40 / pb_ratio=1.30 / aq=1:1.00
Language : English
Default : Yes
Forced : Yes

Audio #1
ID : 2
Format : AC-3
Format/Info : Audio Coding 3
Mode extension : CM (complete main)
Format settings, Endianness : Big
Codec ID : A_AC3
Duration : 1h 30mn
Bit rate mode : Constant
Bit rate : 384 Kbps
Channel(s) : 6 channels
Channel positions : Front: L C R, Side: L R, LFE
Sampling rate : 48.0 KHz
Bit depth : 16 bits
Compression mode : Lossy
Stream size : 248 MiB (11%)
Title : Многоголосый закадровый [Союз-Видео]
Language : Russian
Default : Yes
Forced : Yes

Audio #2
ID : 3
Format : AC-3
Format/Info : Audio Coding 3
Mode extension : CM (complete main)
Format settings, Endianness : Big
Codec ID : A_AC3
Duration : 1h 30mn
Bit rate mode : Constant
Bit rate : 384 Kbps
Channel(s) : 6 channels
Channel positions : Front: L C R, Side: L R, LFE
Sampling rate : 48.0 KHz
Bit depth : 16 bits
Compression mode : Lossy
Stream size : 248 MiB (11%)
Language : English
Default : No
Forced : No

Text #1
ID : 4
Format : UTF-8
Codec ID : S_TEXT/UTF8
Codec ID/Info : UTF-8 Plain Text
Language : Russian
Default : No
Forced : No

Text #2
ID : 5
Format : UTF-8
Codec ID : S_TEXT/UTF8
Codec ID/Info : UTF-8 Plain Text
Language : English
Default : No
Forced : No

Menu
00:00:00.000 : :Chapter 01
00:06:09.919 : :Chapter 02
00:10:14.880 : :Chapter 03
00:16:22.480 : :Chapter 04
00:21:47.920 : :Chapter 05
00:29:30.719 : :Chapter 06
00:37:35.319 : :Chapter 07
00:43:01.239 : :Chapter 08
00:48:54.399 : :Chapter 09
00:53:09.760 : :Chapter 10
00:58:38.320 : :Chapter 11
01:04:20.960 : :Chapter 12
01:08:27.720 : :Chapter 13
01:11:56.120 : :Chapter 14
01:15:10.240 : :Chapter 15
01:21:14.120 : :Chapter 16
01:24:28.720 : :Chapter 17
01:28:07.360 : :Chapter 18
01:30:13.640 : :Chapter 19

Скриншоты:





Библиотекарь 2: Возвращение в копи царя соломона / The Librarian: Return to King Solomon's Mines (2006) BDRip
#777Русское название: Библиотекарь 2: Возвращение в копи царя соломона
Оригинальное название:The Librarian: Return to King Solomon's Mines
Год выпуска: 2006
Страна: США
Слоган: «New Continent. New Adventure. Still No Clue.»
Жанр: фэнтези, боевик, приключения

Режиссер: Джонатан Фрайкс
Актеры: Ноа Уайли (Flynn Carsen), Габриель Анвар (Emily Davenport), [url=http://www.kinopoisk.ru/name/32564/]Боб Ньюхарт (Judson), Джейн Куртин (Charlene), Олимпия Дукакис (Margie Carsen), Эрик Авари (General Samir), Хаким Кае-Казим (Jomo), Роберт Фоксуорт (Uncle Jerry), Занн МаКларнон (Tommy Yellow Hawk), Лиза Бреннер (Debra), Джонатан Фрейкс (Debra's Husband), Питер Батлер (Ahjmed)
Описание фильма:Флин Карсен, интеллигентный юноша, сотрудник Нью Йоркской библиотеки. Но в его душе всегда жила страсть к приключениям, тайнам и всему тому, чем грезит любой мальчишка. Однажды, ему на глаза попадается интереснейший труд о легендарных Копях Царя Соломона. Флин решает найти мифические сокровища, променяв затхлый воздух помещения и книжных клопов на дух романтики и авантюризма...

Продолжительность: 01:32:03
Перевод: Многоголосый закадровый (Союз-Видео)
Язык субтитров: Русские, английские
Вид субтитров: вшитые отключаемые

Качество видео: BDRip
Видеокодек: MPEG-4 AVC/H.264
Битрейт видео: ~3 167 Kbps
Размер кадра: 1024x576
Аудио 1: Русский: AC3; 448 Kbps; CBR; 6 ch
Аудио 2: Англ-ий: AC3; 448 Kbps; CBR; 6 ch
General
Unique ID : 220136354173980946034087371095350790676 (0xA59CB83A0307CF3CB948046AE08D4A14)
Complete name : D:\Bibliotekarj.Trilogija.2004.2006.2008.(H.264).BDRip\Bibliotekarj-2.2006.x264.BDRip.(AVC).mkv
Format : Matroska
Format version : Version 4 / Version 2
File size : 2.61 GiB
Duration : 1h 32mn
Overall bit rate : 4 064 Kbps
Movie name : Библиотекарь 2: Возвращение в Копи Царя Соломона | The Librarian: Return to King Solomon's Mines [2006]
Encoded date : UTC 2013-03-11 14:54:23
Writing application : mkvmerge v6.1.0 ('Old Devil') built on Mar 2 2013 14:32:37
Writing library : libebml v1.3.0 + libmatroska v1.4.0

Video
ID : 1
Format : AVC
Format/Info : Advanced Video Codec
Format profile :
Format settings, CABAC : Yes
Format settings, ReFrames : 9 frames
Codec ID : V_MPEG4/ISO/AVC
Duration : 1h 32mn
Bit rate : 3 167 Kbps
Width : 1 024 pixels
Height : 576 pixels
Display aspect ratio : 16:9
Frame rate mode : Constant
Frame rate : 23.976 fps
Color space : YUV
Chroma subsampling : 4:2:0
Bit depth : 8 bits
Scan type : Progressive
Bits/(Pixel*Frame) : 0.224
Stream size : 1.99 GiB (76%)
Title : Rip by 0ptimus
Writing library : x264 core 129 r2245 bc13772
Encoding settings : cabac=1 / ref=9 / deblock=1:-3:-3 / analyse=0x3:0x113 / me=umh / subme=11 / psy=1 / psy_rd=1.00:0.20 / mixed_ref=1 / me_range=32 / chroma_me=1 / trellis=2 / 8x8dct=1 / cqm=0 / deadzone=21,11 / fast_pskip=0 / chroma_qp_offset=-3 / threads=4 / lookahead_threads=1 / sliced_threads=0 / nr=0 / decimate=0 / interlaced=0 / bluray_compat=0 / constrained_intra=0 / bframes=12 / b_pyramid=2 / b_adapt=2 / b_bias=0 / direct=3 / weightb=1 / open_gop=0 / weightp=2 / keyint=240 / keyint_min=23 / scenecut=40 / intra_refresh=0 / rc_lookahead=40 / rc=2pass / mbtree=0 / bitrate=3167 / ratetol=1.0 / qcomp=0.60 / qpmin=0 / qpmax=69 / qpstep=4 / cplxblur=20.0 / qblur=0.5 / vbv_maxrate=50000 / vbv_bufsize=50000 / nal_hrd=none / ip_ratio=1.40 / pb_ratio=1.30 / aq=1:1.00
Language : English
Default : Yes
Forced : Yes

Audio #1
ID : 2
Format : AC-3
Format/Info : Audio Coding 3
Mode extension : CM (complete main)
Format settings, Endianness : Big
Codec ID : A_AC3
Duration : 1h 32mn
Bit rate mode : Constant
Bit rate : 448 Kbps
Channel(s) : 6 channels
Channel positions : Front: L C R, Side: L R, LFE
Sampling rate : 48.0 KHz
Bit depth : 16 bits
Compression mode : Lossy
Stream size : 295 MiB (11%)
Title : Многоголосый закадровый [Союз-Видео]
Language : Russian
Default : Yes
Forced : Yes

Audio #2
ID : 3
Format : AC-3
Format/Info : Audio Coding 3
Mode extension : CM (complete main)
Format settings, Endianness : Big
Codec ID : A_AC3
Duration : 1h 32mn
Bit rate mode : Constant
Bit rate : 448 Kbps
Channel(s) : 6 channels
Channel positions : Front: L C R, Side: L R, LFE
Sampling rate : 48.0 KHz
Bit depth : 16 bits
Compression mode : Lossy
Stream size : 295 MiB (11%)
Language : English
Default : No
Forced : No

Text #1
ID : 4
Format : UTF-8
Codec ID : S_TEXT/UTF8
Codec ID/Info : UTF-8 Plain Text
Language : Russian
Default : No
Forced : No

Text #2
ID : 5
Format : UTF-8
Codec ID : S_TEXT/UTF8
Codec ID/Info : UTF-8 Plain Text
Language : English
Default : No
Forced : No

Menu
00:00:00.000 : :Chapter 01
00:06:43.111 : :Chapter 02
00:13:56.335 : :Chapter 03
00:20:16.173 : :Chapter 04
00:25:46.418 : :Chapter 05
00:30:01.424 : :Chapter 06
00:35:29.835 : :Chapter 07
00:40:03.484 : :Chapter 08
00:46:13.896 : :Chapter 09
00:49:05.609 : :Chapter 10
00:54:40.819 : :Chapter 11
01:01:43.700 : :Chapter 12
01:05:06.193 : :Chapter 13
01:10:26.805 : :Chapter 14
01:15:43.539 : :Chapter 15
01:19:39.149 : :Chapter 16
01:25:24.119 : :Chapter 17
01:31:05.917 : :Chapter 18
01:32:03.225 : :Chapter 19

Скриншоты:





Библиотекарь 3: Проклятье чаши Иуды / The Librarian: The Curse of the Judas (2008) BDRip
#777Русское название: Библиотекарь 3: Проклятье чаши Иуды
Оригинальное название:The Librarian: The Curse of the Judas
Год выпуска: 2008
Страна: США
Жанр: фэнтези, боевик, приключения

Режиссер: Джонатан Фрайкс
Актеры: Ноа Уайли (Flynn Carsen), Брюс Дэвисон (Professor Lazlo / Vlad), Стана Катич (Simone Renoir), Боб Ньюхарт (Judson), Джейн Куртин (Charlene), Дикран Тулейн (Sergei Kubichek), Джейсон Дуглас (Ivan), Элизабет Бурвант (Katie), Джо Кнезевич (Mason), Дэвид Борн (Auctioneer), Джо Росс (Mr. Percy), Джон Каррен (Clerk)
Описание фильма: Третья часть захватывающих приключений Флина Карсена, в которой Флину вновь предстоит спасти мир, но уже от угрожающего всеобщему спокойствию воскрешения Графа Дракулы. Находясь в отпуске, Флин знакомится с умопомрачительной красоткой Симоной, которая совершенно неожиданно для Флина узнает в нем Библиотекаря и обращается к нему за помощью. Вместе они пытаются опередить русского злодея в поисках Чаши Иуды, которая одна способна воскресить к жизни великого вампира.

Продолжительность: 01:30:10
Перевод: Многоголосый закадровый (Союз-Видео)
Язык субтитров: Русские, английские
Вид субтитров: вшитые отключаемые

Качество видео: BDRip
Видеокодек: MPEG-4 AVC/H.264
Битрейт видео: ~2 864 Kbps
Размер кадра: 1024x576
Аудио 1: Русский: AC3; 448 Kbps; CBR; 6 ch
Аудио 2: Англ-ий: AC3; 448 Kbps; CBR; 6 ch
General
Unique ID : 235690208458089989819038302614585160947 (0xB150487322B9A97F971348C0065D34F3)
Complete name : D:\Bibliotekarj.Trilogija.2004.2006.2008.(H.264).BDRip\Bibliotekarj-3.2008.x264.BDRip.(AVC).mkv
Format : Matroska
Format version : Version 4 / Version 2
File size : 2.37 GiB
Duration : 1h 30mn
Overall bit rate : 3 762 Kbps
Movie name : Библиотекарь 3: Проклятие Иудовой чаши | The Librarian: The Curse of the Judas Chalice [2008]
Encoded date : UTC 2013-03-11 15:10:26
Writing application : mkvmerge v6.1.0 ('Old Devil') built on Mar 2 2013 14:32:37
Writing library : libebml v1.3.0 + libmatroska v1.4.0

Video
ID : 1
Format : AVC
Format/Info : Advanced Video Codec
Format profile :
Format settings, CABAC : Yes
Format settings, ReFrames : 9 frames
Codec ID : V_MPEG4/ISO/AVC
Duration : 1h 30mn
Bit rate : 2 864 Kbps
Width : 1 024 pixels
Height : 576 pixels
Display aspect ratio : 16:9
Frame rate mode : Constant
Frame rate : 23.976 fps
Color space : YUV
Chroma subsampling : 4:2:0
Bit depth : 8 bits
Scan type : Progressive
Bits/(Pixel*Frame) : 0.203
Stream size : 1.76 GiB (74%)
Title : Rip by 0ptimus
Writing library : x264 core 129 r2245 bc13772
Encoding settings : cabac=1 / ref=9 / deblock=1:-3:-3 / analyse=0x3:0x113 / me=umh / subme=11 / psy=1 / psy_rd=1.00:0.20 / mixed_ref=1 / me_range=32 / chroma_me=1 / trellis=2 / 8x8dct=1 / cqm=0 / deadzone=21,11 / fast_pskip=0 / chroma_qp_offset=-3 / threads=4 / lookahead_threads=1 / sliced_threads=0 / nr=0 / decimate=0 / interlaced=0 / bluray_compat=0 / constrained_intra=0 / bframes=12 / b_pyramid=2 / b_adapt=2 / b_bias=0 / direct=3 / weightb=1 / open_gop=0 / weightp=2 / keyint=240 / keyint_min=23 / scenecut=40 / intra_refresh=0 / rc_lookahead=40 / rc=2pass / mbtree=0 / bitrate=2864 / ratetol=1.0 / qcomp=0.60 / qpmin=0 / qpmax=69 / qpstep=4 / cplxblur=20.0 / qblur=0.5 / vbv_maxrate=50000 / vbv_bufsize=50000 / nal_hrd=none / ip_ratio=1.40 / pb_ratio=1.30 / aq=1:1.00
Language : English
Default : Yes
Forced : Yes

Audio #1
ID : 2
Format : AC-3
Format/Info : Audio Coding 3
Mode extension : CM (complete main)
Format settings, Endianness : Big
Codec ID : A_AC3
Duration : 1h 30mn
Bit rate mode : Constant
Bit rate : 448 Kbps
Channel(s) : 6 channels
Channel positions : Front: L C R, Side: L R, LFE
Sampling rate : 48.0 KHz
Bit depth : 16 bits
Compression mode : Lossy
Stream size : 289 MiB (12%)
Title : Многоголосый закадровый [Союз-Видео]
Language : Russian
Default : Yes
Forced : Yes

Audio #2
ID : 3
Format : AC-3
Format/Info : Audio Coding 3
Mode extension : CM (complete main)
Format settings, Endianness : Big
Codec ID : A_AC3
Duration : 1h 30mn
Bit rate mode : Constant
Bit rate : 448 Kbps
Channel(s) : 6 channels
Channel positions : Front: L C R, Side: L R, LFE
Sampling rate : 48.0 KHz
Bit depth : 16 bits
Compression mode : Lossy
Stream size : 289 MiB (12%)
Language : English
Default : No
Forced : No

Text #1
ID : 4
Format : UTF-8
Codec ID : S_TEXT/UTF8
Codec ID/Info : UTF-8 Plain Text
Language : Russian
Default : No
Forced : No

Text #2
ID : 5
Format : UTF-8
Codec ID : S_TEXT/UTF8
Codec ID/Info : UTF-8 Plain Text
Language : English
Default : No
Forced : No

Menu
00:00:00.000 : :Chapter 01
00:08:32.011 : :Chapter 02
00:15:56.955 : :Chapter 03
00:22:48.200 : :Chapter 04
00:27:34.319 : :Chapter 05
00:36:47.079 : :Chapter 06
00:44:46.850 : :Chapter 07
00:51:23.663 : :Chapter 08
00:58:51.903 : :Chapter 09
01:06:33.072 : :Chapter 10
01:12:23.046 : :Chapter 11
01:22:24.689 : :Chapter 12
01:29:33.618 : :Chapter 13
01:30:10.154 : :Chapter 14

Скриншоты:

Правила, инструкции, FAQ!!!
Торрент  Добавлен [09 апр 2015, 00:02] Скачать торрент Магнет ссылка
Скачать торрент
37.26 КБ

Статус
Проверен 
 
Размер  7.26 ГБ
Приватный: Нет (DHT включён)
.torrent скачан  3
Как залить торрент? | Как скачать Torrent? | Как смотреть и слушать онлайн?  
Гость
 



Вернуться в Трилогии

Кто сейчас на конференции

Сейчас этот форум просматривают: нет зарегистрированных пользователей и гости: 0