Безумный Макс: Дорога ярости / Mad Max: Fury Road (2015) BDRip 1080p | iTunes

Статистика раздачи
Размер: 7.96 ГБ | Добавлен: 14 авг 2015, 16:03 | Скачали: 94
Сидеров: 216  [0 байт/сек]    Личеров: 941  [0 байт/сек]

Сообщение Гость » 14 авг 2015, 16:03

Название: Безумный Макс: Дорога ярости
Оригинальное название: Mad Max: Fury Road
Год выхода: 2015
Жанр: боевик, фантастика, приключения
Режиссер: Джордж Миллер
В ролях: Том Харди, Шарлиз Терон, Николас Холт, Хью Кияс-Бёрн, Райли Кио, Роузи Хантингтон-Уайтли, Зои Кравиц, Эбби Ли, Кортни Итон, Нэйтан Джонс

О фильме: Преследуемый призраками беспокойного прошлого, Макс уверен, что лучший способ выжить — скитаться в одиночестве. Несмотря на это, он присоединяется к бунтарям, бегущим через всю пустыню на боевой фуре, под предводительством военачальника Фуриосы.

Они пытаются сбежать из Цитадели, страдающей от тирании Несмертного Джо, у которого они забрали кое-что очень ценное. Разъярённый военачальник бросает все свои силы на погоню за мятежниками, ступая на дорогу войны — дорогу ярости.
Страна: Австралия, США
Студия: Village Roadshow Pictures
Продолжительность: 02:00:21
Перевод: Профессиональный (дублированный) iTunes Russia




Кодек: MPEG-4 AVC
Качество: 1080p
Видео: 8456 Кбит/с, 1920х800
Звук: Русский (AC3, 6 ch, 384 Кбит/с), Английский (AC3, 6 ch, 640 Кбит/с)
Субтитры: Английские

Семпл




Общее
Уникальный идентификатор : 204646372543724691875068257960551259515 (0x99F5752B1EE14B82B996CB025C6C1D7B)
Полное имя : E:Безумный.Макс.Дорога.ярости.2015.BDRip.1080p.D.Rus.Eng.mkv
Формат : Matroska
Версия формата : Version 4 / Version 2
Размер файла : 7,96 Гбайт
Продолжительность : 2 ч. 0 м.
Общий поток : 9468 Кбит/сек
Название фильма : Безумный Макс: Дорога ярости / Mad Max: Fury Road (2015)
Дата кодирования : UTC 2015-08-14 08:50:19
Программа кодирования : mkvmerge v8.2.0 ('World of Adventure') 64bit
Библиотека кодирования : libebml v1.3.1 + libmatroska v1.4.2
DURATION : 02:00:22.144000000
NUMBER_OF_FRAMES : 225692
NUMBER_OF_BYTES : 346662912
_STATISTICS_WRITING_APP : mkvmerge v8.2.0 ('World of Adventure') 64bit
_STATISTICS_WRITING_DATE_UTC : 2015-08-14 08:50:19
_STATISTICS_TAGS : BPS DURATION NUMBER_OF_FRAMES NUMBER_OF_BYTES

Видео
Идентификатор : 1
Формат : AVC
Формат/Информация : Advanced Video Codec
Профиль формата : High@L4.1
Параметр CABAC формата : Да
Параметр ReFrames формата : 5 кадров
Идентификатор кодека : V_MPEG4/ISO/AVC
Продолжительность : 2 ч. 0 м.
Битрейт : 8456 Кбит/сек
Ширина : 1920 пикселей
Высота : 800 пикселей
Соотношение сторон : 2,40:1
Режим частоты кадров : Постоянный
Частота кадров : 23,976 кадра/сек
Цветовое пространство : YUV
Субдискретизация насыщенности : 4:2:0
Битовая глубина : 8 бит
Тип развёртки : Прогрессивная
Бит/(Пиксели*Кадры) : 0.230
Размер потока : 6,94 Гбайт (87%)
Заголовок : Безумный Макс: Дорога ярости / Mad Max: Fury Road (2015)
Библиотека кодирования : x264 core 148 r2579 73ae2d1
Настройки программы : cabac=1 / ref=5 / deblock=1:0:0 / analyse=0x3:0x113 / me=umh / subme=8 / psy=1 / psy_rd=1.00:0.00 / mixed_ref=1 / me_range=16 / chroma_me=1 / trellis=1 / 8x8dct=1 / cqm=0 / deadzone=21,11 / fast_pskip=1 / chroma_qp_offset=-2 / threads=9 / lookahead_threads=1 / sliced_threads=0 / nr=0 / decimate=1 / interlaced=0 / bluray_compat=0 / constrained_intra=0 / bframes=3 / b_pyramid=2 / b_adapt=2 / b_bias=0 / direct=3 / weightb=1 / open_gop=0 / weightp=2 / keyint=250 / keyint_min=23 / scenecut=40 / intra_refresh=0 / rc_lookahead=50 / rc=2pass / mbtree=1 / bitrate=8456 / ratetol=1.0 / qcomp=0.60 / qpmin=0 / qpmax=69 / qpstep=4 / cplxblur=20.0 / qblur=0.5 / ip_ratio=1.40 / aq=1:1.00
Язык : English
Default : Да
Forced : Нет
DURATION : 02:00:23.384000000
NUMBER_OF_FRAMES : 173188
NUMBER_OF_BYTES : 7622111394
_STATISTICS_WRITING_APP : mkvmerge v8.2.0 ('World of Adventure') 64bit
_STATISTICS_WRITING_DATE_UTC : 2015-08-14 08:50:19
_STATISTICS_TAGS : BPS DURATION NUMBER_OF_FRAMES NUMBER_OF_BYTES

Аудио #1
Идентификатор : 2
Формат : AC-3
Формат/Информация : Audio Coding 3
Расширение режима : CM (complete main)
Параметр Endianness формата : Big
Идентификатор кодека : A_AC3
Продолжительность : 2 ч. 0 м.
Вид битрейта : Постоянный
Битрейт : 384 Кбит/сек
Каналы : 6 каналов
Расположение каналов : Front: L C R, Side: L R, LFE
Частота : 48,0 КГц
Битовая глубина : 16 бит
Метод сжатия : С потерями
Размер потока : 331 Мбайт (4%)
Заголовок : Профессиональный (дублированный) iTunes Russia
Язык : Russian
Default : Да
Forced : Нет

Аудио #2
Идентификатор : 3
Формат : AC-3
Формат/Информация : Audio Coding 3
Расширение режима : CM (complete main)
Параметр Endianness формата : Big
Идентификатор кодека : A_AC3
Продолжительность : 2 ч. 0 м.
Вид битрейта : Постоянный
Битрейт : 640 Кбит/сек
Каналы : 6 каналов
Расположение каналов : Front: L C R, Side: L R, LFE
Частота : 48,0 КГц
Битовая глубина : 16 бит
Метод сжатия : С потерями
Размер потока : 551 Мбайт (7%)
Заголовок : Английский
Язык : English
Default : Нет
Forced : Нет

Текст #1
Идентификатор : 4
Формат : UTF-8
Идентификатор кодека : S_TEXT/UTF8
Идентификатор кодека/Информация : UTF-8 Plain Text
Заголовок : English
Язык : English
Default : Нет
Forced : Нет

Текст #2
Идентификатор : 5
Формат : UTF-8
Идентификатор кодека : S_TEXT/UTF8
Идентификатор кодека/Информация : UTF-8 Plain Text
Заголовок : English SDH
Язык : English
Default : Нет
Forced : Нет

Меню
00:00:00.000 : en:00:00:00.000
00:10:42.475 : en:00:10:42.475
00:19:06.437 : en:00:19:06.437
00:30:12.310 : en:00:30:12.310
00:42:55.615 : en:00:42:55.615
00:49:33.345 : en:00:49:33.345
00:59:55.175 : en:00:59:55.175
01:13:02.545 : en:01:13:02.545
01:22:08.924 : en:01:22:08.924
01:30:02.731 : en:01:30:02.731
01:40:39.867 : en:01:40:39.867
01:49:12.546 : en:01:49:12.546
01:53:06.279 : en:01:53:06.279
Правила, инструкции, FAQ!!!
Торрент  Добавлен [14 авг 2015, 16:03]

Статус
Проверен Admin (20 авг 2015, 16:08)
 
Размер  7.96 ГБ
Приватный: Нет (DHT включён)
.torrent скачан  94
Как залить торрент? | Как скачать Torrent? | Как смотреть и слушать онлайн?  
Гость
 


  • Похожие торренты
    Ответы
    Просмотры
    Последнее сообщение

Вернуться в Новинки кино

Кто сейчас на конференции

Сейчас этот форум просматривают: нет зарегистрированных пользователей и гости: 0