Без вести пропавшие. Трилогия / Missing in Action. Trilogy (1984-1988) BDRip-AVC | P, P2, A, L


Статистика раздачи
Размер: 9.86 ГБ | Добавлен: 23 окт 2013, 20:20 | Скачали: 0
Сидеров: 0  [0 байт/сек]    Личеров: 1  [0 байт/сек]

Сообщение Гость » 23 окт 2013, 20:20

Название: Без вести пропавшие. Трилогия
Оригинальное название: Missing in Action. Trilogy
Год выхода: 1984-1988
Жанр: Боевик, драма, приключения, военный
Режиссер: Аарон Норрис, Джозеф Зито, Лэнс Хул

В ролях: Чак Норрис, О Сун Тек, Стивен Уильямс, Беннетт Охта, Кози Коста, Джо Майкл Терри, Джон Уэсли, Дэвид Чун, профессор Тору Танака, Джон Отрин, МакКензи, Ник Расселл, М. Эммет Уолш, Дэвид Тресс, Ленор Касдорф, Джеймс Хонг, Эрни Ортега, Пьеррино Маскарино, Эрик Андерсон, Джозеф Карберри, Ави Клайнбергер, Уилли Уильямс, Рик Сегрето, Белла Флорес, Сабатини Фернандес, Ренато Морадо, Джеймс Крамрайн, Джеф Мейсон, Аки Алеонг, Роланд Харра III, Мики Ким, Иегуда Эфрони, Рон Баркер, Флойд Левайн, Джек Рейдер, Мелинда Бетрон, Рик Прието, Жан Майкл Шульц, Кит Дэвид

О фильме:
Много времени прошло с окончания войны во Вьетнаме, но одна из самых болезненных проблем американского общества сохраняется: две с половиной тысячи американских солдат числятся пропавшими без вести, семьи и близкие ничего не знают о судьбе этих солдат и офицеров...


Без вести пропавшие / Missing in Action (1984) BDRip-AVC от MediaClub | P, A, L



Информация о фильме
Название: Без вести пропавшие
Оригинальное название: Missing in Action
Год выхода: 1984
Жанр: Боевик, драма, приключения, военный
Режиссер: Джозеф Зито
В ролях: Чак Норрис, М. Эммет Уолш, Дэвид Тресс, Ленор Касдорф, Джеймс Хонг, Эрни Ортега, Пьеррино Маскарино, Эрик Андерсон, Джозеф Карберри, Ави Клайнбергер, Уилли Уильямс, Рик Сегрето, Белла Флорес, Сабатини Фернандес, Ренато Морадо, Роджерс Дантес, Джеймс Крамрайн, Джеф Мейсон, Стивен Барберс, Динна Кроу, Джульетт Ли, Джуни Гамбоа, Аугусто Викта, Протасио Ди, Омар Комар, Жан-Клод Ван Дамм

О фильме:
Много времени прошло с момента войны во Вьетнаме, но одна из самых болезненных проблем американского общества сохраняется: две с половиной тысячи американских солдат числятся пропавшими без вести, семьи и близкие ничего не знают о судьбе этих солдат и офицеров. Ползут слухи, что некоторые военнопленные до сих пор находятся в лагерях на территории Вьетнама и содержатся там в нечеловеческих условиях, жестоко эксплуатируются и подвергаются истязаниям. Правительство принимает решение прояснить ситуацию о собирает специальную комиссию, которая должна будет поехать во Вьетнам и провести проверку. В комиссию приглашают полковника Джеймса Брэддока, ветерана войны во Вьетнаме. Джеймс Брэддок сам хлебнул горя во вьетнамском плену, где его с группой других американских военнослужащих содержали 10 лет уже после окончания войны во Вьетнаме. Брэддок проявил тогда невероятный героизм, ему удалось в одиночку завладеть оружием, захватить лагерь и организовать побег своих сослуживцев, которые благополучно вернулись домой… Именно из-за этого подвига Брэддока пригласили в комиссию, но власти даже и не подозревали, как именно будет действовать этот делегат на территории Вьетнама…



Страна: США
Студия: Globus Production, The Cannon Group Inc.
Продолжительность: 01:41:40
Перевод: Профессиональный (многоголосый закадровый) + авторский (одноголосый) (В. Горчаков), (Ю. Живов) + любительский (одноголосый) + оригинал

Файл
Кодек: MPEG-4 AVC
Качество: BDRip-AVC
Видео: 3500 Кбит/с, 1024х554, 23.976 кадр/с
Звук:
Русский (AC3, 2 ch, 192 Кбит/с) / Профессиональный (многоголосый закадровый)
Русский (AC3, 2 ch, 192 Кбит/с) / Авторский (одноголосый) (В. Горчаков)
Русский (AC3, 1 ch, 192 Кбит/с) / Авторский (одноголосый) (Ю. Живов)
Русский (AC3, 2 ch, 192 Кбит/с) / Любительский (одноголосый) (неизвестная)
Русский (AC3, 2 ch, 192 Кбит/с) / Любительский (одноголосый) (неизвестный)
Русский (AC3, 2 ch, 192 Кбит/с) / Любительский (одноголосый) (неизвестный)
Английский (АС3, 1 ch, 192 Кбит/с)
Субтитры: Английские

Семпл




Без вести пропавшие 2: Начало / Missing in Action 2: The Beginning (1985) BDRip-AVC от MediaClub | P2, A, L



Информация о фильме
Название: Без вести пропавшие 2: Начало
Оригинальное название: Missing in Action 2: The Beginning
Год выхода: 1985
Жанр: Боевик, драма, приключения, военный
Режиссер: Лэнс Хул
В ролях: Чак Норрис, Сун-Тек Ох, Стивен Уильямс, Беннетт Охта, Кози Коста, Джо Майкл Терри, Джон Уэсли, Дэвид Чун, Джон Отрин, Кристофер Кэри, Тору Танака, Кристофер Кэри, Джозеф Хью, Дин Рафаэль Феррандини, Пьер Иссо, Миша Хауссерманн, Рандон Ло, Мичийо Танака, Андреа Лоу, Нэнси Мартин

О фильме:
Война во Вьетнаме, 1972 год… При выполнении боевого задания в плен попадает группа американских солдат во главе с полковником Брэддоком. Их считают пропавшими без вести. Начальник лагеря, расположенного в джунглях, полковник Вин всеми способами пытается сломить волю Брэддока. Но, в конце концов, Брэддоку удается сбежать и начать партизанскую войну...



Страна: США
Студия: Cannon Group
Продолжительность: 01:35:31
Перевод: Профессиональный (двухголосый закадровый) + авторский (одноголосый) (В. Горчаков), (В. Дохалов) + любительский (одноголосый) + оригинал

Файл
Кодек: MPEG-4 AVC
Качество: BDRip-AVC
Видео: 3500 Кбит/с, 1024х554, 23.976 кадр/с
Звук:
Русский (AC3, 2 ch, 192 Кбит/с) / Профессиональный (двухголосый закадровый)
Русский (AC3, 2 ch, 192 Кбит/с) / Авторский (одноголосый) (В. Горчаков)
Русский (AC3, 2 ch, 192 Кбит/с) / Авторский (одноголосый) (В. Дохалов)
Русский (AC3, 2 ch, 192 Кбит/с) / Любительский (одноголосый) (неизвестный)
Русский (AC3, 2 ch, 192 Кбит/с) / Любительский (одноголосый) (неизвестный)
Русский (AC3, 2 ch, 192 Кбит/с) / Любительский (одноголосый) (неизвестный)
Английский (АС3, 1 ch, 192 Кбит/с)
Субтитры: Английские

Семпл




Брэддок. Без вести пропавшие 3 / Braddock. Missing in action 3 (1988) BDRip-AVC от MediaClub | P, L



Информация о фильме
Название: Без вести пропавшие 3
Оригинальное название: Braddock. Missing in action 3
Год выхода: 1988
Жанр: Боевик, драма, приключения, военный
Режиссер: Аарон Норрис
В ролях: Чак Норрис, Аки Алеонг, Роланд Харра, Мики Ким, Рон Баркер, Флойд Ливайн, Джек Рейдер, Мелинда Бетрон, Рик Прието, Жан Майкл Шульц, Кит Дэвид, Тхюй Лин Самора, Пита Либоро, Джефф Хабберстэд, Ховард Джексон, Ричард Кинг, Джим МакКензи, Ник Расселл

О фильме:
Полковник Брэддок, которому удалось бежать из жестокого плена, возвращается обратно во Вьетнам на поиски жены, которую он считал погибшей во время бомбежки в последние дни перед уходом американцев из Сайгона...


Страна: США
Студия: Golan, Globus Production
Продолжительность: 01:43:05
Перевод: Профессиональный (многоголосый закадровый) + любительский (одноголосый) + оригинал

Файл
Кодек: MPEG-4 AVC
Качество: BDRip-AVC
Видео: 3200 Кбит/с, 1024х556, 23.976 кадр/с
Звук:
Русский (AC3, 2 ch, 192 Кбит/с) / Профессиональный (многоголосый закадровый)
Русский (AC3, 2 ch, 192 Кбит/с) / Любительский (одноголосый) (неизвестный)
Русский (AC3, 2 ch, 192 Кбит/с) / Любительский (одноголосый) (неизвестный)
Русский (AC3, 2 ch, 192 Кбит/с) / Любительский (одноголосый) (неизвестный)
Русский (AC3, 2 ch, 192 Кбит/с) / Любительский (одноголосый) (неизвестный)
Английский (АС3, 2 ch, 256 Кбит/с)

Семпл





Техническая информация:

Общее
Уникальный идентификатор : 175515360461816056417132723654270127401 (0x840B0762254675BAA0BDBAF92EF40D29)
Полное имя : D:2Films DРелизыBez.vesti.propavshie.Trilogija.1984-1988.x264.BDRip.AVC.MediaClubBez.vesti.propavshie.1984.x264.BDRip.AVC.MediaClub.mkv
Формат : Matroska
Версия формата : Version 2
Размер файла : 3,44 Гбайт
Продолжительность : 1 ч. 41 м.
Общий поток : 4846 Кбит/сек
Название фильма : = MediaClub = rip by Lefevr
Дата кодирования : UTC 2013-10-17 21:11:31
Программа кодирования : mkvmerge v5.4.0 ('Piper') built on Mar 10 2012 13:34:39
Библиотека кодирования : libebml v1.2.3 + libmatroska v1.3.0

Видео
Идентификатор : 1
Формат : AVC
Формат/Информация : Advanced Video Codec
Профиль формата : High@L4.1
Параметр CABAC формата : Да
Параметр ReFrames формата : 9 кадров
Идентификатор кодека : V_MPEG4/ISO/AVC
Продолжительность : 1 ч. 41 м.
Битрейт : 3500 Кбит/сек
Ширина : 1024 пикселя
Высота : 554 пикселя
Соотношение сторон : 1,85:1
Режим частоты кадров : Постоянный
Частота кадров : 23,976 кадра/сек
Цветовое пространство : YUV
Субдискретизация насыщенности : 4:2:0
Битовая глубина : 8 бит
Тип развёртки : Прогрессивная
Бит/(Пиксели*Кадры) : 0.257
Размер потока : 2,42 Гбайт (70%)
Заголовок : Bez.vesti.propavshie.1984.x264.BDRip.AVC.MediaClub
Библиотека кодирования : x264 core 130 r2273 b3065e6
Настройки программы : cabac=1 / ref=9 / deblock=1:-3:-3 / analyse=0x3:0x133 / me=umh / subme=11 / psy=1 / psy_rd=1.00:0.20 / mixed_ref=1 / me_range=32 / chroma_me=1 / trellis=2 / 8x8dct=1 / cqm=0 / deadzone=21,11 / fast_pskip=0 / chroma_qp_offset=-3 / threads=6 / lookahead_threads=1 / sliced_threads=0 / nr=0 / decimate=0 / interlaced=0 / bluray_compat=0 / constrained_intra=0 / bframes=8 / b_pyramid=2 / b_adapt=2 / b_bias=0 / direct=3 / weightb=1 / open_gop=0 / weightp=2 / keyint=240 / keyint_min=23 / scenecut=40 / intra_refresh=0 / rc=2pass / mbtree=0 / bitrate=3500 / ratetol=1.0 / qcomp=0.60 / qpmin=0 / qpmax=69 / qpstep=4 / cplxblur=20.0 / qblur=0.5 / ip_ratio=1.40 / pb_ratio=1.30 / aq=1:1.00
Язык : English
Default : Да
Forced : Нет

Аудио #1
Идентификатор : 2
Формат : AC-3
Формат/Информация : Audio Coding 3
Расширение режима : CM (complete main)
Параметр Endianness формата : Big
Идентификатор кодека : A_AC3
Продолжительность : 1 ч. 41 м.
Вид битрейта : Постоянный
Битрейт : 192 Кбит/сек
Каналы : 2 канала
Расположение каналов : Front: L R
Частота : 48,0 КГц
Битовая глубина : 16 бит
Метод сжатия : С потерями
Размер потока : 140 Мбайт (4%)
Заголовок : TRACK_01_MVO_RUS
Язык : Russian
Default : Да
Forced : Нет

Аудио #2
Идентификатор : 3
Формат : AC-3
Формат/Информация : Audio Coding 3
Расширение режима : CM (complete main)
Параметр Endianness формата : Big
Идентификатор кодека : A_AC3
Продолжительность : 1 ч. 41 м.
Вид битрейта : Постоянный
Битрейт : 192 Кбит/сек
Каналы : 2 канала
Расположение каналов : Front: L R
Частота : 48,0 КГц
Битовая глубина : 16 бит
Метод сжатия : С потерями
Размер потока : 140 Мбайт (4%)
Заголовок : TRACK_02_AVO_RUS_Gorchakov
Язык : Russian
Default : Нет
Forced : Нет

Аудио #3
Идентификатор : 4
Формат : AC-3
Формат/Информация : Audio Coding 3
Расширение режима : CM (complete main)
Параметр Endianness формата : Big
Идентификатор кодека : A_AC3
Продолжительность : 1 ч. 41 м.
Вид битрейта : Постоянный
Битрейт : 192 Кбит/сек
Каналы : 1 канал
Расположение каналов : Front: C
Частота : 48,0 КГц
Битовая глубина : 16 бит
Метод сжатия : С потерями
Размер потока : 140 Мбайт (4%)
Заголовок : TRACK_03_AVO_RUS_Zhivov
Язык : Russian
Default : Нет
Forced : Нет

Аудио #4
Идентификатор : 5
Формат : AC-3
Формат/Информация : Audio Coding 3
Расширение режима : CM (complete main)
Параметр Endianness формата : Big
Идентификатор кодека : A_AC3
Продолжительность : 1 ч. 41 м.
Вид битрейта : Постоянный
Битрейт : 192 Кбит/сек
Каналы : 2 канала
Расположение каналов : Front: L R
Частота : 48,0 КГц
Битовая глубина : 16 бит
Метод сжатия : С потерями
Размер потока : 140 Мбайт (4%)
Заголовок : TRACK_04_VO_RUS_Unc
Язык : Russian
Default : Нет
Forced : Нет

Аудио #5
Идентификатор : 6
Формат : AC-3
Формат/Информация : Audio Coding 3
Расширение режима : CM (complete main)
Параметр Endianness формата : Big
Идентификатор кодека : A_AC3
Продолжительность : 1 ч. 41 м.
Вид битрейта : Постоянный
Битрейт : 192 Кбит/сек
Каналы : 2 канала
Расположение каналов : Front: L R
Частота : 48,0 КГц
Битовая глубина : 16 бит
Метод сжатия : С потерями
Размер потока : 140 Мбайт (4%)
Заголовок : TRACK_05_VO_RUS_Unc
Язык : Russian
Default : Нет
Forced : Нет

Аудио #6
Идентификатор : 7
Формат : AC-3
Формат/Информация : Audio Coding 3
Расширение режима : CM (complete main)
Параметр Endianness формата : Big
Идентификатор кодека : A_AC3
Продолжительность : 1 ч. 41 м.
Вид битрейта : Постоянный
Битрейт : 192 Кбит/сек
Каналы : 2 канала
Расположение каналов : Front: L R
Частота : 48,0 КГц
Битовая глубина : 16 бит
Метод сжатия : С потерями
Размер потока : 140 Мбайт (4%)
Заголовок : TRACK_06_VO_RUS_Unc
Язык : Russian
Default : Нет
Forced : Нет

Аудио #7
Идентификатор : 8
Формат : AC-3
Формат/Информация : Audio Coding 3
Расширение режима : CM (complete main)
Параметр Endianness формата : Big
Идентификатор кодека : A_AC3
Продолжительность : 1 ч. 41 м.
Вид битрейта : Постоянный
Битрейт : 192 Кбит/сек
Каналы : 1 канал
Расположение каналов : Front: C
Частота : 48,0 КГц
Битовая глубина : 16 бит
Метод сжатия : С потерями
Размер потока : 140 Мбайт (4%)
Заголовок : TRACK_07_ORIGINAL_ENG
Язык : English
Default : Нет
Forced : Нет

Текст
Идентификатор : 9
Формат : UTF-8
Идентификатор кодека : S_TEXT/UTF8
Идентификатор кодека/Информация : UTF-8 Plain Text
Заголовок : TEXT_01_SUB_ENG
Язык : English
Default : Нет
Forced : Нет

Меню
00:00:00.000 : en:00:00:00.000
00:01:49.484 : en:00:01:49.484
00:09:22.270 : en:00:09:22.270
00:14:19.025 : en:00:14:19.025
00:16:29.780 : en:00:16:29.780
00:18:04.625 : en:00:18:04.625
00:21:56.941 : en:00:21:56.941
00:24:10.699 : en:00:24:10.699
00:28:48.560 : en:00:28:48.560
00:34:25.397 : en:00:34:25.397
00:41:12.303 : en:00:41:12.303
00:43:01.704 : en:00:43:01.704
00:47:30.056 : en:00:47:30.056
00:49:50.571 : en:00:49:50.571
00:54:25.679 : en:00:54:25.679
00:58:44.438 : en:00:58:44.438
01:03:29.431 : en:01:03:29.431
01:05:38.726 : en:01:05:38.726
01:07:56.698 : en:01:07:56.698
01:12:40.106 : en:01:12:40.106
01:16:42.723 : en:01:16:42.723
01:21:50.197 : en:01:21:50.197
01:23:38.513 : en:01:23:38.513
01:27:44.009 : en:01:27:44.009
01:29:06.132 : en:01:29:06.132
01:34:15.108 : en:01:34:15.108
01:37:02.775 : en:01:37:02.775
01:38:29.195 : en:01:38:29.195

x264 [info]: frame I:1132 Avg QP:18.54 size: 94396
x264 [info]: frame P:32840 Avg QP:21.12 size: 34050
x264 [info]: frame B:112285 Avg QP:22.57 size: 12848

Общее
Уникальный идентификатор : 244420778406072021273229616086062145160 (0xB7E1BAC821BE7E6CA0DADE6999371E88)
Полное имя : D:2Films DРелизыBez.vesti.propavshie.Trilogija.1984-1988.x264.BDRip.AVC.MediaClubBez.vesti.propavshie.Nachalo.1985.x264.BDRip.AVC.MediaClub.mkv
Формат : Matroska
Версия формата : Version 2
Размер файла : 3,23 Гбайт
Продолжительность : 1 ч. 35 м.
Общий поток : 4846 Кбит/сек
Название фильма : = MediaClub = rip by Lefevr
Дата кодирования : UTC 2013-10-20 13:11:39
Программа кодирования : mkvmerge v5.4.0 ('Piper') built on Mar 10 2012 13:34:39
Библиотека кодирования : libebml v1.2.3 + libmatroska v1.3.0

Видео
Идентификатор : 1
Формат : AVC
Формат/Информация : Advanced Video Codec
Профиль формата : High@L4.1
Параметр CABAC формата : Да
Параметр ReFrames формата : 9 кадров
Идентификатор кодека : V_MPEG4/ISO/AVC
Продолжительность : 1 ч. 35 м.
Битрейт : 3500 Кбит/сек
Ширина : 1024 пикселя
Высота : 554 пикселя
Соотношение сторон : 1,85:1
Режим частоты кадров : Постоянный
Частота кадров : 23,976 кадра/сек
Цветовое пространство : YUV
Субдискретизация насыщенности : 4:2:0
Битовая глубина : 8 бит
Тип развёртки : Прогрессивная
Бит/(Пиксели*Кадры) : 0.257
Размер потока : 2,27 Гбайт (70%)
Заголовок : Bez.vesti.propavshie.Nachalo.1985.x264.BDRip.AVC.MediaClub
Библиотека кодирования : x264 core 130 r2273 b3065e6
Настройки программы : cabac=1 / ref=9 / deblock=1:-3:-3 / analyse=0x3:0x133 / me=umh / subme=11 / psy=1 / psy_rd=1.00:0.15 / mixed_ref=1 / me_range=32 / chroma_me=1 / trellis=2 / 8x8dct=1 / cqm=0 / deadzone=21,11 / fast_pskip=0 / chroma_qp_offset=-3 / threads=6 / lookahead_threads=1 / sliced_threads=0 / nr=0 / decimate=0 / interlaced=0 / bluray_compat=0 / constrained_intra=0 / bframes=8 / b_pyramid=2 / b_adapt=2 / b_bias=0 / direct=3 / weightb=1 / open_gop=0 / weightp=2 / keyint=240 / keyint_min=23 / scenecut=40 / intra_refresh=0 / rc=2pass / mbtree=0 / bitrate=3500 / ratetol=1.0 / qcomp=0.60 / qpmin=0 / qpmax=69 / qpstep=4 / cplxblur=20.0 / qblur=0.5 / ip_ratio=1.40 / pb_ratio=1.30 / aq=1:1.00
Язык : English
Default : Да
Forced : Нет

Аудио #1
Идентификатор : 2
Формат : AC-3
Формат/Информация : Audio Coding 3
Расширение режима : CM (complete main)
Параметр Endianness формата : Big
Идентификатор кодека : A_AC3
Продолжительность : 1 ч. 35 м.
Вид битрейта : Постоянный
Битрейт : 192 Кбит/сек
Каналы : 2 канала
Расположение каналов : Front: L R
Частота : 48,0 КГц
Битовая глубина : 16 бит
Метод сжатия : С потерями
Размер потока : 131 Мбайт (4%)
Заголовок : TRACK_01_DVO_RUS
Язык : Russian
Default : Да
Forced : Нет

Аудио #2
Идентификатор : 3
Формат : AC-3
Формат/Информация : Audio Coding 3
Расширение режима : CM (complete main)
Параметр Endianness формата : Big
Идентификатор кодека : A_AC3
Продолжительность : 1 ч. 35 м.
Вид битрейта : Постоянный
Битрейт : 192 Кбит/сек
Каналы : 2 канала
Расположение каналов : Front: L R
Частота : 48,0 КГц
Битовая глубина : 16 бит
Метод сжатия : С потерями
Размер потока : 131 Мбайт (4%)
Заголовок : TRACK_02_AVO_Gorchakov
Язык : Russian
Default : Нет
Forced : Нет

Аудио #3
Идентификатор : 4
Формат : AC-3
Формат/Информация : Audio Coding 3
Расширение режима : CM (complete main)
Параметр Endianness формата : Big
Идентификатор кодека : A_AC3
Продолжительность : 1 ч. 35 м.
Вид битрейта : Постоянный
Битрейт : 192 Кбит/сек
Каналы : 2 канала
Расположение каналов : Front: L R
Частота : 48,0 КГц
Битовая глубина : 16 бит
Метод сжатия : С потерями
Размер потока : 131 Мбайт (4%)
Заголовок : TRACK_03_AVO_Dohalov
Язык : Russian
Default : Нет
Forced : Нет

Аудио #4
Идентификатор : 5
Формат : AC-3
Формат/Информация : Audio Coding 3
Расширение режима : CM (complete main)
Параметр Endianness формата : Big
Идентификатор кодека : A_AC3
Продолжительность : 1 ч. 35 м.
Вид битрейта : Постоянный
Битрейт : 192 Кбит/сек
Каналы : 2 канала
Расположение каналов : Front: L R
Частота : 48,0 КГц
Битовая глубина : 16 бит
Метод сжатия : С потерями
Размер потока : 131 Мбайт (4%)
Заголовок : TRACK_04_VO_RUS_Unc
Язык : Russian
Default : Нет
Forced : Нет

Аудио #5
Идентификатор : 6
Формат : AC-3
Формат/Информация : Audio Coding 3
Расширение режима : CM (complete main)
Параметр Endianness формата : Big
Идентификатор кодека : A_AC3
Продолжительность : 1 ч. 35 м.
Вид битрейта : Постоянный
Битрейт : 192 Кбит/сек
Каналы : 2 канала
Расположение каналов : Front: L R
Частота : 48,0 КГц
Битовая глубина : 16 бит
Метод сжатия : С потерями
Размер потока : 131 Мбайт (4%)
Заголовок : TRACK_05_VO_RUS_Unc
Язык : Russian
Default : Нет
Forced : Нет

Аудио #6
Идентификатор : 7
Формат : AC-3
Формат/Информация : Audio Coding 3
Расширение режима : CM (complete main)
Параметр Endianness формата : Big
Идентификатор кодека : A_AC3
Продолжительность : 1 ч. 35 м.
Вид битрейта : Постоянный
Битрейт : 192 Кбит/сек
Каналы : 2 канала
Расположение каналов : Front: L R
Частота : 48,0 КГц
Битовая глубина : 16 бит
Метод сжатия : С потерями
Размер потока : 131 Мбайт (4%)
Заголовок : TRACK_06_VO_RUS_Unc
Язык : Russian
Default : Нет
Forced : Нет

Аудио #7
Идентификатор : 8
Формат : AC-3
Формат/Информация : Audio Coding 3
Расширение режима : CM (complete main)
Параметр Endianness формата : Big
Идентификатор кодека : A_AC3
Продолжительность : 1 ч. 35 м.
Вид битрейта : Постоянный
Битрейт : 192 Кбит/сек
Каналы : 1 канал
Расположение каналов : Front: C
Частота : 48,0 КГц
Битовая глубина : 16 бит
Метод сжатия : С потерями
Размер потока : 131 Мбайт (4%)
Заголовок : TRACK_07_ORIGINAL_ENG
Язык : English
Default : Нет
Forced : Нет

Текст
Идентификатор : 9
Формат : UTF-8
Идентификатор кодека : S_TEXT/UTF8
Идентификатор кодека/Информация : UTF-8 Plain Text
Заголовок : TEXT_01_SUB_ENG
Язык : English
Default : Нет
Forced : Нет

Меню
00:00:00.000 : en:00:00:00.000
00:06:14.291 : en:00:06:14.291
00:11:52.170 : en:00:11:52.170
00:18:37.700 : en:00:18:37.700
00:26:38.680 : en:00:26:38.680
00:31:38.897 : en:00:31:38.897
00:39:17.814 : en:00:39:17.814
00:46:17.775 : en:00:46:17.775
00:52:40.115 : en:00:52:40.115
00:58:56.074 : en:00:58:56.074
01:01:02.367 : en:01:01:02.367
01:05:50.280 : en:01:05:50.280
01:14:38.057 : en:01:14:38.057
01:21:12.785 : en:01:21:12.785
01:24:38.198 : en:01:24:38.198
01:32:04.227 : en:01:32:04.227

x264 [info]: frame I:1455 Avg QP:18.35 size:101315
x264 [info]: frame P:28609 Avg QP:20.93 size: 33625
x264 [info]: frame B:107361 Avg QP:22.39 size: 13014

Общее
Уникальный идентификатор : 249947591785565419277680113247111813337 (0xBC0A27B8386A1C9F84339A34113718D9)
Полное имя : D:2Films DРелизыBez.vesti.propavshie.Trilogija.1984-1988.x264.BDRip.AVC.MediaClubBez.vesti.propavshie.Breddok.1988.x264.BDRip.AVC.MediaClub.mkv
Формат : Matroska
Версия формата : Version 2
Размер файла : 3,18 Гбайт
Продолжительность : 1 ч. 43 м.
Общий поток : 4419 Кбит/сек
Название фильма : = MediaClub = rip by Lefevr
Дата кодирования : UTC 2013-10-17 21:23:26
Программа кодирования : mkvmerge v5.4.0 ('Piper') built on Mar 10 2012 13:34:39
Библиотека кодирования : libebml v1.2.3 + libmatroska v1.3.0

Видео
Идентификатор : 1
Формат : AVC
Формат/Информация : Advanced Video Codec
Профиль формата : High@L4.1
Параметр CABAC формата : Да
Параметр ReFrames формата : 9 кадров
Идентификатор кодека : V_MPEG4/ISO/AVC
Продолжительность : 1 ч. 43 м.
Битрейт : 3200 Кбит/сек
Ширина : 1024 пикселя
Высота : 556 пикселей
Соотношение сторон : 1,85:1
Режим частоты кадров : Постоянный
Частота кадров : 23,976 кадра/сек
Цветовое пространство : YUV
Субдискретизация насыщенности : 4:2:0
Битовая глубина : 8 бит
Тип развёртки : Прогрессивная
Бит/(Пиксели*Кадры) : 0.234
Размер потока : 2,24 Гбайт (70%)
Заголовок : Bez.vesti.propavshie.Breddok.1988.x264.BDRip.AVC.MediaClub
Библиотека кодирования : x264 core 130 r2273 b3065e6
Настройки программы : cabac=1 / ref=9 / deblock=1:-3:-3 / analyse=0x3:0x133 / me=umh / subme=11 / psy=1 / psy_rd=1.00:0.25 / mixed_ref=1 / me_range=32 / chroma_me=1 / trellis=2 / 8x8dct=1 / cqm=0 / deadzone=21,11 / fast_pskip=0 / chroma_qp_offset=-4 / threads=6 / lookahead_threads=1 / sliced_threads=0 / nr=0 / decimate=0 / interlaced=0 / bluray_compat=0 / constrained_intra=0 / bframes=8 / b_pyramid=2 / b_adapt=2 / b_bias=0 / direct=3 / weightb=1 / open_gop=0 / weightp=2 / keyint=240 / keyint_min=23 / scenecut=40 / intra_refresh=0 / rc=2pass / mbtree=0 / bitrate=3200 / ratetol=1.0 / qcomp=0.60 / qpmin=0 / qpmax=69 / qpstep=4 / cplxblur=20.0 / qblur=0.5 / ip_ratio=1.40 / pb_ratio=1.30 / aq=1:1.00
Язык : English
Default : Да
Forced : Нет

Аудио #1
Идентификатор : 2
Формат : AC-3
Формат/Информация : Audio Coding 3
Расширение режима : CM (complete main)
Параметр Endianness формата : Big
Идентификатор кодека : A_AC3
Продолжительность : 1 ч. 43 м.
Вид битрейта : Постоянный
Битрейт : 192 Кбит/сек
Каналы : 2 канала
Расположение каналов : Front: L R
Частота : 48,0 КГц
Битовая глубина : 16 бит
Метод сжатия : С потерями
Размер потока : 142 Мбайт (4%)
Заголовок : TRACK_01_MVO_RUS
Язык : Russian
Default : Да
Forced : Нет

Аудио #2
Идентификатор : 3
Формат : AC-3
Формат/Информация : Audio Coding 3
Расширение режима : CM (complete main)
Параметр Endianness формата : Big
Идентификатор кодека : A_AC3
Продолжительность : 1 ч. 43 м.
Вид битрейта : Постоянный
Битрейт : 192 Кбит/сек
Каналы : 2 канала
Расположение каналов : Front: L R
Частота : 48,0 КГц
Битовая глубина : 16 бит
Метод сжатия : С потерями
Размер потока : 142 Мбайт (4%)
Заголовок : TRACK_02_VO_RUS_Unc
Язык : Russian
Default : Нет
Forced : Нет

Аудио #3
Идентификатор : 4
Формат : AC-3
Формат/Информация : Audio Coding 3
Расширение режима : CM (complete main)
Параметр Endianness формата : Big
Идентификатор кодека : A_AC3
Продолжительность : 1 ч. 43 м.
Вид битрейта : Постоянный
Битрейт : 192 Кбит/сек
Каналы : 2 канала
Расположение каналов : Front: L R
Частота : 48,0 КГц
Битовая глубина : 16 бит
Метод сжатия : С потерями
Размер потока : 142 Мбайт (4%)
Заголовок : TRACK_03_VO_RUS_Unc
Язык : Russian
Default : Нет
Forced : Нет

Аудио #4
Идентификатор : 5
Формат : AC-3
Формат/Информация : Audio Coding 3
Расширение режима : CM (complete main)
Параметр Endianness формата : Big
Идентификатор кодека : A_AC3
Продолжительность : 1 ч. 43 м.
Вид битрейта : Постоянный
Битрейт : 192 Кбит/сек
Каналы : 2 канала
Расположение каналов : Front: L R
Частота : 48,0 КГц
Битовая глубина : 16 бит
Метод сжатия : С потерями
Размер потока : 142 Мбайт (4%)
Заголовок : TRACK_04_VO_RUS_Unc
Язык : Russian
Default : Нет
Forced : Нет

Аудио #5
Идентификатор : 6
Формат : AC-3
Формат/Информация : Audio Coding 3
Расширение режима : CM (complete main)
Параметр Endianness формата : Big
Идентификатор кодека : A_AC3
Продолжительность : 1 ч. 43 м.
Вид битрейта : Постоянный
Битрейт : 192 Кбит/сек
Каналы : 2 канала
Расположение каналов : Front: L R
Частота : 48,0 КГц
Битовая глубина : 16 бит
Метод сжатия : С потерями
Размер потока : 142 Мбайт (4%)
Заголовок : TRACK_05_VO_RUS_Unc
Язык : Russian
Default : Нет
Forced : Нет

Аудио #6
Идентификатор : 7
Формат : AC-3
Формат/Информация : Audio Coding 3
Расширение режима : CM (complete main)
Параметр Endianness формата : Big
Идентификатор кодека : A_AC3
Продолжительность : 1 ч. 43 м.
Вид битрейта : Постоянный
Битрейт : 256 Кбит/сек
Каналы : 2 канала
Расположение каналов : Front: L R
Частота : 48,0 КГц
Битовая глубина : 16 бит
Метод сжатия : С потерями
Размер потока : 189 Мбайт (6%)
Заголовок : TRACK_06_ORIGINAL_ENG
Язык : English
Default : Нет
Forced : Нет

Меню
00:00:00.000 : en:00:00:00.000
00:14:14.020 : en:00:14:14.020
00:24:18.791 : en:00:24:18.791
00:33:14.284 : en:00:33:14.284
00:35:39.763 : en:00:35:39.763
00:41:36.119 : en:00:41:36.119
00:46:32.039 : en:00:46:32.039
00:58:29.506 : en:00:58:29.506
01:02:51.851 : en:01:02:51.851
01:12:42.233 : en:01:12:42.233
01:19:39.233 : en:01:19:39.233
01:30:52.405 : en:01:30:52.405
00:10:00.000 : en:00:10:00.000

x264 [info]: frame I:1400 Avg QP:16.63 size: 75252
x264 [info]: frame P:36999 Avg QP:18.04 size: 34263
x264 [info]: frame B:109892 Avg QP:19.44 size: 9897


Релиз от:

Автор рипа:

• За помощь в подготовке релиза спасибо Константину - Painter
• За постер спасибо Инне - cookies от Media-Art-Club
• За исходник спасибо HDClub и Uralmix
Правила, инструкции, FAQ!!!
Торрент  Добавлен [23 окт 2013, 20:20] Скачать торрент Магнет ссылка
Скачать торрент
50.13 КБ

Статус
Проверен 
 
Размер  9.86 ГБ
Приватный: Нет (DHT включён)
.torrent скачан  0
Как залить торрент? | Как скачать Torrent? | Как смотреть и слушать онлайн?  
Гость
 



Вернуться в Трилогии

Кто сейчас на конференции

Сейчас этот форум просматривают: нет зарегистрированных пользователей и гости: 1