Без улик / Sans laisser de traces / Traceless (Грегори Виньерон / Grégoire Vigneron) [2010, Франция, Триллер, BDRip]

Статистика раздачи
Размер: 1.46 ГБ | Добавлен: 13 фев 2014, 11:38 | Скачали: 1
Сидеров: 2  [0 байт/сек]    Личеров: 0  [0 байт/сек]

Сообщение Гость » 13 фев 2014, 11:38

Без улик / Sans laisser de traces / Traceless

Страна: Франция
Жанр: Триллер
Год выпуска: 2010
Продолжительность: 1:35:50

Перевод: Любительский (двухголосый закадровый)
Cубтитры: нет

Режиссер: Грегори Виньерон / Grégoire Vigneron

Сценарий: Лоран Тирар, Грегори Виньерон
Продюсер: Женевьева Лемаль
Оператор: Лоран Дайян
Композитор: Кристоф Ла Пинта
Художник: Бертран Сэйтц, Кристоф Пидрэ, Florence Scholtes, ...
Монтаж: Валери Десэн

В ролях: Бенуа Мажимель, Франсуа-Хавьер Демасон, Джули Гайе, Леа Сейду, Жан-Мари Винлин, Доминик Лабурье, Андре Вильм

Описание: Этьен скоро должен унаследовать от отчима его компанию, производящую чистящие средства, но одна встреча с другом детства, Патриком, всё меняет. Этьен признается, что 12 лет назад украл у одного химика формулу, благодаря которой его карьерный рост ускорился в разы. Патрик советует Этьену найти этого химика и вознаградить его по заслугам. Всё усложняется после того, как Патрик убивает химика и просит Этьена не идти в полицию. Жизнь Этьена превращается в кошмар. В добавок к расследованиям полиции, угрызениям совести, непониманию жены, Этьен влюбляется в дочь химика — Флёр



СЭМПЛ

Качество видео: BDRip(Исх. BDRemux)

Формат видео: AVI

Видео: 720x304 (2.37:1), 24 fps, XviD build 50 ~1782 kbps avg, 0.34 bit/pixel
Аудио: 48 kHz, AC3 Dolby Digital, 3/2 (L,C,R,l,r) + LFE ch, ~384 kbps
MediaInfo
General
Complete name : L:\Bez ulik.chopper887.avi
Format : AVI
Format/Info : Audio Video Interleave
File size : 1.46 GiB
Duration : 1h 35mn
Overall bit rate : 2 176 Kbps
Movie name : Bez ulik.chopper887
Director : chopper887
Genre : Thriller
Writing application : VirtualDubMod 1.5.10.3 | http://www.virtualdub-fr.org || (build 2550/release)
Original source form/Name : Movie

Video
ID : 0
Format : MPEG-4 Visual
Format profile : Advanced Simple@L5
Format settings, BVOP : 2
Format settings, QPel : No
Format settings, GMC : No warppoints
Format settings, Matrix : Custom
Codec ID : XVID
Codec ID/Hint : XviD
Duration : 1h 35mn
Bit rate : 1 782 Kbps
Width : 720 pixels
Height : 304 pixels
Display aspect ratio : 2.35:1
Frame rate : 24.000 fps
Color space : YUV
Chroma subsampling : 4:2:0
Bit depth : 8 bits
Scan type : Progressive
Compression mode : Lossy
Bits/(Pixel*Frame) : 0.339
Stream size : 1.19 GiB (82%)
Writing library : XviD 1.2.1 (UTC 2008-12-04)

Audio
ID : 1
Format : AC-3
Format/Info : Audio Coding 3
Mode extension : CM (complete main)
Codec ID : 2000
Duration : 1h 35mn
Bit rate mode : Constant
Bit rate : 384 Kbps
Channel(s) : 6 channels
Channel positions : Front: L C R, Side: L R, LFE
Sampling rate : 48.0 KHz
Bit depth : 16 bits
Compression mode : Lossy
Stream size : 263 MiB (18%)
Alignment : Split accross interleaves
Interleave, duration : 42 ms (1.00 video frame)
Interleave, preload duration : 500 ms
Скриншоты
Правила, инструкции, FAQ!!!
Торрент  Добавлен [13 фев 2014, 11:38] Скачать торрент Магнет ссылка
Скачать торрент
[ Размер 15.05 КБ / Просмотров 8 ]

Статус
Проверен 
 
Размер  1.46 ГБ
Приватный: Нет (DHT включён)
.torrent скачан  1
Как залить торрент? | Как скачать Torrent? | Как смотреть и слушать онлайн?  
Гость
 


  • Похожие торренты
    Ответы
    Просмотры
    Последнее сообщение

Вернуться в Триллеры

Кто сейчас на конференции

Сейчас этот форум просматривают: нет зарегистрированных пользователей и гости: 0