Бёрдмэн / Birdman (2014) WEB-DL 720p | Чистый звук

Статистика раздачи
Размер: 3.81 ГБ | Добавлен: 03 фев 2015, 17:37 | Скачали: 268
Сидеров: 804  [0 байт/сек]    Личеров: 1660  [0 байт/сек]

Сообщение Гость » 03 фев 2015, 17:37

Название: Бёрдмэн
Оригинальное название: Birdman
Год выхода: 2014
Жанр: драма, комедия
Режиссер: Алехандро Гонсалес Иньярриту
В ролях: Майкл Китон, Зак Галифианакис, Эдвард Нортон, Андреа Райзборо, Эми Райан, Эмма Стоун, Наоми Уоттс, Кенни Чин, Жамаль Гаррисон-Лоу, Джереми Шамос

О фильме: В центре сюжета бывший актер, некогда сыгравший роль популярного супергероя Бёрдмэна, и теперь, переступая через свое эго, он решает принять участие в новой бродвейской постановке с целью вернуть себе былую славу, блеск и величие.



Выпущено: США, Канада
Продолжительность: 01:59:50
Озвучивание: Дублированное [Чистый звук]


Качество: WEB-DL 720p
Видео: AVC, 1280x690 (1.855), 23.976 fps, 3 886 Kbps (0.183 bit/pixel)
Аудио #1: AC-3, 48.0 KHz, 2 ch, 192 Kbps, CBR (Russian)
Аудио #2: AC-3, 48.0 KHz, 6 ch, 384 Kbps, CBR (English)
Субтитры: English

General
Unique ID : 175186108165096476915302817887747697526 (0x83CB9DFDE881778596D1B3B1DAC1EB76)
Complete name : Birdman.D.2014.WEB-DL.720p.mkv
Format : Matroska
Format version : Version 4 / Version 2
File size : 3.81 GiB
Duration : 1h 59mn
Overall bit rate : 4 552 Kbps
Encoded date : UTC 2015-02-03 06:57:40
Writing application : mkvmerge v6.9.1 ('Blue Panther') 64bit built on Apr 18 2014 18:23:38
Writing library : libebml v1.3.0 + libmatroska v1.4.1

Video
ID : 1
Format : AVC
Format/Info : Advanced Video Codec
Format profile : High@L3.1
Format settings, CABAC : No
Format settings, ReFrames : 2 frames
Codec ID : V_MPEG4/ISO/AVC
Duration : 1h 59mn
Bit rate : 3 886 Kbps
Width : 1 280 pixels
Height : 690 pixels
Display aspect ratio : 1.85:1
Frame rate mode : Constant
Frame rate : 23.976 fps
Color space : YUV
Chroma subsampling : 4:2:0
Bit depth : 8 bits
Scan type : Progressive
Bits/(Pixel*Frame) : 0.183
Stream size : 3.25 GiB (85%)
Language : English
Default : Yes
Forced : No
Color primaries : BT.709
Transfer characteristics : BT.709
Matrix coefficients : BT.709

Audio #1
ID : 2
Format : AC-3
Format/Info : Audio Coding 3
Mode extension : CM (complete main)
Format settings, Endianness : Big
Codec ID : A_AC3
Duration : 1h 59mn
Bit rate mode : Constant
Bit rate : 192 Kbps
Channel(s) : 2 channels
Channel positions : Front: L R
Sampling rate : 48.0 KHz
Bit depth : 16 bits
Compression mode : Lossy
Delay relative to video : 20ms
Stream size : 165 MiB (4%)
Language : Russian
Default : Yes
Forced : No

Audio #2
ID : 3
Format : AC-3
Format/Info : Audio Coding 3
Mode extension : CM (complete main)
Format settings, Endianness : Big
Codec ID : A_AC3
Duration : 1h 59mn
Bit rate mode : Constant
Bit rate : 384 Kbps
Channel(s) : 6 channels
Channel positions : Front: L C R, Side: L R, LFE
Sampling rate : 48.0 KHz
Bit depth : 16 bits
Compression mode : Lossy
Stream size : 329 MiB (8%)
Language : English
Default : No
Forced : No

Text
ID : 4
Format : UTF-8
Codec ID : S_TEXT/UTF8
Codec ID/Info : UTF-8 Plain Text
Language : English
Default : No
Forced : No

Menu
00:00:00.000 : en:Chapter 01
00:03:27.000 : en:Chapter 02
00:07:32.000 : en:Chapter 03
00:09:07.000 : en:Chapter 04
00:12:37.000 : en:Chapter 05
00:16:51.000 : en:Chapter 06
00:19:05.000 : en:Chapter 07
00:20:19.000 : en:Chapter 08
00:25:18.000 : en:Chapter 09
00:31:42.000 : en:Chapter 10
00:36:06.000 : en:Chapter 11
00:37:09.000 : en:Chapter 12
00:42:06.000 : en:Chapter 13
00:48:45.000 : en:Chapter 14
00:53:26.000 : en:Chapter 15
00:58:26.000 : en:Chapter 16
01:03:12.000 : en:Chapter 17
01:08:24.000 : en:Chapter 18
01:12:37.000 : en:Chapter 19
01:16:55.000 : en:Chapter 20
01:20:39.000 : en:Chapter 21
01:25:07.000 : en:Chapter 22
01:27:58.000 : en:Chapter 23
01:33:15.000 : en:Chapter 24
01:39:08.000 : en:Chapter 25
01:43:03.000 : en:Chapter 26
01:46:36.000 : en:Chapter 27
01:52:09.000 : en:Chapter 28
Правила, инструкции, FAQ!!!
Торрент  Добавлен [03 фев 2015, 17:37]

Статус
Проверен 
 
Размер  3.81 ГБ
Приватный: Нет (DHT включён)
.torrent скачан  268
Как залить торрент? | Как скачать Torrent? | Как смотреть и слушать онлайн?  
Гость
 


  • Похожие торренты
    Ответы
    Просмотры
    Последнее сообщение

Вернуться в Новинки кино

Кто сейчас на конференции

Сейчас этот форум просматривают: нет зарегистрированных пользователей и гости: 0