Беовульф в 3Д / Beowulf 3D (Роберт Земекис / Robert Zemeckis) [2007, Мультфильм, Фэнтези, Боевик, Драма, Приключения, BDrip-AVC] Half OverUnder / Вертикальная анаморфная стереопара


Статистика раздачи
Размер: 6.67 ГБ | Добавлен: 02 ноя 2014, 09:48 | Скачали: 4
Сидеров: 81  [0 байт/сек]    Личеров: 20  [0 байт/сек]

Сообщение Гость » 02 ноя 2014, 09:48


Беовульф
Beowulf


Год выпуска: 2007
Страна: США (Warner Bros. Pictures, Shangri-La Entertainment, ImageMovers)
Жанр: Мультфильм, Фэнтези, Боевик, Драма, Приключения
Продолжительность: 1:54:13

Перевод: Профессиональный дублированный (Blu-Ray 2D)

Режиссер: Роберт Земекис / Robert Zemeckis
Роли исполняли (дублировали):



Beowulf / Golden Man / Dragon - Рэй Уинстон (Олег Куценко)
Hrothgar - Энтони Хопкинс (Владимир Еремин)
Wealthow - Робин Райт
(Елена Соловьева)
Unferth - Джон Малкович (Константин Карасик)
Grendel - Криспин Гловер (Пётр Иващенко)
Wiglaf - Брендан Глисон (Андрей Ярославцев)
Grendel's Mother - Анджелина Джоли (Ольга Зубкова)
Hondshew - Костас Мэндилор

Описание: События фильма разворачиваются в ту чудесную эпоху, покрытую туманом прошлого, богатую на героев и монстров, приключения и отвагу, богатство и славу, когда одному исключительному человеку по имени Беовульф удается спасти древнее датское королевство от жуткого чудовища, истребляющего его жителей. После этого сей легендарный викинг ростом почти в два метра, полный дерзости, уверенности и удивительной амбициозности, восходит на трон.
Всё чаще в королевстве звучит имя Беовульфа, о нем слагаются песни, восхваляющие его небывалую доблесть и решительность после того, как он приходит на помощь королю Хродгару, чье королевство подвергается вероломным нападкам Гренделя, беспощадного монстра, который мучает и пожирает жителей королевства, заставляя их жить в вечном ожидании страха и опасности.
Избавляя королевство от безжалостного монстра, Беовульф обретает славу и успех. К его ногам оказываются брошены несметные богатства, но непреодолимые искушения подстерегают его повсюду. То, насколько мудро он сможет распорядиться своей новоприобретенной властью, навсегда определит его судьбу как воина, победителя, как лидера, мужа и, что более важно, как человека.
    Сценаристы Нил Гейман и Роджер Эвэри начали писать сценарий ещё в мае 1997 года.
  • Некоторые 3D-модели актёров в фильме заметно омоложены. А Беовульф внешне не похож на Рэя Уинстона, который сыграл его роль.
    Съёмки: 26 сентября 2005 — нет данных
    Формат изображения: 1.44 : 1 (IMAX 3-D version)
    2.35 : 1
    Формат копии: 35 mm (anamorphic) (Kodak Vision 2383)
    70 mm (horizontal) (IMAX DMR blow-up) (also dual-strip 3-D) (Kodak Vision 2383)
    D-Cinema (also 3-D version)
    Формат съёмок: Digital
    Изображение: цветное
  • Язык: английский, древнеанглийский
#777
Премьера: 5 ноября 2007 (22 ноября 2007)
Релиз на Blu-Ray 2D (DVD) (Россия):
23 декабря 2008 (15 января 2008)
Бюджет:
$150 000 000
Кассовые сборы:
$196 275 135

..
Качество: BDRip (by Ash61)
Контейнер: MKV
Формат 3D: Half OverUnder / Вертикальная анаморфная стереопара
Порядок ракурсов: левый ракурс первый
Видео кодек: x264
Аудио кодек: AC3
Видео: AVC / 23,976 fps / 1920х1080p / ~6.9 Mbps

Аудио:
#1 - Русский / AC3 / 48 KHz / 5.1 ch / 640 Kbps (Дубляж - BD 2D) [Ash61-edit]
#2 - Английский / AC3 / 48 KHz / 5.1 ch / 640 Kbps (Original - BD 3D)

Субтитры: Внешние (SRT UTF-8) English Forced (BD 3D)
General
Unique ID : 214942722095264662018714085963414566558 (0xA1B4766529F03821855B08329332F69E)
Complete name : E:\Beowulf(2007[2014])3D-halfOU(Ash61)\Beowulf(2007[2014])3D-halfOU(Ash61).mkv
Format : Matroska
Format version : Version 2
File size : 6.67 GiB
Duration : 1h 54mn
Overall bit rate : 8 362 Kbps
Movie name : Беовульф / Beowulf (2007 / 2014) 3D
Encoded date : UTC 2014-10-15 12:43:58
Writing application : mkvmerge v5.8.0 ('No Sleep / Pillow') built on Sep 2 2012 15:37:04
Writing library : libebml v1.2.3 + libmatroska v1.3.0

Video
ID : 1
Format : AVC
Format/Info : Advanced Video Codec
Format profile : High@L4.1
Format settings, CABAC : Yes
Format settings, ReFrames : 4 frames
Codec ID : V_MPEG4/ISO/AVC
Duration : 1h 54mn
Bit rate : 6 916 Kbps
Width : 1 920 pixels
Height : 1 080 pixels
Display aspect ratio : 16:9
Frame rate mode : Constant
Frame rate : 23.976 fps
Color space : YUV
Chroma subsampling : 4:2:0
Bit depth : 8 bits
Scan type : Progressive
Bits/(Pixel*Frame) : 0.139
Stream size : 5.52 GiB (83%)
Title : BDRip by Ash61
Writing library : x264 core 138 r2358 9e941d1
Encoding settings : cabac=1 / ref=4 / deblock=1:-3:-3 / analyse=0x3:0x113 / me=umh / subme=10 / psy=1 / psy_rd=1.00:0.15 / mixed_ref=1 / me_range=32 / chroma_me=1 / trellis=2 / 8x8dct=1 / cqm=0 / deadzone=21,11 / fast_pskip=1 / chroma_qp_offset=-3 / threads=12 / lookahead_threads=2 / sliced_threads=0 / nr=0 / decimate=1 / interlaced=0 / bluray_compat=0 / constrained_intra=0 / bframes=8 / b_pyramid=2 / b_adapt=2 / b_bias=0 / direct=3 / weightb=1 / open_gop=0 / weightp=2 / keyint=250 / keyint_min=23 / scenecut=40 / intra_refresh=0 / rc_lookahead=60 / rc=crf / mbtree=1 / crf=17.0 / qcomp=0.70 / qpmin=0 / qpmax=69 / qpstep=4 / vbv_maxrate=40000 / vbv_bufsize=30000 / crf_max=0.0 / nal_hrd=none / frame-packing=4 / ip_ratio=1.40 / aq=1:0.70
Language : English
Default : Yes
Forced : No

Audio #1
ID : 2
Format : AC-3
Format/Info : Audio Coding 3
Mode extension : CM (complete main)
Format settings, Endianness : Big
Codec ID : A_AC3
Duration : 1h 54mn
Bit rate mode : Constant
Bit rate : 640 Kbps
Channel(s) : 6 channels
Channel positions : Front: L C R, Side: L R, LFE
Sampling rate : 48.0 KHz
Bit depth : 16 bits
Compression mode : Lossy
Stream size : 523 MiB (8%)
Title : Дубляж - BD 2D (Ash61-edit)
Language : Russian
Default : Yes
Forced : No

Audio #2
ID : 3
Format : AC-3
Format/Info : Audio Coding 3
Mode extension : CM (complete main)
Format settings, Endianness : Big
Codec ID : A_AC3
Duration : 1h 54mn
Bit rate mode : Constant
Bit rate : 640 Kbps
Channel(s) : 6 channels
Channel positions : Front: L C R, Side: L R, LFE
Sampling rate : 48.0 KHz
Bit depth : 16 bits
Compression mode : Lossy
Stream size : 523 MiB (8%)
Title : Original - BD 3D
Language : English
Default : No
Forced : No

Menu
00:00:00.000 : :1
00:05:22.197 : :2
00:11:33.109 : :3
00:16:56.307 : :4
00:21:00.384 : :5
00:28:21.491 : :6
00:33:44.439 : :7
00:37:41.468 : :8
00:43:30.817 : :9
00:48:42.128 : :10
00:52:04.121 : :11
00:55:14.811 : :12
01:02:08.892 : :13
01:08:12.297 : :14
01:12:36.727 : :15
01:18:50.893 : :16
01:23:30.130 : :17
01:26:20.759 : :18
01:30:49.944 : :19
01:33:52.544 : :20
01:37:39.687 : :21
01:42:22.970 : :22
01:45:23.817 : :23














Правила, инструкции, FAQ!!!
Торрент  Добавлен [02 ноя 2014, 09:48] Скачать торрент Магнет ссылка
Скачать торрент
33.99 КБ

Статус
Проверен 
 
Размер  6.67 ГБ
Приватный: Нет (DHT включён)
.torrent скачан  4
Как залить торрент? | Как скачать Torrent? | Как смотреть и слушать онлайн?  
Гость
 



Вернуться в HD-Video в 3D

Кто сейчас на конференции

Сейчас этот форум просматривают: нет зарегистрированных пользователей и гости: 0