Behind The Scenes - 3 Альбома (2000 - 2008) Дискография [FLAC|Lossless]<Gothic Rock / Synth Pop>


Статистика раздачи
Размер: 1.43 ГБ | Добавлен: 16 мар 2014, 00:08 | Скачали: 0
Сидеров: 1  [0 байт/сек]    Личеров: 3  [0 байт/сек]

Сообщение Гость » 16 мар 2014, 00:08

Behind The Scenes - Дискография: 3 Альбома (2000 - 2008)


Год: 2000 - 2008
Жанр: Gothic Rock / Synth Pop
Страна: Германия
Кодек: FLAC
Битрейт: Lossless
Благодарность за предоставленный материал:

kergarn

Год выпуска диска: 2000
Аудио кодек: FLAC
Тип рипа: tracks+.cue
Битрейт аудио: lossless
Издатель: Bloodline
Каталог №: LINE CD 003
Наличие сканов: да
Продолжительность: 00:53:34
Треклист:
01 - Changes [04:35.12]
02 - Human [05:00.32]
03 - Free [05:29.02]
04 - Protection [04:24.01]
05 - Plastic Love [04:42.09]
06 - More Than a Feeling [04:45.29]
07 - Home [05:01.25]
08 - Dark Agression [05:07.42]
09 - Temptation [04:48.36]
10 - Peak [04:14.33]
11 - Save Me [05:26.49]
Код:
Код: Выделить всё
Exact Audio Copy V0.99 prebeta 4 from 23. January 2008

Отчёт EAC об извлечении, выполненном 15. января 2009, 8:38

Behind The Scenes / Homeless

Дисковод: Optiarc DVD RW AD-7173A   Adapter: 0  ID: 0

Режим чтения                 : Достоверность
Использование точного потока : Да
Отключение кэша аудио        : Да
Использование указателей C2  : Нет

Коррекция смещения при чтении                     : 48
Способность читать области Lead-in и Lead-out     : Нет
Заполнение пропущенных сэмплов тишиной            : Да
Удаление блоков с тишиной в начале и конце        : Нет
При вычислениях CRC использовались нулевые сэмплы : Да
Интерфейс                                         : Встроенный Win32-интерфейс для Win NT/2000

Выходной формат          : Пользовательский кодировщик
Выбранный битрейт        : 1024 kBit/s
Качество                 : Высокий
Добавление ID3-тэга      : Нет
Утилита сжатия           : C:\Program Files\Exact Audio Copy\Flac\flac.exe
Дополнительные параметры : -6 -V -T "ARTIST=%a" -T "TITLE=%t" -T "ALBUM=%g" -T "DATE=%y" -T "TRACKNUMBER=%n" -T "GENRE=%m" -T "COMMENT=%e" %s -o %d

TOC извлечённого CD

     Трек |   Старт  | Длительность | Начальный сектор | Конечный сектор
    ---------------------------------------------------------------------
       1  |  0:00.00 |    4:35.12   |           0      |      20636
       2  |  4:35.12 |    5:00.32   |       20637      |      43168
       3  |  9:35.44 |    5:29.02   |       43169      |      67845
       4  | 15:04.46 |    4:24.01   |       67846      |      87646
       5  | 19:28.47 |    4:42.09   |       87647      |     108805
       6  | 24:10.56 |    4:45.29   |      108806      |     130209
       7  | 28:56.10 |    5:01.25   |      130210      |     152809
       8  | 33:57.35 |    5:07.42   |      152810      |     175876
       9  | 39:05.02 |    4:48.36   |      175877      |     197512
      10  | 43:53.38 |    4:14.33   |      197513      |     216595
      11  | 48:07.71 |    5:26.49   |      216596      |     241094

Характеристики диапазона извлечения и сообщения об ошибках

Выбранный диапазон

     Имя файла G:\СКАЧКА\FLAC\Behind The Scenes - Homeless.wav

     Пиковый уровень 100.0 %
     Качество диапазона 99.9 %
     CRC теста B91CF44D
     CRC копии B91CF44D
     Копирование... OK

Ошибок не произошло

AccurateRip: сводка

Трек  1  точное извлечение (доверие 2)  [465A8D43]
Трек  2  точное извлечение (доверие 2)  [C68DA4AF]
Трек  3  точное извлечение (доверие 2)  [5DF88CE4]
Трек  4  точное извлечение (доверие 2)  [6DCCEEE4]
Трек  5  точное извлечение (доверие 2)  [DCEBF96C]
Трек  6  точное извлечение (доверие 2)  [FF389483]
Трек  7  точное извлечение (доверие 2)  [CCCAB5BB]
Трек  8  нет в базе данных
Трек  9  точное извлечение (доверие 2)  [3220200E]
Трек 10  точное извлечение (доверие 2)  [883D837C]
Трек 11  точное извлечение (доверие 2)  [F245359C]

 0 трек(и) скопированы точно
 1 трек(и) не содержатся в базе AccurateRip

Некоторые треки не прошли проверку на точность

Конец отчёта
Код:
Код: Выделить всё
-----------------------

DON'T MODIFY THIS FILE

-----------------------

PERFORMER: auCDtect Task Manager, ver. 1.6.0 RC1 build 1.6.0.1
Copyright (c) 2008-2010 y-soft. All rights reserved
http:/y-soft.org

ANALYZER: auCDtect: CD records authenticity detector, version 0.8.2
Copyright (c) 2004 Oleg Berngardt. All rights reserved.
Copyright (c) 2004 Alexander Djourik. All rights reserved.

FILE: 04. Protection.flac
  Size: 33346083 Hash: 752B0B92E4AFA42FE1ECD9AEAD4B22B7 Accuracy: -m0
  Conclusion: CDDA 100%
  Signature: 8366865163F6CDDB29B9E33AF431C608E8A5D21F
FILE: 03. Free.flac
  Size: 40758967 Hash: 5F078C7D0D3F06E4A3D39242BD3D03AC Accuracy: -m0
  Conclusion: CDDA 100%
  Signature: 2D16D1BF8582F755214224599478B2DF97F41A43
FILE: 02. Human.flac
  Size: 35438819 Hash: 4E5BDAA2138670E4023092DA9051EFFE Accuracy: -m0
  Conclusion: CDDA 100%
  Signature: 6CCF43099D01C766A70E046F8DFF3314CDFC198A
FILE: 01. Changes.flac
  Size: 37644837 Hash: FC2F2F1DADD1994CA29521431B95CAA9 Accuracy: -m0
  Conclusion: CDDA 100%
  Signature: 3C38F299038D2BDCE5092EF1C7BC2BC5D92CC3FB
FILE: 11. Save Me.flac
  Size: 26540942 Hash: 1F69EF17B9241A31CBCC86452E018673 Accuracy: -m0
  Conclusion: CDDA 100%
  Signature: F0542746596BFA54D2D4B7CA0CDFE435076D5C0C
FILE: 10. Peak.flac
  Size: 31729981 Hash: EFDD7BDF161A37154A0B2DDDAC051DC3 Accuracy: -m0
  Conclusion: CDDA 100%
  Signature: 5E5AC40E312228C91023A625CDD6A55704BAF0BF
FILE: 09. Temptation.flac
  Size: 34350012 Hash: 445D25A809129ACD988375A0B1E52433 Accuracy: -m0
  Conclusion: CDDA 100%
  Signature: E4BD404A03A92E2380B87BB526DDD8750897CFE3
FILE: 08. Dark Agression.flac
  Size: 37738305 Hash: BF9B7372A92CA083287F4B4682F5BF11 Accuracy: -m0
  Conclusion: CDDA 100%
  Signature: A4B3261EECD0381359A4A9E85BF80B5FBFF54B52
FILE: 07. Home.flac
  Size: 36901257 Hash: 3996D8C01F048E598E9A49244D873BB6 Accuracy: -m0
  Conclusion: CDDA 100%
  Signature: DB1A8F8EA90C8F41158CA1916985A396B2622CA4
FILE: 06. More Than A Feeling.flac
  Size: 33983233 Hash: 8BEB82C994DA45B3932BF315E2862CF9 Accuracy: -m0
  Conclusion: CDDA 100%
  Signature: 11C8655563BF0AACBAC7AABE1839D50911CFF3FD
FILE: 05. Plastic Love.flac
  Size: 34911301 Hash: ADAAD1E62D8A3FBFFDEB2185B81A09B2 Accuracy: -m0
  Conclusion: CDDA 100%
  Signature: 552A0166717D1C9BEE41C14A1E48D61EBE871E56
Код:
Код: Выделить всё
REM GENRE "synth gothic"
REM DATE 2000
REM DISCID A50C8E0B
REM COMMENT "ExactAudioCopy v0.99pb4"
PERFORMER "Behind The Scenes"
TITLE "Homeless"
FILE "01. Changes.flac" WAVE
  TRACK 01 AUDIO
    TITLE "Changes"
    PERFORMER "Behind The Scenes"
    INDEX 01 00:00:00
FILE "02. Human.flac" WAVE
  TRACK 02 AUDIO
    TITLE "Human"
    PERFORMER "Behind The Scenes"
    INDEX 01 00:00:00
FILE "03. Free.flac" WAVE
  TRACK 03 AUDIO
    TITLE "Free"
    PERFORMER "Behind The Scenes"
    INDEX 01 00:00:00
FILE "04. Protection.flac" WAVE
  TRACK 04 AUDIO
    TITLE "Protection"
    PERFORMER "Behind The Scenes"
    INDEX 01 00:00:00
FILE "05. Plastic Love.flac" WAVE
  TRACK 05 AUDIO
    TITLE "Plastic Love"
    PERFORMER "Behind The Scenes"
    INDEX 01 00:00:00
FILE "06. More Than A Feeling.flac" WAVE
  TRACK 06 AUDIO
    TITLE "More Than A Feeling"
    PERFORMER "Behind The Scenes"
    INDEX 01 00:00:00
FILE "07. Home.flac" WAVE
  TRACK 07 AUDIO
    TITLE "Home"
    PERFORMER "Behind The Scenes"
    INDEX 01 00:00:00
FILE "08. Dark Agression.flac" WAVE
  TRACK 08 AUDIO
    TITLE "Dark Agression"
    PERFORMER "Behind The Scenes"
    INDEX 01 00:00:00
FILE "09. Temptation.flac" WAVE
  TRACK 09 AUDIO
    TITLE "Temptation"
    PERFORMER "Behind The Scenes"
    INDEX 01 00:00:00
FILE "10. Peak.flac" WAVE
  TRACK 10 AUDIO
    TITLE "Peak"
    PERFORMER "Behind The Scenes"
    INDEX 01 00:00:00
FILE "11. Save Me.flac" WAVE
  TRACK 11 AUDIO
    TITLE "Save Me"
    PERFORMER "Behind The Scenes"
    INDEX 01 00:00:00

Год выпуска диска: 2006
Аудио кодек: FLAC
Тип рипа: tracks+.cue
Битрейт аудио: lossless
Издатель: Gravitator Records
Каталог №: GRR 019
Наличие сканов: да
Продолжительность: 00:50:38
Треклист:
01 - Obsession [4:40]
02 - SOS [4:54]
03 - For The Loss [4:35]
04 - Reason [4:19]
05 - Reach Me [5:00]
06 - Rely On [4:28]
07 - Creep [3:50]
08 - One Day [4:59]
09 - Horizon [3:58]
10 - Shine [4:34]
11 - Hide And Seek [5:21]
Код:
Код: Выделить всё
Exact Audio Copy V0.99 prebeta 5 from 4. May 2009

Отчёт EAC об извлечении, выполненном 5. февраля 2011, 14:22

Behind The Scenes / Pure

Дисковод: Optiarc DVD RW AD-7173A   Adapter: 0  ID: 0

Режим чтения                 : Достоверность
Использование точного потока : Да
Отключение кэша аудио        : Да
Использование указателей C2  : Нет

Коррекция смещения при чтении                     : 48
Способность читать области Lead-in и Lead-out     : Нет
Заполнение пропущенных сэмплов тишиной            : Да
Удаление блоков с тишиной в начале и конце        : Нет
При вычислениях CRC использовались нулевые сэмплы : Да
Интерфейс                                         : Установленный внешний ASPI-интерфейс

Выходной формат          : Пользовательский кодировщик
Выбранный битрейт        : 1024 kBit/s
Качество                 : Высокий
Добавление ID3-тэга      : Нет
Утилита сжатия           : C:\Program Files\Exact Audio Copy\flac.exe
Дополнительные параметры : -6 -V -T "ARTIST=%a" -T "TITLE=%t" -T "ALBUM=%g" -T "DATE=%y" -T "TRACKNUMBER=%n" -T "GENRE=%m" -T "COMMENT=%e" %s -o %d

TOC извлечённого CD

     Трек |   Старт  | Длительность | Начальный сектор | Конечный сектор
    ---------------------------------------------------------------------
       1  |  0:00.00 |    4:40.30   |           0      |      21029
       2  |  4:40.30 |    4:53.51   |       21030      |      43055
       3  |  9:34.06 |    4:35.16   |       43056      |      63696
       4  | 14:09.22 |    4:18.57   |       63697      |      83103
       5  | 18:28.04 |    4:59.40   |       83104      |     105568
       6  | 23:27.44 |    4:28.37   |      105569      |     125705
       7  | 27:56.06 |    3:49.74   |      125706      |     142954
       8  | 31:46.05 |    4:59.23   |      142955      |     165402
       9  | 36:45.28 |    3:57.72   |      165403      |     183249
      10  | 40:43.25 |    4:34.26   |      183250      |     203825
      11  | 45:17.51 |    5:21.08   |      203826      |     227908

Характеристики диапазона извлечения и сообщения об ошибках

Выбранный диапазон

     Имя файла H:\СКАЧКА\FLAC\Behind The Scenes - Pure.wav

     Пиковый уровень 98.8 %
     Качество диапазона 100.0 %
     CRC теста 6714650A
     CRC копии 6714650A
     Копирование... OK

Ошибок не произошло

AccurateRip: сводка

Трек  1  точное извлечение (доверие 1)  [FB045469]
Трек  2  точное извлечение (доверие 1)  [FD77C558]
Трек  3  точное извлечение (доверие 1)  [FEFA0CB7]
Трек  4  точное извлечение (доверие 1)  [36C817AB]
Трек  5  точное извлечение (доверие 1)  [625A3FB3]
Трек  6  точное извлечение (доверие 1)  [F7B0028B]
Трек  7  точное извлечение (доверие 1)  [7262DB27]
Трек  8  точное извлечение (доверие 1)  [9A4200EC]
Трек  9  точное извлечение (доверие 1)  [EF366BF1]
Трек 10  точное извлечение (доверие 1)  [9658A860]
Трек 11  точное извлечение (доверие 1)  [FBBEA56F]

Все треки извлечены точно

Конец отчёта
Код:
Код: Выделить всё
-----------------------

DON'T MODIFY THIS FILE

-----------------------

PERFORMER: auCDtect Task Manager, ver. 1.6.0 RC1 build 1.6.0.1
Copyright (c) 2008-2010 y-soft. All rights reserved
http:/y-soft.org

ANALYZER: auCDtect: CD records authenticity detector, version 0.8.2
Copyright (c) 2004 Oleg Berngardt. All rights reserved.
Copyright (c) 2004 Alexander Djourik. All rights reserved.

FILE: 07. Creep.flac
  Size: 29676737 Hash: 75490DE8CA521AC809661F90E2A23DF4 Accuracy: -m0
  Conclusion: CDDA 100%
  Signature: FD16A622EE5F3BD0B1D596C57F0FE2FB35859C82
FILE: 06. Rely On.flac
  Size: 32351281 Hash: E7F9ACC6CA057BEA0B7AE9E2764F8B2A Accuracy: -m0
  Conclusion: CDDA 100%
  Signature: 86613BCE614497B622AF5ABB85B8E2D7FD5202D1
FILE: 05. Reach Me.flac
  Size: 38208704 Hash: C71BE3AAD552C0A24E8CB32261756D14 Accuracy: -m0
  Conclusion: CDDA 100%
  Signature: 8C854F9F39984F0512296ADF41BDA6EE7F59D016
FILE: 04. Reason.flac
  Size: 31726161 Hash: 44B4ED30F130DE8D6C248104CC4C51B9 Accuracy: -m0
  Conclusion: CDDA 100%
  Signature: 9EE9CE6F6BA14A16D3C7B20A4BE3F1563942F125
FILE: 03. For The Loss.flac
  Size: 36300159 Hash: A36472204B22AA3FF66869C98B3F2B23 Accuracy: -m0
  Conclusion: CDDA 100%
  Signature: 00FB33059D6ABB6158A7997CDF3AB311A5847684
FILE: 02. SOS.flac
  Size: 38638528 Hash: 2471A888831AF6C3872A8D66638B1C0F Accuracy: -m0
  Conclusion: CDDA 99%
  Signature: 7B13937A2ACD530B81ED43F122F1E064CC1C2F12
FILE: 01. Obsession.flac
  Size: 36084560 Hash: 2BD7877F8444581947F93599697650F6 Accuracy: -m0
  Conclusion: CDDA 100%
  Signature: F08D43AF1BFE13FD62B4064572D97578C21DA059
FILE: 11. Hide And Seek.flac
  Size: 32783779 Hash: 7044348846389494CC89024A28E910FE Accuracy: -m0
  Conclusion: CDDA 100%
  Signature: D2B34B211856D6CDBD87DDAED702D2BCFAE3AFB4
FILE: 10. Shine.flac
  Size: 34899057 Hash: 1B55A3773C18B71315D6E8F63BDD5CD7 Accuracy: -m0
  Conclusion: CDDA 100%
  Signature: 55878FBC0F906D3B1E9C696C6F6EBF59CBB31639
FILE: 09. Horizon.flac
  Size: 30589618 Hash: 9153EE17B73B7D04FBD898467C1F3467 Accuracy: -m0
  Conclusion: CDDA 100%
  Signature: DAFB363E351C73E990F14B58F393EE2DDD740AF4
FILE: 08. One Day.flac
  Size: 35587040 Hash: B2713882EE314163C469B7CDA823645A Accuracy: -m0
  Conclusion: CDDA 100%
  Signature: 1822ABBEF1C4492C6F91E548C50ACEE4AB31C6B6
Код:
Код: Выделить всё
REM GENRE "synth gothic"
REM DATE 2006
REM DISCID 940BDE0B
REM COMMENT "ExactAudioCopy v0.99pb5"
PERFORMER "Behind The Scenes"
TITLE "Pure"
FILE "01. Obsession.flac" WAVE
  TRACK 01 AUDIO
    TITLE "Obsession"
    PERFORMER "Behind The Scenes"
    INDEX 01 00:00:00
  TRACK 02 AUDIO
    TITLE "SOS"
    PERFORMER "Behind The Scenes"
    INDEX 00 04:39:30
FILE "02. SOS.flac" WAVE
    INDEX 01 00:00:00
FILE "03. For The Loss.flac" WAVE
  TRACK 03 AUDIO
    TITLE "For The Loss"
    PERFORMER "Behind The Scenes"
    INDEX 01 00:00:00
  TRACK 04 AUDIO
    TITLE "Reason"
    PERFORMER "Behind The Scenes"
    INDEX 00 04:34:16
FILE "04. Reason.flac" WAVE
    INDEX 01 00:00:00
FILE "05. Reach Me.flac" WAVE
  TRACK 05 AUDIO
    TITLE "Reach Me"
    PERFORMER "Behind The Scenes"
    INDEX 01 00:00:00
FILE "06. Rely On.flac" WAVE
  TRACK 06 AUDIO
    TITLE "Rely On"
    PERFORMER "Behind The Scenes"
    INDEX 01 00:00:00
  TRACK 07 AUDIO
    TITLE "Creep"
    PERFORMER "Behind The Scenes"
    INDEX 00 04:26:37
FILE "07. Creep.flac" WAVE
    INDEX 01 00:00:00
  TRACK 08 AUDIO
    TITLE "One Day"
    PERFORMER "Behind The Scenes"
    INDEX 00 03:48:74
FILE "08. One Day.flac" WAVE
    INDEX 01 00:00:00
  TRACK 09 AUDIO
    TITLE "Horizon"
    PERFORMER "Behind The Scenes"
    INDEX 00 04:57:23
FILE "09. Horizon.flac" WAVE
    INDEX 01 00:00:00
  TRACK 10 AUDIO
    TITLE "Shine"
    PERFORMER "Behind The Scenes"
    INDEX 00 03:56:72
FILE "10. Shine.flac" WAVE
    INDEX 01 00:00:00
  TRACK 11 AUDIO
    TITLE "Hide And Seek"
    PERFORMER "Behind The Scenes"
    INDEX 00 04:32:26
FILE "11. Hide And Seek.flac" WAVE
    INDEX 01 00:00:00

Год выпуска диска: 2008
Аудио кодек: FLAC
Тип рипа: tracks+.cue
Битрейт аудио: lossless
Издатель: In-D Records
Каталог №: IND99112
Наличие сканов: да
Продолжительность: 00:47:54
Треклист:
01 - Flowers [05:40.67]
02 - My Star [04:08.00]
03 - Razor Fields [04:02.66]
04 - Dreams [03:50.28]
05 - Day Like Today [04:47.16]
06 - Nearer [04:34.65]
07 - Close To You [03:50.20]
08 - Fate [05:17.64]
09 - Hate The Day [05:08.58]
10 - Conquest / Visions [06:33.16]
Код:
Код: Выделить всё
Exact Audio Copy V0.99 prebeta 4 from 23. January 2008

Отчёт EAC об извлечении, выполненном 29. декабря 2008, 9:34

Behind The Scenes / Fragment[ed]

Дисковод: Optiarc DVD RW AD-7173A   Adapter: 0  ID: 0

Режим чтения                 : Достоверность
Использование точного потока : Да
Отключение кэша аудио        : Да
Использование указателей C2  : Нет

Коррекция смещения при чтении                     : 48
Способность читать области Lead-in и Lead-out     : Нет
Заполнение пропущенных сэмплов тишиной            : Да
Удаление блоков с тишиной в начале и конце        : Нет
При вычислениях CRC использовались нулевые сэмплы : Да
Интерфейс                                         : Встроенный Win32-интерфейс для Win NT/2000

Выходной формат          : Пользовательский кодировщик
Выбранный битрейт        : 1024 kBit/s
Качество                 : Высокий
Добавление ID3-тэга      : Нет
Утилита сжатия           : C:\Program Files\Exact Audio Copy\Flac\flac.exe
Дополнительные параметры : -6 -V -T "ARTIST=%a" -T "TITLE=%t" -T "ALBUM=%g" -T "DATE=%y" -T "TRACKNUMBER=%n" -T "GENRE=%m" -T "COMMENT=%e" %s -o %d

TOC извлечённого CD

     Трек |   Старт  | Длительность | Начальный сектор | Конечный сектор
    ---------------------------------------------------------------------
       1  |  0:00.00 |    5:40.67   |           0      |      25566
       2  |  5:40.67 |    4:08.00   |       25567      |      44166
       3  |  9:48.67 |    4:02.66   |       44167      |      62382
       4  | 13:51.58 |    3:50.28   |       62383      |      79660
       5  | 17:42.11 |    4:47.16   |       79661      |     101201
       6  | 22:29.27 |    4:34.65   |      101202      |     121816
       7  | 27:04.17 |    3:50.20   |      121817      |     139086
       8  | 30:54.37 |    5:17.64   |      139087      |     162925
       9  | 36:12.26 |    5:08.58   |      162926      |     186083
      10  | 41:21.09 |    6:33.16   |      186084      |     215574

Характеристики диапазона извлечения и сообщения об ошибках

Выбранный диапазон

     Имя файла G:\СКАЧКА\FLAC\Behind The Scenes - Fragment[ed].wav

     Пиковый уровень 98.4 %
     Качество диапазона 99.9 %
     CRC теста 80451D63
     CRC копии 80451D63
     Копирование... OK

Ошибок не произошло

AccurateRip: сводка

Трек  1  нет в базе данных
Трек  2  нет в базе данных
Трек  3  нет в базе данных
Трек  4  нет в базе данных
Трек  5  нет в базе данных
Трек  6  нет в базе данных
Трек  7  нет в базе данных
Трек  8  нет в базе данных
Трек  9  нет в базе данных
Трек 10  нет в базе данных

Ни одного трека нет в базе AccurateRip

Конец отчёта
Код:
Код: Выделить всё
-----------------------

DON'T MODIFY THIS FILE

-----------------------

PERFORMER: auCDtect Task Manager, ver. 1.6.0 RC1 build 1.6.0.1
Copyright (c) 2008-2010 y-soft. All rights reserved
http:/y-soft.org

ANALYZER: auCDtect: CD records authenticity detector, version 0.8.2
Copyright (c) 2004 Oleg Berngardt. All rights reserved.
Copyright (c) 2004 Alexander Djourik. All rights reserved.

FILE: 05. Day Like Today.flac
  Size: 34025858 Hash: D5ECC1D9A59C3F87C5B0450F18462C8E Accuracy: -m0
  Conclusion: CDDA 99%
  Signature: 87C01FBB1AA0573B2B84C4100097A1A731981C84
FILE: 04. Dreams.flac
  Size: 28074974 Hash: 0AB8A3B393669920E613284782E46534 Accuracy: -m0
  Conclusion: CDDA 100%
  Signature: 6A3284F407ABE6B618D71088B4BB01F54B94C7B4
FILE: 03. Razor-Fields.flac
  Size: 29576756 Hash: CCD23FC838AF9DEDA59A8F6B64383F3E Accuracy: -m0
  Conclusion: CDDA 99%
  Signature: 4912873C241D86A5263C3546F976119F9E5C4AD0
FILE: 02. My Star.flac
  Size: 29169106 Hash: 63EC0E8F4868D93CBD26A90CB812EA5C Accuracy: -m0
  Conclusion: CDDA 100%
  Signature: 644A24B87D1E2FB1A4121638622483AF21BEB8E7
FILE: 01. Flowers.flac
  Size: 41552717 Hash: 33E5A19D2962AAE95BC37D1D23240F5F Accuracy: -m0
  Conclusion: CDDA 99%
  Signature: 78E66D8665906462D40E1942BD46F3A6E1B6FB80
FILE: 10. Conquest _ Visions.flac
  Size: 43086907 Hash: 966477FC9CB3DE5AC1A86BFDFC9BFE5D Accuracy: -m0
  Conclusion: CDDA 100%
  Signature: 8063D03CD9709FBD445DC0C0EF4F75852F5DC3A7
FILE: 09. Hate The Day.flac
  Size: 36869867 Hash: F12A80A98FE71F93736C33283A264B20 Accuracy: -m0
  Conclusion: CDDA 100%
  Signature: 117B959144B7722B8AAB445CD72FBCF3D5DDF814
FILE: 08. Fate.flac
  Size: 38465987 Hash: 29220E4E69606DC577FB3411E6B8F624 Accuracy: -m0
  Conclusion: CDDA 99%
  Signature: AF3AACA9DAE7F943B844966A652D5BEF9E9D931C
FILE: 07. Close To You.flac
  Size: 28847161 Hash: 25566EB4EC96F42C93914204B48DF2FC Accuracy: -m0
  Conclusion: CDDA 100%
  Signature: 52319FB2309F7EC2ED1D2D7F55371B22BB0168DD
FILE: 06. Nearer.flac
  Size: 31706773 Hash: 90D43C3813C110F3BB9C1426B004C482 Accuracy: -m0
  Conclusion: CDDA 100%
  Signature: 30675AF0AABD5BA5CAC1841E03ACCC56C209C59B
Код:
Код: Выделить всё
REM GENRE "synth gothic"
REM DATE 2008
REM DISCID 7E0B3A0A
REM COMMENT "ExactAudioCopy v0.99pb4"
PERFORMER "Behind The Scenes"
TITLE "Fragment[ed]"
FILE "01. Flowers.flac" WAVE
  TRACK 01 AUDIO
    TITLE "Flowers"
    PERFORMER "Behind The Scenes"
    FLAGS DCP
    INDEX 01 00:00:00
  TRACK 02 AUDIO
    TITLE "My Star"
    PERFORMER "Behind The Scenes"
    FLAGS DCP
    INDEX 00 05:38:67
FILE "02. My Star.flac" WAVE
    INDEX 01 00:00:00
  TRACK 03 AUDIO
    TITLE "Razor-Fields"
    PERFORMER "Behind The Scenes"
    FLAGS DCP
    INDEX 00 04:05:72
FILE "03. Razor-Fields.flac" WAVE
    INDEX 01 00:00:00
  TRACK 04 AUDIO
    TITLE "Dreams"
    PERFORMER "Behind The Scenes"
    FLAGS DCP
    INDEX 00 04:00:63
FILE "04. Dreams.flac" WAVE
    INDEX 01 00:00:00
  TRACK 05 AUDIO
    TITLE "Day Like Today"
    PERFORMER "Behind The Scenes"
    FLAGS DCP
    INDEX 00 03:48:33
FILE "05. Day Like Today.flac" WAVE
    INDEX 01 00:00:00
  TRACK 06 AUDIO
    TITLE "Nearer"
    PERFORMER "Behind The Scenes"
    FLAGS DCP
    INDEX 00 04:45:19
FILE "06. Nearer.flac" WAVE
    INDEX 01 00:00:00
  TRACK 07 AUDIO
    TITLE "Close To You"
    PERFORMER "Behind The Scenes"
    FLAGS DCP
    INDEX 00 04:32:67
FILE "07. Close To You.flac" WAVE
    INDEX 01 00:00:00
  TRACK 08 AUDIO
    TITLE "Fate"
    PERFORMER "Behind The Scenes"
    FLAGS DCP
    INDEX 00 03:48:22
FILE "08. Fate.flac" WAVE
    INDEX 01 00:00:00
  TRACK 09 AUDIO
    TITLE "Hate The Day"
    PERFORMER "Behind The Scenes"
    FLAGS DCP
    INDEX 00 05:15:70
FILE "09. Hate The Day.flac" WAVE
    INDEX 01 00:00:00
FILE "10. Conquest _ Visions.flac" WAVE
  TRACK 10 AUDIO
    TITLE "Conquest / Visions"
    PERFORMER "Behind The Scenes"
    FLAGS DCP
    INDEX 01 00:00:00
Продолжительность: 00:51:17
Треклист:
01 - Flowers (Club mix by Olaf Wollschlaeger) [06:30.23]
02 - My Star (goJA Moon Rockah remix) [04:39.07]
03 - Razor-Fields (remix by Noyce TM) [04:25.72]
04 - Razor-Fields (Rewired by 8khz Mono) [04:25.06]
05 - Dreams (Raven Parque remix) [04:28.32]
06 - Day Like Today (remix by M.R.C. Bomb R.C.) [04:33.39]
07 - Day Like Today (remix by Scholli / Behind The Scenes) [03:49.61]
08 - Nearer (remix by Essexx) [03:48.28]
09 - Close To You (Fullplugged Closer mix by Fred B.) [05:18.26]
10 - Fate (remix by A Spell Inside) [05:13.06]
11 - Hate The Day (remix by Adam P.) [04:05.08]
Код:
Код: Выделить всё
Exact Audio Copy V0.99 prebeta 4 from 23. January 2008

Отчёт EAC об извлечении, выполненном 29. декабря 2008, 11:53

Behind The Scenes / Fragment[ed]

Дисковод: Optiarc DVD RW AD-7173A   Adapter: 0  ID: 0

Режим чтения                 : Достоверность
Использование точного потока : Да
Отключение кэша аудио        : Да
Использование указателей C2  : Нет

Коррекция смещения при чтении                     : 48
Способность читать области Lead-in и Lead-out     : Нет
Заполнение пропущенных сэмплов тишиной            : Да
Удаление блоков с тишиной в начале и конце        : Нет
При вычислениях CRC использовались нулевые сэмплы : Да
Интерфейс                                         : Встроенный Win32-интерфейс для Win NT/2000

Выходной формат          : Пользовательский кодировщик
Выбранный битрейт        : 1024 kBit/s
Качество                 : Высокий
Добавление ID3-тэга      : Нет
Утилита сжатия           : C:\Program Files\Exact Audio Copy\Flac\flac.exe
Дополнительные параметры : -6 -V -T "ARTIST=%a" -T "TITLE=%t" -T "ALBUM=%g" -T "DATE=%y" -T "TRACKNUMBER=%n" -T "GENRE=%m" -T "COMMENT=%e" %s -o %d

TOC извлечённого CD

     Трек |   Старт  | Длительность | Начальный сектор | Конечный сектор
    ---------------------------------------------------------------------
       1  |  0:00.00 |    6:30.23   |           0      |      29272
       2  |  6:30.23 |    4:39.07   |       29273      |      50204
       3  | 11:09.30 |    4:25.72   |       50205      |      70151
       4  | 15:35.27 |    4:25.06   |       70152      |      90032
       5  | 20:00.33 |    4:28.32   |       90033      |     110164
       6  | 24:28.65 |    4:33.39   |      110165      |     130678
       7  | 29:02.29 |    3:49.61   |      130679      |     147914
       8  | 32:52.15 |    3:48.28   |      147915      |     165042
       9  | 36:40.43 |    5:18.26   |      165043      |     188918
      10  | 41:58.69 |    5:13.06   |      188919      |     212399
      11  | 47:12.00 |    4:05.08   |      212400      |     230782

Характеристики диапазона извлечения и сообщения об ошибках

Выбранный диапазон

     Имя файла G:\СКАЧКА\FLAC\Behind The Scenes - Fragment[ed].wav

     Пиковый уровень 99.7 %
     Качество диапазона 99.8 %
     CRC теста 481B864B
     CRC копии 481B864B
     Копирование... OK

Ошибок не произошло

AccurateRip: сводка

Трек  1  нет в базе данных
Трек  2  нет в базе данных
Трек  3  нет в базе данных
Трек  4  нет в базе данных
Трек  5  нет в базе данных
Трек  6  нет в базе данных
Трек  7  нет в базе данных
Трек  8  нет в базе данных
Трек  9  нет в базе данных
Трек 10  нет в базе данных
Трек 11  нет в базе данных

Ни одного трека нет в базе AccurateRip

Конец отчёта
Код:
Код: Выделить всё
-----------------------

DON'T MODIFY THIS FILE

-----------------------

PERFORMER: auCDtect Task Manager, ver. 1.6.0 RC1 build 1.6.0.1
Copyright (c) 2008-2010 y-soft. All rights reserved
http:/y-soft.org

ANALYZER: auCDtect: CD records authenticity detector, version 0.8.2
Copyright (c) 2004 Oleg Berngardt. All rights reserved.
Copyright (c) 2004 Alexander Djourik. All rights reserved.

FILE: 06. Day Like Today (remix By M.R.C. Bomb R.C.).flac
  Size: 31766490 Hash: 983BE3FD03149818935F0117E14776F8 Accuracy: -m0
  Conclusion: CDDA 100%
  Signature: 801C275FA44A2667AF17919D02B81180D002A9B6
FILE: 05. Dreams (Raven Parque remix).flac
  Size: 34463520 Hash: 4EC05C0B4A880DC9536D1F5CFC62E8CA Accuracy: -m0
  Conclusion: CDDA 100%
  Signature: 65A04AD0C77EB9CD01BAEF199E757F81061D4522
FILE: 04. Razor-Fields (Rewired By 8khz Mono).flac
  Size: 35260488 Hash: CC37336C6D0A04578106357BC13B6E1D Accuracy: -m0
  Conclusion: CDDA 100%
  Signature: BB44FC39039E5670BB0DC2055958A46FC9AE5E20
FILE: 03. Razor-Fields (remix By Noyce TM).flac
  Size: 33538976 Hash: 94F0247CD0CC85FCC9ACAB962BFFB505 Accuracy: -m0
  Conclusion: CDDA 100%
  Signature: 074DA20C7976C081B9249EE7D2E3F583BE037519
FILE: 02. My Star (goJA moon ROCKAH remix).flac
  Size: 33259211 Hash: E36A2AE1B091EB07A718668979DA667E Accuracy: -m0
  Conclusion: MPEG 95%
  Signature: 98AC72B44B187E48C9D155D4DA72D36F0102F050
FILE: 01. Flowers (Club nix By Olaf Wollschlaeger).flac
  Size: 51036004 Hash: 71187E241BC4D4AAF21F1E85DF0BDDFD Accuracy: -m0
  Conclusion: CDDA 100%
  Signature: C9BB54768375F1CD70F42268AA4E33258F2E3227
FILE: 11. Hate The Day (remix By Adam P.).flac
  Size: 30163392 Hash: DD4FD22FAE884282AC45E613C6428638 Accuracy: -m0
  Conclusion: CDDA 99%
  Signature: 49BFB2E972F94E6E9224A6D18779C17A4936D62F
FILE: 10. Fate (remix By A Spell Inside).flac
  Size: 41043424 Hash: 65ADC7CD577B96DF498A539CE795C32C Accuracy: -m0
  Conclusion: CDDA 100%
  Signature: CB502CF6688EC1D5527EB2C9D8E6EE8C88FFBA59
FILE: 09. Close To You (Fullplugged Closer mix By Fred B.).flac
  Size: 41325858 Hash: 92AC95C356BF31EE26B57D27C422C838 Accuracy: -m0
  Conclusion: CDDA 100%
  Signature: 23365D460E15E6F8774AA730D779AFF4847FC3A2
FILE: 08. Nearer (remix By Essexx).flac
  Size: 26065144 Hash: 2C4BF4D6E6DB16A937679282FF190B43 Accuracy: -m0
  Conclusion: CDDA 100%
  Signature: 80F448BCECEB3BFA21277A90D804C2E8558B3AA2
FILE: 07. Day Like Today (remix By Scholli _ Behind The Scenes).flac
  Size: 28519120 Hash: 79A177891C7A90EF1E4E807593CA51DB Accuracy: -m0
  Conclusion: CDDA 100%
  Signature: B120940129EBD2D2846908768663A6F0F66BB6F1
Код:
Код: Выделить всё
REM GENRE "synth gothic"
REM DATE 2008
REM DISCID 870C050B
REM COMMENT "ExactAudioCopy v0.99pb4"
PERFORMER "Behind The Scenes"
TITLE "Fragment[ed]"
FILE "01. Flowers (Club nix By Olaf Wollschlaeger).flac" WAVE
  TRACK 01 AUDIO
    TITLE "Flowers (Club nix By Olaf Wollschlaeger)"
    PERFORMER "Behind The Scenes"
    FLAGS DCP
    INDEX 01 00:00:00
  TRACK 02 AUDIO
    TITLE "My Star (goJA moon ROCKAH remix)"
    PERFORMER "Behind The Scenes"
    FLAGS DCP
    INDEX 00 06:28:21
FILE "02. My Star (goJA moon ROCKAH remix).flac" WAVE
    INDEX 01 00:00:00
  TRACK 03 AUDIO
    TITLE "Razor-Fields (remix By Noyce TM)"
    PERFORMER "Behind The Scenes"
    FLAGS DCP
    INDEX 00 04:37:11
FILE "03. Razor-Fields (remix By Noyce TM).flac" WAVE
    INDEX 01 00:00:00
  TRACK 04 AUDIO
    TITLE "Razor-Fields (Rewired By 8khz Mono)"
    PERFORMER "Behind The Scenes"
    FLAGS DCP
    INDEX 00 04:23:72
FILE "04. Razor-Fields (Rewired By 8khz Mono).flac" WAVE
    INDEX 01 00:00:00
  TRACK 05 AUDIO
    TITLE "Dreams (Raven Parque remix)"
    PERFORMER "Behind The Scenes"
    FLAGS DCP
    INDEX 00 04:23:09
FILE "05. Dreams (Raven Parque remix).flac" WAVE
    INDEX 01 00:00:00
  TRACK 06 AUDIO
    TITLE "Day Like Today (remix By M.R.C. Bomb R.C.)"
    PERFORMER "Behind The Scenes"
    FLAGS DCP
    INDEX 00 04:26:42
FILE "06. Day Like Today (remix By M.R.C. Bomb R.C.).flac" WAVE
    INDEX 01 00:00:00
  TRACK 07 AUDIO
    TITLE "Day Like Today (remix By Scholli / Behind The Scenes)"
    PERFORMER "Behind The Scenes"
    FLAGS DCP
    INDEX 00 04:31:43
FILE "07. Day Like Today (remix By Scholli _ Behind The Scenes).flac" WAVE
    INDEX 01 00:00:00
  TRACK 08 AUDIO
    TITLE "Nearer (remix By Essexx)"
    PERFORMER "Behind The Scenes"
    FLAGS DCP
    INDEX 00 03:47:71
FILE "08. Nearer (remix By Essexx).flac" WAVE
    INDEX 01 00:00:00
  TRACK 09 AUDIO
    TITLE "Close To You (Fullplugged Closer mix By Fred B.)"
    PERFORMER "Behind The Scenes"
    FLAGS DCP
    INDEX 00 03:46:40
FILE "09. Close To You (Fullplugged Closer mix By Fred B.).flac" WAVE
    INDEX 01 00:00:00
  TRACK 10 AUDIO
    TITLE "Fate (remix By A Spell Inside)"
    PERFORMER "Behind The Scenes"
    FLAGS DCP
    INDEX 00 05:16:30
FILE "10. Fate (remix By A Spell Inside).flac" WAVE
    INDEX 01 00:00:00
  TRACK 11 AUDIO
    TITLE "Hate The Day (remix By Adam P.)"
    PERFORMER "Behind The Scenes"
    FLAGS DCP
    INDEX 00 05:11:14
FILE "11. Hate The Day (remix By Adam P.).flac" WAVE
    INDEX 01 00:00:00
Если вам понравился альбом, пожалуйста, купите СD, поддержите исполнителя!
Правила, инструкции, FAQ!!!
Торрент  Добавлен [16 мар 2014, 00:08] Скачать торрент Магнет ссылка
Скачать торрент
21.17 КБ

Статус
Проверен 
 
Размер  1.43 ГБ
Приватный: Нет (DHT включён)
.torrent скачан  0
Как залить торрент? | Как скачать Torrent? | Как смотреть и слушать онлайн?  
Гость
 



Вернуться в Дискографии (Зарубежные)

Кто сейчас на конференции

Сейчас этот форум просматривают: нет зарегистрированных пользователей и гости: 0