(Beat, Mod, Psychedelic Rock) [CD] The Action - Shadows And Reflections: The Complete Recordings 1964-1968 (4CD Box Set Cherry Grapefruit Records 2018), FLAC (image+.cue), lossless


Статистика раздачи
Размер: 2.57 ГБ | Добавлен: 09 мар 2019, 10:40 | Скачали: 0
Сидеров: 16  [0 байт/сек]    Личеров: 5  [0 байт/сек]

Сообщение Гость » 09 мар 2019, 10:40

The Action - Shadows And Reflections: The Complete Recordings 1964-1968
Жанр: Beat, Mod, Psychedelic Rock
Страна-производитель диска: EU
Год издания диска: 2018
Издатель (лейбл): Grapefruit Records
Номер по каталогу: CRSEGBK045
Страна: UK
Аудио кодек: FLAC (*.flac)
Тип рипа: image+.cue
Битрейт аудио: lossless
Продолжительность: 04:23:57
Источник (релизер): allekkss48
Наличие сканов в содержимом раздачи: да
Треклист:
#77701. Land Of One Thousand Dances
02. In My Lonely Room
03. I’ll Keep Holding On
04. Hey Sah-Lo-Ney
05. Baby You've Got It
06. Since I Lost My Baby
07. Never Ever
08. Twentyfourth Hour
09. Shadows And Reflections
10. Something Has Hit Me
11. The Harlem Shuffle
12. Wasn't It You
13. The Place
14. The Cissy
15. I Love You (Yeah!)
16. Come On, Come With Me
17. Just Once In My Life
18. Mine Exclusively (BBC Session)
19. Reg King Interview / Baby You've Got It (BBC Session)
20. Take Me In Your Arms (Rock Me A Little While) (BBC Session)
21. I See You (BBC Session)
22. Shadows And Reflections (BBC Session)
Код: Выделить всё
Exact Audio Copy V1.3 from 2. September 2016
EAC extraction logfile from 24. February 2019, 9:07
The Action / Shadows & Reflections CD1
Used drive  : PLEXTOR BD-R  PX-B950SA   Adapter: 1  ID: 1
Read mode               : Secure
Utilize accurate stream : Yes
Defeat audio cache      : Yes
Make use of C2 pointers : No
Read offset correction                      : 6
Overread into Lead-In and Lead-Out          : No
Fill up missing offset samples with silence : Yes
Delete leading and trailing silent blocks   : No
Null samples used in CRC calculations       : Yes
Used interface                              : Native Win32 interface for Win NT & 2000
Used output format : Internal WAV Routines
Sample format      : 44.100 Hz; 16 Bit; Stereo
TOC of the extracted CD
     Track |   Start  |  Length  | Start sector | End sector
    ---------------------------------------------------------
        1  |  0:00.00 |  2:51.14 |         0    |    12838
        2  |  2:51.14 |  2:42.16 |     12839    |    25004
        3  |  5:33.30 |  3:11.67 |     25005    |    39396
        4  |  8:45.22 |  2:29.24 |     39397    |    50595
        5  | 11:14.46 |  2:41.60 |     50596    |    62730
        6  | 13:56.31 |  3:43.02 |     62731    |    79457
        7  | 17:39.33 |  2:47.28 |     79458    |    92010
        8  | 20:26.61 |  2:45.30 |     92011    |   104415
        9  | 23:12.16 |  2:48.38 |    104416    |   117053
       10  | 26:00.54 |  3:13.37 |    117054    |   131565
       11  | 29:14.16 |  3:21.25 |    131566    |   146665
       12  | 32:35.41 |  2:51.34 |    146666    |   159524
       13  | 35:27.00 |  2:30.03 |    159525    |   170777
       14  | 37:57.03 |  2:20.70 |    170778    |   181347
       15  | 40:17.73 |  3:18.48 |    181348    |   196245
       16  | 43:36.46 |  2:21.38 |    196246    |   206858
       17  | 45:58.09 |  2:45.27 |    206859    |   219260
       18  | 48:43.36 |  2:47.74 |    219261    |   231859
       19  | 51:31.35 |  3:17.71 |    231860    |   246705
       20  | 54:49.31 |  2:30.34 |    246706    |   257989
       21  | 57:19.65 |  3:06.71 |    257990    |   272010
       22  | 60:26.61 |  3:08.19 |    272011    |   286129
Range status and errors
Selected range
     Filename C:\Users\Alex\Desktop\Lossless Galaxy ALLexxess\The Action\2018 Shadows And Reflections (4CD Box Set Grapefruit Records)\CD1\The Action - Shadows & Reflections CD1.wav
     Peak level 66.8 %
     Extraction speed 3.4 X
     Range quality 100.0 %
     Test CRC 9DFA152F
     Copy CRC 9DFA152F
     Copy OK
No errors occurred
AccurateRip summary
Track  1  accurately ripped (confidence 4)  [65084BFE]  (AR v2)
Track  2  accurately ripped (confidence 4)  [9DED78FD]  (AR v2)
Track  3  accurately ripped (confidence 4)  [479437D8]  (AR v2)
Track  4  accurately ripped (confidence 4)  [6ADA7D25]  (AR v2)
Track  5  accurately ripped (confidence 4)  [C046BB70]  (AR v2)
Track  6  accurately ripped (confidence 4)  [3B40D41B]  (AR v2)
Track  7  accurately ripped (confidence 4)  [C910121A]  (AR v2)
Track  8  accurately ripped (confidence 4)  [AD4C9D6A]  (AR v2)
Track  9  accurately ripped (confidence 4)  [4A947FD2]  (AR v2)
Track 10  accurately ripped (confidence 4)  [E2BF43A0]  (AR v2)
Track 11  accurately ripped (confidence 4)  [1B216D31]  (AR v2)
Track 12  accurately ripped (confidence 4)  [E6F3CB01]  (AR v2)
Track 13  accurately ripped (confidence 4)  [6E37549A]  (AR v2)
Track 14  accurately ripped (confidence 4)  [9B634C8F]  (AR v2)
Track 15  accurately ripped (confidence 4)  [844F2F2D]  (AR v2)
Track 16  accurately ripped (confidence 4)  [839584F9]  (AR v2)
Track 17  accurately ripped (confidence 5)  [1CC375B8]  (AR v2)
Track 18  accurately ripped (confidence 5)  [937B50DA]  (AR v2)
Track 19  accurately ripped (confidence 5)  [201CBBED]  (AR v2)
Track 20  accurately ripped (confidence 5)  [E1501506]  (AR v2)
Track 21  accurately ripped (confidence 5)  [BEA0E03D]  (AR v2)
Track 22  accurately ripped (confidence 5)  [A19DDAFF]  (AR v2)
All tracks accurately ripped
End of status report
---- CUETools DB Plugin V2.1.6
[CTDB TOCID: a5.olfR6GULnv0e5u1OFYhsLNWs-] found
Submit result: a5.olfR6GULnv0e5u1OFYhsLNWs- has been confirmed
Track | CTDB Status
  1   | (8/8) Accurately ripped
  2   | (8/8) Accurately ripped
  3   | (8/8) Accurately ripped
  4   | (8/8) Accurately ripped
  5   | (8/8) Accurately ripped
  6   | (8/8) Accurately ripped
  7   | (8/8) Accurately ripped
  8   | (8/8) Accurately ripped
  9   | (8/8) Accurately ripped
 10   | (8/8) Accurately ripped
 11   | (8/8) Accurately ripped
 12   | (8/8) Accurately ripped
 13   | (8/8) Accurately ripped
 14   | (8/8) Accurately ripped
 15   | (8/8) Accurately ripped
 16   | (8/8) Accurately ripped
 17   | (8/8) Accurately ripped
 18   | (8/8) Accurately ripped
 19   | (8/8) Accurately ripped
 20   | (8/8) Accurately ripped
 21   | (8/8) Accurately ripped
 22   | (8/8) Accurately ripped
==== Log checksum 9D7DF9D68A38F3F66905010601456A1CE43C2AE5A6CAF0C7639DAF8CE899FD47 ====
Код: Выделить всё
REM GENRE "Beat / Mod / Psychedelic Rock"
REM DATE 2018
REM DISCID 4B0EE716
REM COMMENT "ExactAudioCopy v1.3"
PERFORMER "The Action"
TITLE "Shadows & Reflections CD1"
REM COMPOSER "The Action"
FILE "The Action - Shadows & Reflections CD1.flac" WAVE
  TRACK 01 AUDIO
    TITLE "Land Of One Thousand Dances"
    PERFORMER "The Action"
    REM COMPOSER "The Action"
    INDEX 01 00:00:00
  TRACK 02 AUDIO
    TITLE "In My Lonely Room"
    PERFORMER "The Action"
    REM COMPOSER "The Action"
    INDEX 00 02:49:33
    INDEX 01 02:51:14
  TRACK 03 AUDIO
    TITLE "I'll Keep Holding On"
    PERFORMER "The Action"
    REM COMPOSER "The Action"
    INDEX 00 05:31:49
    INDEX 01 05:33:30
  TRACK 04 AUDIO
    TITLE "Hey Sah Lo Ney"
    PERFORMER "The Action"
    REM COMPOSER "The Action"
    INDEX 00 08:43:41
    INDEX 01 08:45:22
  TRACK 05 AUDIO
    TITLE "Baby You've Got It"
    PERFORMER "The Action"
    REM COMPOSER "The Action"
    INDEX 00 11:12:65
    INDEX 01 11:14:46
  TRACK 06 AUDIO
    TITLE "Since I Lost My Baby"
    PERFORMER "The Action"
    REM COMPOSER "The Action"
    INDEX 00 13:54:50
    INDEX 01 13:56:31
  TRACK 07 AUDIO
    TITLE "Never Ever"
    PERFORMER "The Action"
    REM COMPOSER "The Action"
    INDEX 00 17:37:52
    INDEX 01 17:39:33
  TRACK 08 AUDIO
    TITLE "Twentyfourth Hour"
    PERFORMER "The Action"
    REM COMPOSER "The Action"
    INDEX 00 20:25:05
    INDEX 01 20:26:61
  TRACK 09 AUDIO
    TITLE "Shadows And Reflections"
    PERFORMER "The Action"
    REM COMPOSER "The Action"
    INDEX 00 23:10:35
    INDEX 01 23:12:16
  TRACK 10 AUDIO
    TITLE "Something Has Hit Me"
    PERFORMER "The Action"
    REM COMPOSER "The Action"
    INDEX 00 25:58:73
    INDEX 01 26:00:54
  TRACK 11 AUDIO
    TITLE "The Harlem Shuffle"
    PERFORMER "The Action"
    REM COMPOSER "The Action"
    INDEX 00 29:12:35
    INDEX 01 29:14:16
  TRACK 12 AUDIO
    TITLE "Wasn't It You"
    PERFORMER "The Action"
    REM COMPOSER "The Action"
    INDEX 00 32:33:60
    INDEX 01 32:35:41
  TRACK 13 AUDIO
    TITLE "The Place"
    PERFORMER "The Action"
    REM COMPOSER "The Action"
    INDEX 00 35:25:19
    INDEX 01 35:27:00
  TRACK 14 AUDIO
    TITLE "The Cissy"
    PERFORMER "The Action"
    REM COMPOSER "The Action"
    INDEX 00 37:55:22
    INDEX 01 37:57:03
  TRACK 15 AUDIO
    TITLE "I Love You (Yeah!)"
    PERFORMER "The Action"
    REM COMPOSER "The Action"
    INDEX 00 40:16:17
    INDEX 01 40:17:73
  TRACK 16 AUDIO
    TITLE "Come On, Come With Me"
    PERFORMER "The Action"
    REM COMPOSER "The Action"
    INDEX 00 43:34:65
    INDEX 01 43:36:46
  TRACK 17 AUDIO
    TITLE "Just Once In My Life"
    PERFORMER "The Action"
    REM COMPOSER "The Action"
    INDEX 00 45:56:28
    INDEX 01 45:58:09
  TRACK 18 AUDIO
    TITLE "Mine Exclusively (BBC Session)"
    PERFORMER "The Action"
    REM COMPOSER "The Action"
    INDEX 00 48:37:55
    INDEX 01 48:43:36
  TRACK 19 AUDIO
    TITLE "Interview-Baby You've Got It (BBC Session)"
    PERFORMER "The Action"
    REM COMPOSER "The Action"
    INDEX 00 51:29:54
    INDEX 01 51:31:35
  TRACK 20 AUDIO
    TITLE "Take Me In Your Arms (Rock Me A Little While) (BBC Session)"
    PERFORMER "The Action"
    REM COMPOSER "The Action"
    INDEX 00 54:47:50
    INDEX 01 54:49:31
  TRACK 21 AUDIO
    TITLE "I See You (BBC Session)"
    PERFORMER "The Action"
    REM COMPOSER "The Action"
    INDEX 00 57:18:09
    INDEX 01 57:19:65
  TRACK 22 AUDIO
    TITLE "Shadows And Reflections (BBC Session)"
    PERFORMER "The Action"
    REM COMPOSER "The Action"
    INDEX 00 60:25:05
    INDEX 01 60:26:61
Код: Выделить всё
-----------------------
DON'T MODIFY THIS FILE
-----------------------
PERFORMER: auCDtect Task Manager, ver. 1.6.0 RC1 build 1.6.0.1
Copyright (c) 2008-2010 y-soft. All rights reserved
[url=http://y-soft.org]http://y-soft.org[/url]
ANALYZER: auCDtect: CD records authenticity detector, version 0.8.2
Copyright (c) 2004 Oleg Berngardt. All rights reserved.
Copyright (c) 2004 Alexander Djourik. All rights reserved.
FILE: The Action - Shadows & Reflections CD1.wav
  Size: 672977804 Hash: B12342DA2EE560C05576D629D43AD042 Accuracy: -m8
  Conclusion: CDDA 100%
  Signature: 833A2DB1F6193DB6C23CE71710CF85BF43511459
FILE: The Action - Shadows & Reflections CD1.flac
  Size: 272934649 Hash: B12342DA2EE560C05576D629D43AD042 Accuracy: -m8
  Conclusion: CDDA 100%
  Signature: CC2FDFE64405547E9BAC5BFC7F2A02ECCBCBB158
#77701. I’ll Keep Holding On
02. The Cissy
03. Never Ever
04. Since I Lost My Baby
05. Shadows And Reflections
06. Hey Sah-Lo-Ney
07. Something Has Hit Me
08. Baby You’ve Got It
09. I Love You (Yeah!)
10. Wasn’t It You
11. The Harlem Shuffle
12. The Place
13. Twentyfourth Hour
14. Come On, Come With Me
15. Just Once In My Life
16. Something Has Hit Me (Rehearsal)
17. I Love You (Yeah!) (Backing Track Take 1)
18. Never Ever (Rehearsal)
19. Come On, Come With Me (Backing Track Take 4)
20. Twentyfourth Hour (Alternative Version)
21. The Place (Backing Track Take 2)
22. Just Once In My Life (Take 2)
23. Something Has Hit Me (Alternative Backing Track)
24. Shadows And Reflections (Backing Track)
Код: Выделить всё
Exact Audio Copy V1.3 from 2. September 2016
EAC extraction logfile from 24. February 2019, 8:15
The Action / Shadows & Reflections CD2
Used drive  : Optiarc DVD RW AD-7280S   Adapter: 1  ID: 0
Read mode               : Secure
Utilize accurate stream : Yes
Defeat audio cache      : Yes
Make use of C2 pointers : No
Read offset correction                      : 48
Overread into Lead-In and Lead-Out          : No
Fill up missing offset samples with silence : Yes
Delete leading and trailing silent blocks   : No
Null samples used in CRC calculations       : Yes
Used interface                              : Native Win32 interface for Win NT & 2000
Used output format : Internal WAV Routines
Sample format      : 44.100 Hz; 16 Bit; Stereo
TOC of the extracted CD
     Track |   Start  |  Length  | Start sector | End sector
    ---------------------------------------------------------
        1  |  0:00.00 |  3:43.65 |         0    |    16789
        2  |  3:43.65 |  2:25.45 |     16790    |    27709
        3  |  6:09.35 |  3:19.52 |     27710    |    42686
        4  |  9:29.12 |  3:42.46 |     42687    |    59382
        5  | 13:11.58 |  2:58.16 |     59383    |    72748
        6  | 16:09.74 |  2:30.12 |     72749    |    84010
        7  | 18:40.11 |  3:33.65 |     84011    |   100050
        8  | 22:14.01 |  2:53.73 |    100051    |   113098
        9  | 25:07.74 |  3:20.12 |    113099    |   128110
       10  | 28:28.11 |  2:54.15 |    128111    |   141175
       11  | 31:22.26 |  3:31.65 |    141176    |   157065
       12  | 34:54.16 |  2:33.61 |    157066    |   168601
       13  | 37:28.02 |  3:04.22 |    168602    |   182423
       14  | 40:32.24 |  2:30.13 |    182424    |   193686
       15  | 43:02.37 |  3:23.12 |    193687    |   208923
       16  | 46:25.49 |  3:32.61 |    208924    |   224884
       17  | 49:58.35 |  3:37.37 |    224885    |   241196
       18  | 53:35.72 |  3:07.49 |    241197    |   255270
       19  | 56:43.46 |  2:32.07 |    255271    |   266677
       20  | 59:15.53 |  2:41.40 |    266678    |   278792
       21  | 61:57.18 |  2:34.34 |    278793    |   290376
       22  | 64:31.52 |  2:43.62 |    290377    |   302663
       23  | 67:15.39 |  3:32.20 |    302664    |   318583
       24  | 70:47.59 |  3:00.50 |    318584    |   332133
Range status and errors
Selected range
     Filename C:\Users\Alex\Desktop\Lossless Galaxy ALLexxess\The Action\2018 Shadows And Reflections (4CD Box Set Grapefruit Records)\CD2\The Action - Shadows & Reflections CD2.wav
     Peak level 100.0 %
     Extraction speed 4.4 X
     Range quality 100.0 %
     Test CRC E81F1566
     Copy CRC E81F1566
     Copy OK
No errors occurred
AccurateRip summary
Track  1  accurately ripped (confidence 4)  [503434EF]  (AR v2)
Track  2  accurately ripped (confidence 4)  [EA50414E]  (AR v2)
Track  3  accurately ripped (confidence 4)  [54706AF5]  (AR v2)
Track  4  accurately ripped (confidence 4)  [6E972549]  (AR v2)
Track  5  accurately ripped (confidence 4)  [F6C9CD01]  (AR v2)
Track  6  accurately ripped (confidence 4)  [4143D7D3]  (AR v2)
Track  7  accurately ripped (confidence 4)  [139AFF5B]  (AR v2)
Track  8  accurately ripped (confidence 4)  [4D6E870D]  (AR v2)
Track  9  accurately ripped (confidence 4)  [7048B065]  (AR v2)
Track 10  accurately ripped (confidence 4)  [BD7F6D92]  (AR v2)
Track 11  accurately ripped (confidence 4)  [E86C61C6]  (AR v2)
Track 12  accurately ripped (confidence 4)  [49FA541D]  (AR v2)
Track 13  accurately ripped (confidence 4)  [32F893D0]  (AR v2)
Track 14  accurately ripped (confidence 4)  [23A91343]  (AR v2)
Track 15  accurately ripped (confidence 4)  [C7D2F4A2]  (AR v2)
Track 16  accurately ripped (confidence 4)  [B08B3180]  (AR v2)
Track 17  accurately ripped (confidence 4)  [B26CAFBD]  (AR v2)
Track 18  accurately ripped (confidence 4)  [1FF42120]  (AR v2)
Track 19  accurately ripped (confidence 4)  [D962965E]  (AR v2)
Track 20  accurately ripped (confidence 4)  [022D15B1]  (AR v2)
Track 21  accurately ripped (confidence 4)  [087C3915]  (AR v2)
Track 22  accurately ripped (confidence 4)  [1C533D01]  (AR v2)
Track 23  accurately ripped (confidence 4)  [C6AD41E5]  (AR v2)
Track 24  accurately ripped (confidence 3)  [BF5BA296]  (AR v2)
All tracks accurately ripped
End of status report
---- CUETools DB Plugin V2.1.6
[CTDB TOCID: IQep_vZGA4A1SQ86pkouxa8Bq90-] found
Submit result: IQep_vZGA4A1SQ86pkouxa8Bq90- has been confirmed
Track | CTDB Status
  1   | (9/9) Accurately ripped
  2   | (9/9) Accurately ripped
  3   | (9/9) Accurately ripped
  4   | (9/9) Accurately ripped
  5   | (9/9) Accurately ripped
  6   | (9/9) Accurately ripped
  7   | (9/9) Accurately ripped
  8   | (9/9) Accurately ripped
  9   | (9/9) Accurately ripped
 10   | (9/9) Accurately ripped
 11   | (9/9) Accurately ripped
 12   | (9/9) Accurately ripped
 13   | (9/9) Accurately ripped
 14   | (9/9) Accurately ripped
 15   | (9/9) Accurately ripped
 16   | (9/9) Accurately ripped
 17   | (9/9) Accurately ripped
 18   | (9/9) Accurately ripped
 19   | (9/9) Accurately ripped
 20   | (9/9) Accurately ripped
 21   | (9/9) Accurately ripped
 22   | (9/9) Accurately ripped
 23   | (9/9) Accurately ripped
 24   | (9/9) Accurately ripped
==== Log checksum CD65587931DC4901D6CB505CF42B1D023C1F6F1B78376E0F84AD1E102FE18CC8 ====
Код: Выделить всё
REM GENRE "Beat / Mod / Psychedelic Rock"
REM DATE 2018
REM DISCID 54114C18
REM COMMENT "ExactAudioCopy v1.3"
PERFORMER "The Action"
TITLE "Shadows & Reflections CD2"
REM COMPOSER "The Action"
FILE "The Action - Shadows & Reflections CD2.flac" WAVE
  TRACK 01 AUDIO
    TITLE "I'll Keep Holding On"
    PERFORMER "The Action"
    REM COMPOSER "The Action"
    INDEX 01 00:00:00
  TRACK 02 AUDIO
    TITLE "The Cissy"
    PERFORMER "The Action"
    REM COMPOSER "The Action"
    INDEX 00 03:43:09
    INDEX 01 03:43:65
  TRACK 03 AUDIO
    TITLE "Never Ever"
    PERFORMER "The Action"
    REM COMPOSER "The Action"
    INDEX 00 06:07:54
    INDEX 01 06:09:35
  TRACK 04 AUDIO
    TITLE "Since I Lost My Baby"
    PERFORMER "The Action"
    REM COMPOSER "The Action"
    INDEX 00 09:26:31
    INDEX 01 09:29:12
  TRACK 05 AUDIO
    TITLE "Shadows And Reflections"
    PERFORMER "The Action"
    REM COMPOSER "The Action"
    INDEX 00 13:10:02
    INDEX 01 13:11:58
  TRACK 06 AUDIO
    TITLE "Hey Sah Lo Ney"
    PERFORMER "The Action"
    REM COMPOSER "The Action"
    INDEX 00 16:08:18
    INDEX 01 16:09:74
  TRACK 07 AUDIO
    TITLE "Something Has Hit Me"
    PERFORMER "The Action"
    REM COMPOSER "The Action"
    INDEX 00 18:38:30
    INDEX 01 18:40:11
  TRACK 08 AUDIO
    TITLE "Baby You've Got It"
    PERFORMER "The Action"
    REM COMPOSER "The Action"
    INDEX 00 22:13:20
    INDEX 01 22:14:01
  TRACK 09 AUDIO
    TITLE "I Love You (Yeah!)"
    PERFORMER "The Action"
    REM COMPOSER "The Action"
    INDEX 00 25:06:18
    INDEX 01 25:07:74
  TRACK 10 AUDIO
    TITLE "Wasn't It You"
    PERFORMER "The Action"
    REM COMPOSER "The Action"
    INDEX 00 28:26:30
    INDEX 01 28:28:11
  TRACK 11 AUDIO
    TITLE "The Harlem Shuffle"
    PERFORMER "The Action"
    REM COMPOSER "The Action"
    INDEX 00 31:20:45
    INDEX 01 31:22:26
  TRACK 12 AUDIO
    TITLE "The Place"
    PERFORMER "The Action"
    REM COMPOSER "The Action"
    INDEX 00 34:52:35
    INDEX 01 34:54:16
  TRACK 13 AUDIO
    TITLE "Twentyfourth Hour"
    PERFORMER "The Action"
    REM COMPOSER "The Action"
    INDEX 00 37:26:21
    INDEX 01 37:28:02
  TRACK 14 AUDIO
    TITLE "Come On, Come With Me"
    PERFORMER "The Action"
    REM COMPOSER "The Action"
    INDEX 00 40:29:43
    INDEX 01 40:32:24
  TRACK 15 AUDIO
    TITLE "Just Once In My Life"
    PERFORMER "The Action"
    REM COMPOSER "The Action"
    INDEX 00 42:59:56
    INDEX 01 43:02:37
  TRACK 16 AUDIO
    TITLE "Something Has Hit Me (Rehearsal)"
    PERFORMER "The Action"
    REM COMPOSER "The Action"
    INDEX 00 46:15:71
    INDEX 01 46:25:49
  TRACK 17 AUDIO
    TITLE "I Love You (Yeah!) (Backing Track Take 1)"
    PERFORMER "The Action"
    REM COMPOSER "The Action"
    INDEX 00 49:56:54
    INDEX 01 49:58:35
  TRACK 18 AUDIO
    TITLE "Never Ever (Rehearsal)"
    PERFORMER "The Action"
    REM COMPOSER "The Action"
    INDEX 00 53:34:16
    INDEX 01 53:35:72
  TRACK 19 AUDIO
    TITLE "Come On, Come With Me (Backing Track Take 4)"
    PERFORMER "The Action"
    REM COMPOSER "The Action"
    INDEX 00 56:41:65
    INDEX 01 56:43:46
  TRACK 20 AUDIO
    TITLE "Twentyfourth Hour (Alternative Version)"
    PERFORMER "The Action"
    REM COMPOSER "The Action"
    INDEX 00 59:13:72
    INDEX 01 59:15:53
  TRACK 21 AUDIO
    TITLE "The Place (Backing Track Take 2)"
    PERFORMER "The Action"
    REM COMPOSER "The Action"
    INDEX 00 61:55:37
    INDEX 01 61:57:18
  TRACK 22 AUDIO
    TITLE "Just Once In My Life (Take 2)"
    PERFORMER "The Action"
    REM COMPOSER "The Action"
    INDEX 00 64:27:71
    INDEX 01 64:31:52
  TRACK 23 AUDIO
    TITLE "Something Has Hit Me (Alternative Backing Track)"
    PERFORMER "The Action"
    REM COMPOSER "The Action"
    INDEX 00 67:13:58
    INDEX 01 67:15:39
  TRACK 24 AUDIO
    TITLE "Shadows And Reflections (Backing Track)"
    PERFORMER "The Action"
    REM COMPOSER "The Action"
    INDEX 00 70:46:03
    INDEX 01 70:47:59
Код: Выделить всё
-----------------------
DON'T MODIFY THIS FILE
-----------------------
PERFORMER: auCDtect Task Manager, ver. 1.6.0 RC1 build 1.6.0.1
Copyright (c) 2008-2010 y-soft. All rights reserved
[url=http://y-soft.org]http://y-soft.org[/url]
ANALYZER: auCDtect: CD records authenticity detector, version 0.8.2
Copyright (c) 2004 Oleg Berngardt. All rights reserved.
Copyright (c) 2004 Alexander Djourik. All rights reserved.
FILE: The Action - Shadows & Reflections CD2.wav
  Size: 781179212 Hash: 3963B6C45B4B354AB803342F188FA6BF Accuracy: -m8
  Conclusion: CDDA 100%
  Signature: F572BBCC201FAE821AE7D0D1682EB9FDDE3262FA
FILE: The Action - Shadows & Reflections CD2.flac
  Size: 417777962 Hash: 3963B6C45B4B354AB803342F188FA6BF Accuracy: -m8
  Conclusion: CDDA 100%
  Signature: A40AFC5D8F19FC0DD48DD7955FF875588035CE0F
#77701. Come Around
02. Something To Say
03. Love Is All
04. Icarus
05. Strange Roads
06. Things You Cannot See
07. Brain (Full Length Version)
08. Look At The View
09. Climbing Up The Wall (See Me)
10. Really Doesn’t Matter (Full Length Version)
11. I’m A Stranger
12. Little Boy
13. Follow Me
14. In My Dream (George Martin Orchestrated Version)
15. Only Dreaming
16. Dustbin Full Of Rubbish
17. An Understanding Love
18. My Favourite Day
19. A Saying For Today
20. In My Dream (Demo Version)
Код: Выделить всё
Exact Audio Copy V1.3 from 2. September 2016
EAC extraction logfile from 23. February 2019, 17:19
The Action / Shadows & Reflection CD3
Used drive  : Optiarc DVD RW AD-7280S   Adapter: 1  ID: 0
Read mode               : Secure
Utilize accurate stream : Yes
Defeat audio cache      : Yes
Make use of C2 pointers : No
Read offset correction                      : 48
Overread into Lead-In and Lead-Out          : No
Fill up missing offset samples with silence : Yes
Delete leading and trailing silent blocks   : No
Null samples used in CRC calculations       : Yes
Used interface                              : Native Win32 interface for Win NT & 2000
Used output format : Internal WAV Routines
Sample format      : 44.100 Hz; 16 Bit; Stereo
TOC of the extracted CD
     Track |   Start  |  Length  | Start sector | End sector
    ---------------------------------------------------------
        1  |  0:00.00 |  2:49.68 |         0    |    12742
        2  |  2:49.68 |  3:17.26 |     12743    |    27543
        3  |  6:07.19 |  3:44.01 |     27544    |    44344
        4  |  9:51.20 |  2:57.22 |     44345    |    57641
        5  | 12:48.42 |  3:40.03 |     57642    |    74144
        6  | 16:28.45 |  2:52.57 |     74145    |    87101
        7  | 19:21.27 |  4:24.73 |     87102    |   106974
        8  | 23:46.25 |  4:02.29 |    106975    |   125153
        9  | 27:48.54 |  3:25.25 |    125154    |   140553
       10  | 31:14.04 |  3:37.74 |    140554    |   156902
       11  | 34:52.03 |  2:45.20 |    156903    |   169297
       12  | 37:37.23 |  4:16.09 |    169298    |   188506
       13  | 41:53.32 |  3:01.24 |    188507    |   202105
       14  | 44:54.56 |  3:25.19 |    202106    |   217499
       15  | 48:20.00 |  3:20.07 |    217500    |   232506
       16  | 51:40.07 |  2:51.20 |    232507    |   245351
       17  | 54:31.27 |  3:52.74 |    245352    |   262825
       18  | 58:24.26 |  3:57.62 |    262826    |   280662
       19  | 62:22.13 |  3:33.54 |    280663    |   296691
       20  | 65:55.67 |  4:54.05 |    296692    |   318746
Range status and errors
Selected range
     Filename C:\Users\Alex\Desktop\Lossless Galaxy ALLexxess\The Action\2018 Shadows And Reflections (4CD Box Set Grapefruit Records)\CD3\The Action - Shadows & Reflection CD3.wav
     Peak level 98.7 %
     Extraction speed 3.7 X
     Range quality 99.9 %
     Test CRC 8B19AEB5
     Copy CRC 8B19AEB5
     Copy OK
No errors occurred
AccurateRip summary
Track  1  accurately ripped (confidence 4)  [C80E142C]  (AR v2)
Track  2  accurately ripped (confidence 4)  [2C48C459]  (AR v2)
Track  3  accurately ripped (confidence 4)  [C9EB53CF]  (AR v2)
Track  4  accurately ripped (confidence 4)  [CDEF8087]  (AR v2)
Track  5  accurately ripped (confidence 4)  [8FA116F8]  (AR v2)
Track  6  accurately ripped (confidence 4)  [2617E84B]  (AR v2)
Track  7  accurately ripped (confidence 4)  [A4B1FF13]  (AR v2)
Track  8  accurately ripped (confidence 4)  [878DC43B]  (AR v2)
Track  9  accurately ripped (confidence 4)  [F84B16DE]  (AR v2)
Track 10  accurately ripped (confidence 4)  [C11A1C91]  (AR v2)
Track 11  accurately ripped (confidence 4)  [B02ACDDF]  (AR v2)
Track 12  accurately ripped (confidence 4)  [B0BC5F2C]  (AR v2)
Track 13  accurately ripped (confidence 4)  [89646903]  (AR v2)
Track 14  accurately ripped (confidence 4)  [959615CA]  (AR v2)
Track 15  accurately ripped (confidence 4)  [1815E077]  (AR v2)
Track 16  accurately ripped (confidence 4)  [B3053818]  (AR v2)
Track 17  accurately ripped (confidence 4)  [8E6C9BE1]  (AR v2)
Track 18  accurately ripped (confidence 4)  [FD48E1A4]  (AR v2)
Track 19  accurately ripped (confidence 3)  [1EDECCA4]  (AR v2)
Track 20  accurately ripped (confidence 4)  [90401D5C]  (AR v2)
All tracks accurately ripped
End of status report
---- CUETools DB Plugin V2.1.6
[CTDB TOCID: cbDf5R9gIA5xZ2cR5lPFZgeF4ww-] found
Submit result: cbDf5R9gIA5xZ2cR5lPFZgeF4ww- has been confirmed
Track | CTDB Status
  1   | (9/9) Accurately ripped
  2   | (9/9) Accurately ripped
  3   | (9/9) Accurately ripped
  4   | (9/9) Accurately ripped
  5   | (9/9) Accurately ripped
  6   | (9/9) Accurately ripped
  7   | (9/9) Accurately ripped
  8   | (9/9) Accurately ripped
  9   | (9/9) Accurately ripped
 10   | (9/9) Accurately ripped
 11   | (9/9) Accurately ripped
 12   | (9/9) Accurately ripped
 13   | (9/9) Accurately ripped
 14   | (9/9) Accurately ripped
 15   | (9/9) Accurately ripped
 16   | (9/9) Accurately ripped
 17   | (9/9) Accurately ripped
 18   | (9/9) Accurately ripped
 19   | (9/9) Accurately ripped
 20   | (9/9) Accurately ripped
==== Log checksum 22F0BDD85406C671D192CB27115CF78C91F03F8C5CC3916F9EA97B827C6866E2 ====
Код: Выделить всё
REM GENRE "Beat / Mod / Psychedelic Rock"
REM DATE 2018
REM DISCID 2C109914
REM COMMENT "ExactAudioCopy v1.3"
PERFORMER "The Action"
TITLE "Shadows & Reflection CD3"
REM COMPOSER "The Action"
FILE "The Action - Shadows & Reflection CD3.flac" WAVE
  TRACK 01 AUDIO
    TITLE "Come Around"
    PERFORMER "The Action"
    REM COMPOSER "The Action"
    INDEX 01 00:00:00
  TRACK 02 AUDIO
    TITLE "Something To Say"
    PERFORMER "The Action"
    REM COMPOSER "The Action"
    INDEX 00 02:48:12
    INDEX 01 02:49:68
  TRACK 03 AUDIO
    TITLE "Love Is All"
    PERFORMER "The Action"
    REM COMPOSER "The Action"
    INDEX 00 06:05:38
    INDEX 01 06:07:19
  TRACK 04 AUDIO
    TITLE "Icarus"
    PERFORMER "The Action"
    REM COMPOSER "The Action"
    INDEX 00 09:49:39
    INDEX 01 09:51:20
  TRACK 05 AUDIO
    TITLE "Strange Roads"
    PERFORMER "The Action"
    REM COMPOSER "The Action"
    INDEX 00 12:46:61
    INDEX 01 12:48:42
  TRACK 06 AUDIO
    TITLE "Things You Cannot See"
    PERFORMER "The Action"
    REM COMPOSER "The Action"
    INDEX 00 16:26:64
    INDEX 01 16:28:45
  TRACK 07 AUDIO
    TITLE "Brain (Full Length Version)"
    PERFORMER "The Action"
    REM COMPOSER "The Action"
    INDEX 00 19:18:46
    INDEX 01 19:21:27
  TRACK 08 AUDIO
    TITLE "Look At The View"
    PERFORMER "The Action"
    REM COMPOSER "The Action"
    INDEX 00 23:42:44
    INDEX 01 23:46:25
  TRACK 09 AUDIO
    TITLE "Climbing Up The Wall (See Me)"
    PERFORMER "The Action"
    REM COMPOSER "The Action"
    INDEX 00 27:45:73
    INDEX 01 27:48:54
  TRACK 10 AUDIO
    TITLE "Really Doesn't Matter Any More (Full Length Version)"
    PERFORMER "The Action"
    REM COMPOSER "The Action"
    INDEX 00 31:11:23
    INDEX 01 31:14:04
  TRACK 11 AUDIO
    TITLE "I'm A Stranger"
    PERFORMER "The Action"
    REM COMPOSER "The Action"
    INDEX 00 34:50:22
    INDEX 01 34:52:03
  TRACK 12 AUDIO
    TITLE "Little Boy"
    PERFORMER "The Action"
    REM COMPOSER "The Action"
    INDEX 00 37:36:42
    INDEX 01 37:37:23
  TRACK 13 AUDIO
    TITLE "Follow Me"
    PERFORMER "The Action"
    REM COMPOSER "The Action"
    INDEX 00 41:51:51
    INDEX 01 41:53:32
  TRACK 14 AUDIO
    TITLE "In My Dream (George Martin Orchestrated Version)"
    PERFORMER "The Action"
    REM COMPOSER "The Action"
    INDEX 00 44:52:00
    INDEX 01 44:54:56
  TRACK 15 AUDIO
    TITLE "Only Dreaming"
    PERFORMER "The Action"
    REM COMPOSER "The Action"
    INDEX 00 48:14:19
    INDEX 01 48:20:00
  TRACK 16 AUDIO
    TITLE "Dustbin Full Of Rubbish"
    PERFORMER "The Action"
    REM COMPOSER "The Action"
    INDEX 00 51:38:26
    INDEX 01 51:40:07
  TRACK 17 AUDIO
    TITLE "An Understanding Love"
    PERFORMER "The Action"
    REM COMPOSER "The Action"
    INDEX 00 54:29:46
    INDEX 01 54:31:27
  TRACK 18 AUDIO
    TITLE "My Favourite Day"
    PERFORMER "The Action"
    REM COMPOSER "The Action"
    INDEX 00 58:22:45
    INDEX 01 58:24:26
  TRACK 19 AUDIO
    TITLE "A Saying For Today"
    PERFORMER "The Action"
    REM COMPOSER "The Action"
    INDEX 00 62:20:32
    INDEX 01 62:22:13
  TRACK 20 AUDIO
    TITLE "In My Dream (Demo Version)"
    PERFORMER "The Action"
    REM COMPOSER "The Action"
    INDEX 00 65:50:11
    INDEX 01 65:55:67
Код: Выделить всё
-----------------------
DON'T MODIFY THIS FILE
-----------------------
PERFORMER: auCDtect Task Manager, ver. 1.6.0 RC1 build 1.6.0.1
Copyright (c) 2008-2010 y-soft. All rights reserved
[url=http://y-soft.org]http://y-soft.org[/url]
ANALYZER: auCDtect: CD records authenticity detector, version 0.8.2
Copyright (c) 2004 Oleg Berngardt. All rights reserved.
Copyright (c) 2004 Alexander Djourik. All rights reserved.
FILE: The Action - Shadows & Reflection CD3.wav
  Size: 749692988 Hash: 93D5F40C652D8122F4173641EAA382F3 Accuracy: -m8
  Conclusion: CDDA 100%
  Signature: 56F22ABFCA6FDA2136F4CECDF199F9D502C48437
FILE: The Action - Shadows & Reflection CD3.flac
  Size: 353437830 Hash: 93D5F40C652D8122F4173641EAA382F3 Accuracy: -m8
  Conclusion: CDDA 100%
  Signature: FE76F91E90866F1506B615BA87116858310DAE17
#77701. It Ain’t Fair / The Boys
02. I Want You / The Boys
03. Fine Looking Girl (Demo) / The Boys
04. Girl (Why You Wanna Make Me Blue) (Decca Audition)
05. In My Lonely Room (Decca Audition)
06. You’ll Want Me Back (Decca Audition)
07. I’ll Keep Holding On (Ready, Steady, Go! Live)
08. Land Of One Thousand Dances / Uptight (Everything’s Alright) (Ready, Steady, Go! Live)
09. Going To A Go-Go (BBC Live)
10. Never Ever (BBC Live)
11. India (BBC Session)
12. Love Is All (BBC Session)
13. I’ll Keep Holding On (’Edsel’ Mix)
14. Baby You’ve Got It (’Edsel’ Mix)
15. The Harlem Shuffle (’Edsel’ Mix)
16. Just Once In My Life (’Edsel’ Mix)
17. Never Ever (’Edsel’ Mix)
18. Twentyfourth Hour (’Edsel’ Mix)
19. Something Has Hit Me (’Edsel’ Mix)
20. Shadows And Reflections (’Edsel’ Mix)
Код: Выделить всё
Exact Audio Copy V1.3 from 2. September 2016
EAC extraction logfile from 23. February 2019, 15:29
The Action / Shadows & Reflections CD4
Used drive  : PLEXTOR BD-R  PX-B950SA   Adapter: 1  ID: 1
Read mode               : Secure
Utilize accurate stream : Yes
Defeat audio cache      : Yes
Make use of C2 pointers : No
Read offset correction                      : 6
Overread into Lead-In and Lead-Out          : No
Fill up missing offset samples with silence : Yes
Delete leading and trailing silent blocks   : No
Null samples used in CRC calculations       : Yes
Used interface                              : Native Win32 interface for Win NT & 2000
Used output format : Internal WAV Routines
Sample format      : 44.100 Hz; 16 Bit; Stereo
TOC of the extracted CD
     Track |   Start  |  Length  | Start sector | End sector
    ---------------------------------------------------------
        1  |  0:00.00 |  2:17.37 |         0    |    10311
        2  |  2:17.37 |  2:19.04 |     10312    |    20740
        3  |  4:36.41 |  2:27.30 |     20741    |    31795
        4  |  7:03.71 |  3:03.73 |     31796    |    45593
        5  | 10:07.69 |  2:42.74 |     45594    |    57817
        6  | 12:50.68 |  2:48.25 |     57818    |    70442
        7  | 15:39.18 |  2:23.21 |     70443    |    81188
        8  | 18:02.39 |  1:20.56 |     81189    |    87244
        9  | 19:23.20 |  2:41.62 |     87245    |    99381
       10  | 22:05.07 |  2:57.62 |     99382    |   112718
       11  | 25:02.69 |  3:03.41 |    112719    |   126484
       12  | 28:06.35 |  3:39.33 |    126485    |   142942
       13  | 31:45.68 |  3:40.49 |    142943    |   159491
       14  | 35:26.42 |  2:45.48 |    159492    |   171914
       15  | 38:12.15 |  3:14.54 |    171915    |   186518
       16  | 41:26.69 |  2:55.35 |    186519    |   199678
       17  | 44:22.29 |  2:21.30 |    199679    |   210283
       18  | 46:43.59 |  2:37.38 |    210284    |   222096
       19  | 49:21.22 |  3:29.20 |    222097    |   237791
       20  | 52:50.42 |  2:52.71 |    237792    |   250762
Range status and errors
Selected range
     Filename C:\Users\Alex\Desktop\Lossless Galaxy ALLexxess\The Action\2018 Shadows And Reflections (4CD Box Set Grapefruit Records)\CD4\The Action - Shadows & Reflections CD4.wav
     Peak level 100.0 %
     Extraction speed 3.3 X
     Range quality 100.0 %
     Test CRC EB70A724
     Copy CRC EB70A724
     Copy OK
No errors occurred
AccurateRip summary
Track  1  accurately ripped (confidence 3)  [C2A566F5]  (AR v2)
Track  2  accurately ripped (confidence 3)  [574CEDB9]  (AR v2)
Track  3  accurately ripped (confidence 3)  [C27D62DE]  (AR v2)
Track  4  accurately ripped (confidence 3)  [8B207E03]  (AR v2)
Track  5  accurately ripped (confidence 2)  [65BC0AA6]  (AR v2)
Track  6  accurately ripped (confidence 2)  [A9FF7A72]  (AR v2)
Track  7  accurately ripped (confidence 2)  [3B363B07]  (AR v2)
Track  8  accurately ripped (confidence 2)  [2AF5F7B7]  (AR v2)
Track  9  accurately ripped (confidence 2)  [ADE38D4B]  (AR v2)
Track 10  accurately ripped (confidence 2)  [0C6495B7]  (AR v2)
Track 11  accurately ripped (confidence 2)  [CD554F52]  (AR v2)
Track 12  accurately ripped (confidence 2)  [DF53FF79]  (AR v2)
Track 13  accurately ripped (confidence 2)  [30C0DDFF]  (AR v2)
Track 14  accurately ripped (confidence 3)  [CB53366A]  (AR v2)
Track 15  accurately ripped (confidence 3)  [79A9001E]  (AR v2)
Track 16  accurately ripped (confidence 3)  [5E2A98BF]  (AR v2)
Track 17  accurately ripped (confidence 3)  [0575D87B]  (AR v2)
Track 18  accurately ripped (confidence 3)  [A1F60641]  (AR v2)
Track 19  accurately ripped (confidence 3)  [31C4D685]  (AR v2)
Track 20  accurately ripped (confidence 3)  [95FB752D]  (AR v2)
All tracks accurately ripped
End of status report
---- CUETools DB Plugin V2.1.6
[CTDB TOCID: ZrF0McPy962ztG5vE1buLdqpu9Q-] found
Submit result: ZrF0McPy962ztG5vE1buLdqpu9Q- has been confirmed
Track | CTDB Status
  1   | (10/10) Accurately ripped
  2   | (10/10) Accurately ripped
  3   | (10/10) Accurately ripped
  4   | (10/10) Accurately ripped
  5   | (10/10) Accurately ripped
  6   | (10/10) Accurately ripped
  7   | (10/10) Accurately ripped
  8   | (10/10) Accurately ripped
  9   | (10/10) Accurately ripped
 10   | (10/10) Accurately ripped
 11   | (10/10) Accurately ripped
 12   | (10/10) Accurately ripped
 13   | (10/10) Accurately ripped
 14   | (10/10) Accurately ripped
 15   | (10/10) Accurately ripped
 16   | (10/10) Accurately ripped
 17   | (10/10) Accurately ripped
 18   | (10/10) Accurately ripped
 19   | (10/10) Accurately ripped
 20   | (10/10) Accurately ripped
==== Log checksum 17793CCB72C8CF83A102DEC8CD427C66DA0B2DB309FA3A6F16D7264E9F0CBAC7 ====
Код: Выделить всё
REM GENRE "Beat / Mod / Psychedelic Rock"
REM DATE 2018
REM DISCID 280D0F14
REM COMMENT "ExactAudioCopy v1.3"
PERFORMER "The Action"
TITLE "Shadows & Reflections CD4"
REM COMPOSER "The Action"
FILE "The Action - Shadows & Reflections CD4.flac" WAVE
  TRACK 01 AUDIO
    TITLE "It Ain't Fair"
    PERFORMER "The Boys"
    REM COMPOSER "The Action"
    INDEX 01 00:00:00
  TRACK 02 AUDIO
    TITLE "I Want You"
    PERFORMER "The Boys"
    REM COMPOSER "The Action"
    INDEX 00 02:16:05
    INDEX 01 02:17:37
  TRACK 03 AUDIO
    TITLE "Fine Looking Girl (Demo)"
    PERFORMER "The Boys"
    REM COMPOSER "The Action"
    INDEX 00 04:32:59
    INDEX 01 04:36:41
  TRACK 04 AUDIO
    TITLE "Girl (Why You Wanna Make Me Blue) (Decca audition)"
    PERFORMER "The Action"
    REM COMPOSER "The Action"
    INDEX 00 07:02:22
    INDEX 01 07:03:71
  TRACK 05 AUDIO
    TITLE "In My Lonely Room (Decca Audition)"
    PERFORMER "The Action"
    REM COMPOSER "The Action"
    INDEX 00 10:06:13
    INDEX 01 10:07:69
  TRACK 06 AUDIO
    TITLE "You'll Want Me Back (Decca Audition)"
    PERFORMER "The Action"
    REM COMPOSER "The Action"
    INDEX 00 12:49:12
    INDEX 01 12:50:68
  TRACK 07 AUDIO
    TITLE "I'll Keep Holding On (Ready, Steady, Go! Live)"
    PERFORMER "The Action"
    REM COMPOSER "The Action"
    INDEX 00 15:37:37
    INDEX 01 15:39:18
  TRACK 08 AUDIO
    TITLE "Land Of One Thousand Dances-Uptight (Ready, Steady, Go! Live)"
    PERFORMER "The Action"
    REM COMPOSER "The Action"
    INDEX 00 18:00:58
    INDEX 01 18:02:39
  TRACK 09 AUDIO
    TITLE "Going To A Go-Go (BBC Live)"
    PERFORMER "The Action"
    REM COMPOSER "The Action"
    INDEX 00 19:21:39
    INDEX 01 19:23:20
  TRACK 10 AUDIO
    TITLE "Never Ever (BBC Live)"
    PERFORMER "The Action"
    REM COMPOSER "The Action"
    INDEX 00 22:03:26
    INDEX 01 22:05:07
  TRACK 11 AUDIO
    TITLE "India (BBC Session)"
    PERFORMER "The Action"
    REM COMPOSER "The Action"
    INDEX 00 24:59:13
    INDEX 01 25:02:69
  TRACK 12 AUDIO
    TITLE "Love Is All (BBC Session)"
    PERFORMER "The Action"
    REM COMPOSER "The Action"
    INDEX 00 28:04:54
    INDEX 01 28:06:35
  TRACK 13 AUDIO
    TITLE "I'll Keep On Holding On (’Edsel’ Mix)"
    PERFORMER "The Action"
    REM COMPOSER "The Action"
    INDEX 00 31:40:12
    INDEX 01 31:45:68
  TRACK 14 AUDIO
    TITLE "Baby You've Got It (’Edsel’ Mix)"
    PERFORMER "The Action"
    REM COMPOSER "The Action"
    INDEX 00 35:24:61
    INDEX 01 35:26:42
  TRACK 15 AUDIO
    TITLE "The Harlem Shuffle (’Edsel’ Mix)"
    PERFORMER "The Action"
    REM COMPOSER "The Action"
    INDEX 00 38:10:34
    INDEX 01 38:12:15
  TRACK 16 AUDIO
    TITLE "Just Once In My Life (’Edsel’ Mix)"
    PERFORMER "The Action"
    REM COMPOSER "The Action"
    INDEX 00 41:25:13
    INDEX 01 41:26:69
  TRACK 17 AUDIO
    TITLE "Never Ever (’Edsel’ Mix)"
    PERFORMER "The Action"
    REM COMPOSER "The Action"
    INDEX 00 44:20:48
    INDEX 01 44:22:29
  TRACK 18 AUDIO
    TITLE "Twentyfourth Hour (’Edsel’ Mix)"
    PERFORMER "The Action"
    REM COMPOSER "The Action"
    INDEX 00 46:42:03
    INDEX 01 46:43:59
  TRACK 19 AUDIO
    TITLE "Something Has Hit Me (’Edsel’ Mix)"
    PERFORMER "The Action"
    REM COMPOSER "The Action"
    INDEX 00 49:19:41
    INDEX 01 49:21:22
  TRACK 20 AUDIO
    TITLE "Shadows And Reflections (’Edsel’ Mix)"
    PERFORMER "The Action"
    REM COMPOSER "The Action"
    INDEX 00 52:48:61
    INDEX 01 52:50:42
Код: Выделить всё
-----------------------
DON'T MODIFY THIS FILE
-----------------------
PERFORMER: auCDtect Task Manager, ver. 1.6.0 RC1 build 1.6.0.1
Copyright (c) 2008-2010 y-soft. All rights reserved
[url=http://y-soft.org]http://y-soft.org[/url]
ANALYZER: auCDtect: CD records authenticity detector, version 0.8.2
Copyright (c) 2004 Oleg Berngardt. All rights reserved.
Copyright (c) 2004 Alexander Djourik. All rights reserved.
FILE: The Action - Shadows & Reflections CD4.wav
  Size: 589794620 Hash: 36DBA1C6F9FBC17C23124312C515A966 Accuracy: -m8
  Conclusion: CDDA 100%
  Signature: 13B049BACB039F0C4A6234C2BB8290B8976CE8A7
FILE: The Action - Shadows & Reflections CD4.flac
  Size: 276573698 Hash: 36DBA1C6F9FBC17C23124312C515A966 Accuracy: -m8
  Conclusion: CDDA 100%
  Signature: 8067B9D1A5DF6F59B8EA91A6E7C0476EDD34498B
Доп. информация

The Action
Box / Album:
2018 Shadows And Reflections
The Complete Recordings 1964-1968
(4CD Box Set Cherry Grapefruit Records)
Info:
Cherry Red / Grapefruit / Parlophone Records / EMI
Remastered / Comprehensive
Catalog Box: CRSEGBK045
Catalog Discs: CRSEGBK045/CD1~CD4
Made in EU
Dynamic Range: 7 / 11 / 10 / 11
Released Year: 2018
https://www.discogs.com/The-Action-Shadows-And-Reflections-The-Complete-Recording...release/12183351
Правила, инструкции, FAQ!!!
Торрент  Добавлен [09 мар 2019, 10:40] Скачать торрент Магнет ссылка
Скачать торрент
17.81 КБ

Статус
Проверен 
 
Размер  2.57 ГБ
Приватный: Нет (DHT включён)
.torrent скачан  0
Как залить торрент? | Как скачать Torrent? | Как смотреть и слушать онлайн?  
Гость
 



Вернуться в Classic Rock & Hard Rock

Кто сейчас на конференции

Сейчас этот форум просматривают: нет зарегистрированных пользователей и гости: 0