(art rock, progressive rock, Genesis-family) Steve Hackett - Дискография (студийные альбомы) 34 CD (1975 - 2019), FLAC (image+.cue), lossless


Статистика раздачи
Размер: 17.54 ГБ | Добавлен: 09 мар 2019, 11:25 | Скачали: 0
Сидеров: 24  [0 байт/сек]    Личеров: 7  [0 байт/сек]

Сообщение Гость » 09 мар 2019, 11:25

Steve Hackett
Дискография (студийные альбомы) 34 CD (1975 - 2019)


Жанр: progressive rock, art rock, Genesis-Family
Страна: UK
Аудио кодек: FLAC (*.flac)
Тип рипа: image+.cue
Битрейт аудио: lossless
Наличие сканов в содержимом раздачи: 600dpi, PNG, 600dpi, JPG

Все рипы выполнены с фирменных дисков из личных коллекций, Secure mode, Accurate stream, Test & Copy

Год выпуска диска: 1988
Производитель диска: UK
Лейбл: Virgin
Номер по каталогу: CASCD 1111
Продолжительность: 40:48
1. Ace Of Wands 5:23
2. Hands Of The Priestess Part I 3:38
3. A Tower Struck Down 4:52
4. Hands Of The Priestess Part II 1:32
5. The Hermit 4:48
6. Star Of Sirius 7:07
7. The Lovers 1:45
8. Shadow Of The Hierophant 11:44
Код: Выделить всё
Exact Audio Copy V1.0 beta 1 from 15. November 2010
EAC extraction logfile from 19. January 2011, 21:14
Steve Hackett / Voyage Of The Acolyte (CASCD 1111)
Used drive  : TEAC    DV-W516GDM   Adapter: 0  ID: 1
Read mode               : Secure
Utilize accurate stream : Yes
Defeat audio cache      : Yes
Make use of C2 pointers : No
Read offset correction                      : 6
Overread into Lead-In and Lead-Out          : No
Fill up missing offset samples with silence : Yes
Delete leading and trailing silent blocks   : No
Null samples used in CRC calculations       : Yes
Used interface                              : Native Win32 interface for Win NT & 2000
Used output format              : User Defined Encoder
Selected bitrate                : 896 kBit/s
Quality                         : High
Add ID3 tag                     : No
Command line compressor         : C:\Program Files\Exact Audio Copy 1.0\Flac\flac.exe
Additional command line options : -8 -V %s
TOC of the extracted CD
     Track |   Start  |  Length  | Start sector | End sector
    ---------------------------------------------------------
        1  |  0:00.00 |  5:25.02 |         0    |    24376
        2  |  5:25.02 |  3:28.68 |     24377    |    40044
        3  |  8:53.70 |  4:52.30 |     40045    |    61974
        4  | 13:46.25 |  1:34.25 |     61975    |    69049
        5  | 15:20.50 |  4:49.22 |     69050    |    90746
        6  | 20:09.72 |  7:07.60 |     90747    |   122831
        7  | 27:17.57 |  1:49.48 |    122832    |   131054
        8  | 29:07.30 | 11:44.67 |    131055    |   183921
Range status and errors
Selected range
     Filename C:\Olaf der Weisse\Steve Hackett . 1975 . Voyage Of The Acolyte (CASCD 1111)\Steve Hackett - Voyage Of The Acolyte (CASCD 1111).wav
     Peak level 91.1 %
     Extraction speed 0.4 X
     Range quality 99.9 %
     Test CRC 8537F9E7
     Copy CRC 8537F9E7
     Copy OK
No errors occurred
AccurateRip summary
Track  1  accurately ripped (confidence 6)  [0A14F907]
Track  2  accurately ripped (confidence 7)  [38A4D067]
Track  3  accurately ripped (confidence 8)  [6868B934]
Track  4  accurately ripped (confidence 8)  [ABFDDA51]
Track  5  accurately ripped (confidence 7)  [A1A17A29]
Track  6  accurately ripped (confidence 8)  [41517358]
Track  7  accurately ripped (confidence 7)  [182122BF]
Track  8  accurately ripped (confidence 4)  [F4EE171A]
All tracks accurately ripped
End of status report
==== Log checksum E5C90DCCA86876E1EC5474A5D2FF29EC5078769B6C6DAD96AA41E90EA9C1C7AF ====
Год выпуска диска: 1991
Производитель диска: USA
Лейбл: Caroline
Номер по каталогу: CAROL 1863 2
Продолжительность: 40:57

1. Ace Of Wands 5:25
2. Hands Of The Priestess Part I 3:38
3. A Tower Struck Down 4:52
4. Hands Of The Priestess Part II 1:32
5. The Hermit 4:50
6. Star Of Sirius 7:07
7. The Lovers 1:45
8. Shadow Of The Hierophant 11:45
Код: Выделить всё
Exact Audio Copy V1.0 beta 3 from 29. August 2011
EAC extraction logfile from 22. November 2014, 15:46
Steve Hackett / Voyage Of The Acolyte
Used drive  : PLEXTOR DVDR   PX-891SA   Adapter: 0  ID: 2
Read mode               : Secure
Utilize accurate stream : Yes
Defeat audio cache      : Yes
Make use of C2 pointers : No
Read offset correction                      : 6
Overread into Lead-In and Lead-Out          : No
Fill up missing offset samples with silence : Yes
Delete leading and trailing silent blocks   : No
Null samples used in CRC calculations       : Yes
Used interface                              : Installed external ASPI interface
Used output format              : User Defined Encoder
Selected bitrate                : 320 kBit/s
Quality                         : High
Add ID3 tag                     : No
Command line compressor         : C:\Program Files\Exact Audio Copy 1.0\Flac\flac.exe
Additional command line options : -V -8 -T "Date=%year%" -T "Genre=%genre%" %source%
TOC of the extracted CD
     Track |   Start  |  Length  | Start sector | End sector
    ---------------------------------------------------------
        1  |  0:00.32 |  5:25.05 |        32    |    24411
        2  |  5:25.37 |  3:31.60 |     24412    |    40296
        3  |  8:57.22 |  4:49.33 |     40297    |    62004
        4  | 13:46.55 |  1:34.22 |     62005    |    69076
        5  | 15:21.02 |  4:49.30 |     69077    |    90781
        6  | 20:10.32 |  7:07.60 |     90782    |   122866
        7  | 27:18.17 |  1:49.43 |    122867    |   131084
        8  | 29:07.60 | 11:43.20 |    131085    |   183829
Range status and errors
Selected range
     Filename K:\Lossless Temp\Steve Hackett\Steve Hackett - Voyage Of The Acolyte - 1975 (1991 Caroline Records, CAROL 1863-2, USA)\Steve Hackett - Voyage Of The Acolyte.wav
     Peak level 93.6 %
     Extraction speed 6.0 X
     Range quality 100.0 %
     Test CRC 2474CEE1
     Copy CRC 2474CEE1
     Copy OK
No errors occurred
AccurateRip summary
Track  1  accurately ripped (confidence 9)  [F1B70A52]  (AR v2)
Track  2  accurately ripped (confidence 9)  [06F8AF58]  (AR v2)
Track  3  accurately ripped (confidence 9)  [8139F279]  (AR v2)
Track  4  accurately ripped (confidence 8)  [9A934CD0]  (AR v2)
Track  5  accurately ripped (confidence 9)  [A2FE55EA]  (AR v2)
Track  6  accurately ripped (confidence 9)  [4A193E19]  (AR v2)
Track  7  accurately ripped (confidence 9)  [F41AFB5B]  (AR v2)
Track  8  accurately ripped (confidence 9)  [1137441E]  (AR v2)
All tracks accurately ripped
End of status report
==== Log checksum 24626F19F4A9C52512C33F7285D9F3FD401AC21CFB243D03A0D2CB6D37625327 ====
Год выпуска диска: 2005
Производитель диска: EU
Лейбл: EMI/Virgin Records
Номер по каталогу: 00946 337242 2 8
Продолжительность: 64min
01. Steve Hackett - Ace Of Wands
02. Steve Hackett - Hands Of The Priestess, Pt. 1
03. Steve Hackett - A Tower Struck Down
04. Steve Hackett - Hands Of The Priestess, Pt. 2
05. Steve Hackett - The Hermit
06. Steve Hackett - Star Of Sirius
07. Steve Hackett - The Lovers
08. Steve Hackett - Shadow Of The Hierophant
Bonus Tracks:
09. Steve Hackett - Ace Of Wands [Live]
10. Steve Hackett - Shadow Of The Hierophant [Extended Playout Version]
Код: Выделить всё
Exact Audio Copy V1.0 beta 6 from 9. April 2015
EAC extraction logfile from 3. July 2015, 12:01
Steve Hackett / Voyage Of The Acolyte [2005 UK Remaster]
Used drive  : PLEXTOR DVDR   PX-891SA   Adapter: 0  ID: 2
Read mode               : Secure
Utilize accurate stream : Yes
Defeat audio cache      : Yes
Make use of C2 pointers : No
Read offset correction                      : 6
Overread into Lead-In and Lead-Out          : No
Fill up missing offset samples with silence : Yes
Delete leading and trailing silent blocks   : No
Null samples used in CRC calculations       : Yes
Used interface                              : Installed external ASPI interface
Used output format              : User Defined Encoder
Selected bitrate                : 320 kBit/s
Quality                         : High
Add ID3 tag                     : No
Command line compressor         : C:\Program Files\Exact Audio Copy 1.0 b6\Exact Audio Copy\Flac\flac.exe
Additional command line options : -V -8 -T "Date=%year%" -T "Genre=%genre%" %source%
TOC of the extracted CD
     Track |   Start  |  Length  | Start sector | End sector
    ---------------------------------------------------------
        1  |  0:00.00 |  5:23.03 |         0    |    24227
        2  |  5:23.03 |  3:28.14 |     24228    |    39841
        3  |  8:51.17 |  4:50.20 |     39842    |    61611
        4  | 13:41.37 |  1:33.48 |     61612    |    68634
        5  | 15:15.10 |  4:53.46 |     68635    |    90655
        6  | 20:08.56 |  7:07.45 |     90656    |   122725
        7  | 27:16.26 |  1:50.07 |    122726    |   130982
        8  | 29:06.33 | 11:43.35 |    130983    |   183742
        9  | 40:49.68 |  6:31.69 |    183743    |   213136
       10  | 47:21.62 | 17:01.11 |    213137    |   289722
Range status and errors
Selected range
     Filename L:\Lossless Temp\Steve Hackett\1975. Steve Hackett - Voyage Of The Acolyte (2005 EMI Records, 00946 337242 2 8, E.U.)\Steve Hackett - Voyage Of The Acolyte [2005 UK Remaster].wav
     Peak level 95.5 %
     Extraction speed 8.7 X
     Range quality 100.0 %
     Test CRC 6B5098F4
     Copy CRC 6B5098F4
     Copy OK
No errors occurred
AccurateRip summary
Track  1  accurately ripped (confidence 23)  [CFD25F3F]  (AR v2)
Track  2  accurately ripped (confidence 23)  [F18992F3]  (AR v2)
Track  3  accurately ripped (confidence 23)  [E03C7BC0]  (AR v2)
Track  4  accurately ripped (confidence 23)  [6A24CA34]  (AR v2)
Track  5  accurately ripped (confidence 23)  [EAC8F49A]  (AR v2)
Track  6  accurately ripped (confidence 23)  [943EACAA]  (AR v2)
Track  7  accurately ripped (confidence 23)  [BA2DB53D]  (AR v2)
Track  8  accurately ripped (confidence 23)  [3F41E96B]  (AR v2)
Track  9  accurately ripped (confidence 24)  [4F87EB81]  (AR v2)
Track 10  accurately ripped (confidence 23)  [27E1DBA2]  (AR v2)
All tracks accurately ripped
End of status report
==== Log checksum 6EA8E39E734EE024D3C86CFE0D362D010189489388F8D8785FB3671783365D49 ====

Год выпуска диска: 1988
Производитель диска: UK
Лейбл: Virgin/Charisma
Номер по каталогу: CDSCD 4012
Продолжительность: 38:32
1 Narnia 3:55
2 Carry On Up The Vicarage (A Musical Tribute To Agatha Christie) 3:03
3 Racing In A 4:53
4 Kim 2:06
5 How Can I? 4:28
6 Hoping Love Will Last 4:04
7 Land Of A Thousand Autumns 1:40
8 Please Don't Touch 3:32
9 The Voice Of Necam 3:04
10 Icarus Ascending 6:06
Код: Выделить всё
Exact Audio Copy V1.0 beta 1 from 15. November 2010
EAC extraction logfile from 19. January 2011, 22:38
Steve Hackett / Please Don't Touch (CDSCD 4012)
Used drive  : TEAC    DV-W516GDM   Adapter: 0  ID: 1
Read mode               : Secure
Utilize accurate stream : Yes
Defeat audio cache      : Yes
Make use of C2 pointers : No
Read offset correction                      : 6
Overread into Lead-In and Lead-Out          : No
Fill up missing offset samples with silence : Yes
Delete leading and trailing silent blocks   : No
Null samples used in CRC calculations       : Yes
Used interface                              : Native Win32 interface for Win NT & 2000
Used output format              : User Defined Encoder
Selected bitrate                : 896 kBit/s
Quality                         : High
Add ID3 tag                     : No
Command line compressor         : C:\Program Files\Exact Audio Copy 1.0\Flac\flac.exe
Additional command line options : -8 -V %s
TOC of the extracted CD
     Track |   Start  |  Length  | Start sector | End sector
    ---------------------------------------------------------
        1  |  0:00.33 |  4:06.52 |        33    |    18534
        2  |  4:07.10 |  3:10.73 |     18535    |    32857
        3  |  7:18.08 |  5:07.20 |     32858    |    55902
        4  | 12:25.28 |  2:13.10 |     55903    |    65887
        5  | 14:38.38 |  4:41.00 |     65888    |    86962
        6  | 19:19.38 |  4:24.42 |     86963    |   106804
        7  | 23:44.05 |  1:40.58 |    106805    |   114362
        8  | 25:24.63 |  3:39.05 |    114363    |   130792
        9  | 29:03.68 |  3:10.67 |    130793    |   145109
       10  | 32:14.60 |  6:22.48 |    145110    |   173807
Range status and errors
Selected range
     Filename C:\Olaf der Weisse\Steve Hackett . 1978 . Please Don't Touch (CDSCD 4012)\Steve Hackett - Please Don't Touch (CDSCD 4012).wav
     Peak level 76.5 %
     Extraction speed 0.2 X
     Range quality 100.0 %
     Test CRC 1702A853
     Copy CRC 1702A853
     Copy OK
No errors occurred
AccurateRip summary
Track  1  not present in database
Track  2  not present in database
Track  3  not present in database
Track  4  not present in database
Track  5  not present in database
Track  6  not present in database
Track  7  not present in database
Track  8  not present in database
Track  9  not present in database
Track 10  not present in database
None of the tracks are present in the AccurateRip database
End of status report
==== Log checksum 1D24F3B4C9F56E1BB9247DA5A4A79690F934AD05FA6EB8A0981637C787B8A6CD ====
Год выпуска диска: 2005
Производитель диска: EU
Лейбл: EMI/Virgin Records
Номер по каталогу: 00946 337222 2 4
Продолжительность: 54 min
01. Steve Hackett - Narnia
02. Steve Hackett - Carry On Up The Vicarage
03. Steve Hackett - Racing In A
04. Steve Hackett - Kim
05. Steve Hackett - How Can I?
06. Steve Hackett - Hoping Love Will Last
07. Steve Hackett - Land Of A Thousand Autumns
08. Steve Hackett - Please Don't Touch
09. Steve Hackett - The Voice Of Necam
10. Steve Hackett - Icarus Ascending
Bonus Tracks:
11. Steve Hackett - Narnia (John Perry Vocal Version) (2005 Digital Remaster)
12. Steve Hackett - Land Of A Thousand Autumns / Please Don't Touch [Live]
13. Steve Hackett - Narnia (Alternate version)
Код: Выделить всё
Exact Audio Copy V1.0 beta 6 from 9. April 2015
EAC extraction logfile from 3. July 2015, 12:32
Steve Hackett / Please Don't Touch! [2005 Remaster]
Used drive  : PLEXTOR DVDR   PX-891SA   Adapter: 0  ID: 2
Read mode               : Secure
Utilize accurate stream : Yes
Defeat audio cache      : Yes
Make use of C2 pointers : No
Read offset correction                      : 6
Overread into Lead-In and Lead-Out          : No
Fill up missing offset samples with silence : Yes
Delete leading and trailing silent blocks   : No
Null samples used in CRC calculations       : Yes
Used interface                              : Installed external ASPI interface
Used output format              : User Defined Encoder
Selected bitrate                : 320 kBit/s
Quality                         : High
Add ID3 tag                     : No
Command line compressor         : C:\Program Files\Exact Audio Copy 1.0 b6\Exact Audio Copy\Flac\flac.exe
Additional command line options : -V -8 -T "Date=%year%" -T "Genre=%genre%" %source%
TOC of the extracted CD
     Track |   Start  |  Length  | Start sector | End sector
    ---------------------------------------------------------
        1  |  0:00.00 |  4:05.17 |         0    |    18391
        2  |  4:05.17 |  3:10.50 |     18392    |    32691
        3  |  7:15.67 |  5:06.36 |     32692    |    55677
        4  | 12:22.28 |  2:12.68 |     55678    |    65645
        5  | 14:35.21 |  4:38.06 |     65646    |    86501
        6  | 19:13.27 |  4:22.52 |     86502    |   106203
        7  | 23:36.04 |  1:37.38 |    106204    |   113516
        8  | 25:13.42 |  3:38.47 |    113517    |   129913
        9  | 28:52.14 |  3:10.39 |    129914    |   144202
       10  | 32:02.53 |  6:26.68 |    144203    |   173220
       11  | 38:29.46 |  3:36.07 |    173221    |   189427
       12  | 42:05.53 |  7:52.54 |    189428    |   224881
       13  | 49:58.32 |  4:30.27 |    224882    |   245158
Range status and errors
Selected range
     Filename L:\Lossless Temp\Steve Hackett\1978. Steve Hackett - Please Don't Touch (2005 EMI Records, 00946 337222 2 4, E.U.)\Steve Hackett - Please Don't Touch! [2005 Remaster].wav
     Peak level 94.4 %
     Extraction speed 8.3 X
     Range quality 100.0 %
     Test CRC CBBBE0D2
     Copy CRC CBBBE0D2
     Copy OK
No errors occurred
AccurateRip summary
Track  1  accurately ripped (confidence 12)  [218C5B29]  (AR v2)
Track  2  accurately ripped (confidence 12)  [CF672273]  (AR v2)
Track  3  accurately ripped (confidence 12)  [ABFE0552]  (AR v2)
Track  4  accurately ripped (confidence 12)  [A9C23F29]  (AR v2)
Track  5  accurately ripped (confidence 12)  [013B8E4E]  (AR v2)
Track  6  accurately ripped (confidence 12)  [74E25F33]  (AR v2)
Track  7  accurately ripped (confidence 12)  [A16141BF]  (AR v2)
Track  8  accurately ripped (confidence 12)  [4C934DED]  (AR v2)
Track  9  accurately ripped (confidence 12)  [1C615839]  (AR v2)
Track 10  accurately ripped (confidence 12)  [A74D80C7]  (AR v2)
Track 11  accurately ripped (confidence 12)  [91056EBF]  (AR v2)
Track 12  accurately ripped (confidence 12)  [617E4880]  (AR v2)
Track 13  accurately ripped (confidence 12)  [2DE6053C]  (AR v2)
All tracks accurately ripped
End of status report
==== Log checksum 5A21D79EC56CEB98309E46E313FB5B60ADD734525DA36633F628773CBC0C642E ====

Год выпуска диска: 1989
Производитель диска: UK
Лейбл: Virgin/Charisma
Номер по каталогу: CDSCD 4017
Продолжительность: 39:01
1. Every Day
2. The Virgin And The Gypsy
3. The Red Flowers Of Tachai Blooms Everywhere
4. Clocks - The Angel Of Mons
5. The Ballad Of The Decomposing Man (Featuring "The Office Party")
6. Lost Time In Córdoba
7. Tigermoth
8. Spectral Mornings
Код: Выделить всё
Exact Audio Copy V1.0 beta 1 from 15. November 2010
EAC extraction logfile from 20. January 2011, 0:05
Steve Hackett / Spectral Mornings (CDSCD 4017)
Used drive  : TEAC    DV-W516GDM   Adapter: 0  ID: 1
Read mode               : Secure
Utilize accurate stream : Yes
Defeat audio cache      : Yes
Make use of C2 pointers : No
Read offset correction                      : 6
Overread into Lead-In and Lead-Out          : No
Fill up missing offset samples with silence : Yes
Delete leading and trailing silent blocks   : No
Null samples used in CRC calculations       : Yes
Used interface                              : Native Win32 interface for Win NT & 2000
Used output format              : User Defined Encoder
Selected bitrate                : 896 kBit/s
Quality                         : High
Add ID3 tag                     : No
Command line compressor         : C:\Program Files\Exact Audio Copy 1.0\Flac\flac.exe
Additional command line options : -8 -V %s
TOC of the extracted CD
     Track |   Start  |  Length  | Start sector | End sector
    ---------------------------------------------------------
        1  |  0:00.00 |  6:14.57 |         0    |    28106
        2  |  6:14.57 |  4:28.35 |     28107    |    48241
        3  | 10:43.17 |  2:05.48 |     48242    |    57664
        4  | 12:48.65 |  4:16.62 |     57665    |    76926
        5  | 17:05.52 |  3:48.23 |     76927    |    94049
        6  | 20:54.00 |  4:03.32 |     94050    |   112306
        7  | 24:57.32 |  7:35.18 |    112307    |   146449
        8  | 32:32.50 |  6:32.67 |    146450    |   175916
Range status and errors
Selected range
     Filename C:\Olaf der Weisse\Steve Hackett . 1979 . Spectral Mornings (CDSCD 4017)\Steve Hackett - Spectral Mornings (CDSCD 4017).wav
     Peak level 100.0 %
     Extraction speed 0.2 X
     Range quality 100.0 %
     Test CRC BA8F6D73
     Copy CRC BA8F6D73
     Copy OK
No errors occurred
AccurateRip summary
Track  1  accurately ripped (confidence 11)  [954EC3AB]
Track  2  accurately ripped (confidence 9)  [001A5A55]
Track  3  accurately ripped (confidence 10)  [CBFCE7D6]
Track  4  accurately ripped (confidence 10)  [2C520C90]
Track  5  accurately ripped (confidence 10)  [FF01E8FC]
Track  6  accurately ripped (confidence 10)  [25987336]
Track  7  accurately ripped (confidence 10)  [FC25EF5C]
Track  8  accurately ripped (confidence 10)  [0D892716]
All tracks accurately ripped
End of status report
==== Log checksum EBD2F61CEDF0ACFC11EBB778D1A6969EFC281290D9502C51EA84E50EA25370FE ====
Год выпуска диска: 2005
Производитель диска: EU
Лейбл: EMI/Virgin Records
Номер по каталогу: 00946 352313 2 8
Продолжительность: 73min
01. Steve Hackett - Every Day
02. Steve Hackett - The Virgin And The Gypsy
03. Steve Hackett - The Red Flower Of Tachai Blooms Everywhere
04. Steve Hackett - Clocks - The Angel Of Mons
05. Steve Hackett - The Ballad Of The Decomposing Man
06. Steve Hackett - Lost Time In Cordoba
07. Steve Hackett - Tigermoth
08. Steve Hackett - Spectral Mornings
Bonus Tracks:
09. Steve Hackett - Every Day (Alternate Mix)
10. Steve Hackett - The Virgin And The Gypsy (Alternate Mix)
11. Steve Hackett - Tigermoth (Alternate Mix)
12. Steve Hackett - The Ballad Of The Decomposing Man (Alternate Mix)
13. Steve Hackett - Clocks - The Angel Of Mons (Single Version)
14. Steve Hackett - Medley -- Etude In A Minor-Blood On The rooftops-Horizons-Kim (Live Acoustic Set)
15. Steve Hackett - Tigermoth (Live)
16. Steve Hackett - Extra track (No Music)
Код: Выделить всё
Exact Audio Copy V1.0 beta 6 from 9. April 2015
EAC extraction logfile from 3. July 2015, 13:19
Steve Hackett / Spectral Mornings
Used drive  : PLEXTOR DVDR   PX-891SA   Adapter: 0  ID: 2
Read mode               : Secure
Utilize accurate stream : Yes
Defeat audio cache      : Yes
Make use of C2 pointers : No
Read offset correction                      : 6
Overread into Lead-In and Lead-Out          : No
Fill up missing offset samples with silence : Yes
Delete leading and trailing silent blocks   : No
Null samples used in CRC calculations       : Yes
Used interface                              : Installed external ASPI interface
Used output format              : User Defined Encoder
Selected bitrate                : 320 kBit/s
Quality                         : High
Add ID3 tag                     : No
Command line compressor         : C:\Program Files\Exact Audio Copy 1.0 b6\Exact Audio Copy\Flac\flac.exe
Additional command line options : -V -8 -T "Date=%year%" -T "Genre=%genre%" %source%
TOC of the extracted CD
     Track |   Start  |  Length  | Start sector | End sector
    ---------------------------------------------------------
        1  |  0:00.00 |  6:14.17 |         0    |    28066
        2  |  6:14.17 |  4:28.54 |     28067    |    48220
        3  | 10:42.71 |  2:06.66 |     48221    |    57736
        4  | 12:49.62 |  4:15.17 |     57737    |    76878
        5  | 17:05.04 |  3:49.56 |     76879    |    94109
        6  | 20:54.60 |  4:05.74 |     94110    |   112558
        7  | 25:00.59 |  7:34.58 |    112559    |   146666
        8  | 32:35.42 |  6:37.09 |    146667    |   176450
        9  | 39:12.51 |  7:08.74 |    176451    |   208624
       10  | 46:21.50 |  4:26.41 |    208625    |   228615
       11  | 50:48.16 |  3:19.56 |    228616    |   243596
       12  | 54:07.72 |  4:23.45 |    243597    |   263366
       13  | 58:31.42 |  3:37.67 |    263367    |   279708
       14  | 62:09.34 |  5:39.69 |    279709    |   305202
       15  | 67:49.28 |  3:58.46 |    305203    |   323098
       16  | 71:47.74 |  1:41.01 |    323099    |   330674
Range status and errors
Selected range
     Filename L:\Lossless Temp\Steve Hackett\1979. Steve Hackett - Spectral Mornings (2005 EMI Records, 00946 352313 2 8, E.U.)\Steve Hackett - Spectral Mornings.wav
     Peak level 95.5 %
     Extraction speed 9.3 X
     Range quality 100.0 %
     Test CRC FF75CB0F
     Copy CRC FF75CB0F
     Copy OK
No errors occurred
AccurateRip summary
Track  1  accurately ripped (confidence 7)  [06796B7F]  (AR v2)
Track  2  accurately ripped (confidence 7)  [B0B2CC3F]  (AR v2)
Track  3  accurately ripped (confidence 7)  [AE19EE05]  (AR v2)
Track  4  accurately ripped (confidence 7)  [89F0B2C0]  (AR v2)
Track  5  accurately ripped (confidence 7)  [FDCE35DC]  (AR v2)
Track  6  accurately ripped (confidence 7)  [F4626CCF]  (AR v2)
Track  7  accurately ripped (confidence 7)  [E4BE10CF]  (AR v2)
Track  8  accurately ripped (confidence 7)  [53A3BA5C]  (AR v2)
Track  9  accurately ripped (confidence 7)  [F1F8A998]  (AR v2)
Track 10  accurately ripped (confidence 7)  [1BA3B814]  (AR v2)
Track 11  accurately ripped (confidence 7)  [B4C7E765]  (AR v2)
Track 12  accurately ripped (confidence 7)  [A9E1E250]  (AR v2)
Track 13  accurately ripped (confidence 7)  [2FB57E8C]  (AR v2)
Track 14  accurately ripped (confidence 7)  [F923051F]  (AR v2)
Track 15  accurately ripped (confidence 7)  [07C202E0]  (AR v2)
Track 16  accurately ripped (confidence 7)  [3B6F1BA9]  (AR v2)
All tracks accurately ripped
End of status report
==== Log checksum 246E8780C3A36240655158B1D0094E2EA3C3787623BCC02A08945F18430F1466 ====

Год выпуска диска: 1989
Производитель диска: UK
Лейбл: Virgin/Charisma
Номер по каталогу: CDSCD 4018
Продолжительность: 36:52
1. The Steps 6:06
2. Time To Get Out 4:12
3. Slogans 3:57
4. Leaving 3:04
5. Two Vamps As Guests 1:53
6. Jacuzzi 4:36
7. Hammer In The Sand 3:11
8. The Toast 3:42
9. The Show 3:41
10. Sentimental Institution 2:33
Код: Выделить всё
Exact Audio Copy V1.0 beta 1 from 15. November 2010
EAC extraction logfile from 20. January 2011, 2:22
Steve Hackett / Defector (CDSCD 4018)
Used drive  : TEAC    DV-W516GDM   Adapter: 0  ID: 1
Read mode               : Secure
Utilize accurate stream : Yes
Defeat audio cache      : Yes
Make use of C2 pointers : No
Read offset correction                      : 6
Overread into Lead-In and Lead-Out          : No
Fill up missing offset samples with silence : Yes
Delete leading and trailing silent blocks   : No
Null samples used in CRC calculations       : Yes
Used interface                              : Native Win32 interface for Win NT & 2000
Used output format              : User Defined Encoder
Selected bitrate                : 896 kBit/s
Quality                         : High
Add ID3 tag                     : No
Command line compressor         : C:\Program Files\Exact Audio Copy 1.0\Flac\flac.exe
Additional command line options : -8 -V %s
TOC of the extracted CD
     Track |   Start  |  Length  | Start sector | End sector
    ---------------------------------------------------------
        1  |  0:00.33 |  6:05.42 |        33    |    27449
        2  |  6:06.00 |  4:12.08 |     27450    |    46357
        3  | 10:18.08 |  3:57.30 |     46358    |    64162
        4  | 14:15.38 |  3:04.30 |     64163    |    77992
        5  | 17:19.68 |  1:53.30 |     77993    |    86497
        6  | 19:13.23 |  4:36.12 |     86498    |   107209
        7  | 23:49.35 |  3:10.50 |    107210    |   121509
        8  | 27:00.10 |  3:42.45 |    121510    |   138204
        9  | 30:42.55 |  3:40.58 |    138205    |   154762
       10  | 34:23.38 |  2:33.30 |    154763    |   166267
Range status and errors
Selected range
     Filename C:\Olaf der Weisse\Steve Hackett . 1980 . Defector (CDSCD 4018)\Steve Hackett - Defector (CDSCD 4018).wav
     Peak level 89.2 %
     Extraction speed 0.0 X
     Range quality 99.9 %
     Test CRC 813B9944
     Copy CRC 813B9944
     Copy OK
No errors occurred
AccurateRip summary
Track  1  accurately ripped (confidence 7)  [98C70591]
Track  2  accurately ripped (confidence 7)  [D132E77A]
Track  3  accurately ripped (confidence 7)  [29B1F987]
Track  4  accurately ripped (confidence 7)  [19939FE3]
Track  5  accurately ripped (confidence 7)  [116B3067]
Track  6  accurately ripped (confidence 7)  [8905EE29]
Track  7  accurately ripped (confidence 7)  [AFEAE9BD]
Track  8  accurately ripped (confidence 7)  [140789C5]
Track  9  accurately ripped (confidence 7)  [29F20FC8]
Track 10  accurately ripped (confidence 7)  [23D87661]
All tracks accurately ripped
End of status report
==== Log checksum 0B206329D13920F6F08DCB44C3D34718F7774DEC692EDB18FBEE19E8F47DAE2F ====
Год выпуска диска: 2005
Производитель диска: EU
Лейбл: EMI/Virgin Records
Номер по каталогу: 00946 337209 2 3
Продолжительность: 60min
01. Steve Hackett - The Steppes
02. Steve Hackett - Time To Get Out
03. Steve Hackett - Slogans
04. Steve Hackett - Leaving
05. Steve Hackett - Two Vamps As Guests
06. Steve Hackett - Jacuzzi
07. Steve Hackett - Hammer In The Sand
08. Steve Hackett - The Toast
09. Steve Hackett - The Show
10. Steve Hackett - Sentimental Institution
Bonus Tracks:
11. Steve Hackett - Hercules Unchained
12. Steve Hackett - Sentimental Institution (Live at The Theatre Royal, Drury Lane)
13. Steve Hackett - The Steppes (Live at the Reading Festival)
14. Steve Hackett - Slogans (Live at the Reading Festival)
15. Steve Hackett - Clocks - The Angel of Mons (Live at the Reading Festival)
Код: Выделить всё
Exact Audio Copy V1.0 beta 6 from 9. April 2015
EAC extraction logfile from 7. July 2015, 11:16
Steve Hackett / Defector [2005 Remaster]
Used drive  : PLEXTOR DVDR   PX-891SA   Adapter: 0  ID: 2
Read mode               : Secure
Utilize accurate stream : Yes
Defeat audio cache      : Yes
Make use of C2 pointers : No
Read offset correction                      : 6
Overread into Lead-In and Lead-Out          : No
Fill up missing offset samples with silence : Yes
Delete leading and trailing silent blocks   : No
Null samples used in CRC calculations       : Yes
Used interface                              : Installed external ASPI interface
Used output format              : User Defined Encoder
Selected bitrate                : 320 kBit/s
Quality                         : High
Add ID3 tag                     : No
Command line compressor         : C:\Program Files\Exact Audio Copy 1.0 b6\Exact Audio Copy\Flac\flac.exe
Additional command line options : -V -8 -T "Date=%year%" -T "Genre=%genre%" %source%
TOC of the extracted CD
     Track |   Start  |  Length  | Start sector | End sector
    ---------------------------------------------------------
        1  |  0:00.00 |  6:05.00 |         0    |    27374
        2  |  6:05.00 |  4:12.69 |     27375    |    46343
        3  | 10:17.69 |  3:57.45 |     46344    |    64163
        4  | 14:15.39 |  3:04.69 |     64164    |    78032
        5  | 17:20.33 |  1:55.24 |     78033    |    86681
        6  | 19:15.57 |  4:36.48 |     86682    |   107429
        7  | 23:52.30 |  3:10.70 |    107430    |   121749
        8  | 27:03.25 |  3:42.74 |    121750    |   138473
        9  | 30:46.24 |  3:40.71 |    138474    |   155044
       10  | 34:27.20 |  2:44.33 |    155045    |   167377
       11  | 37:11.53 |  2:44.33 |    167378    |   179710
       12  | 39:56.11 |  3:02.71 |    179711    |   193431
       13  | 42:59.07 |  6:33.13 |    193432    |   222919
       14  | 49:32.20 |  4:19.18 |    222920    |   242362
       15  | 53:51.38 |  5:54.44 |    242363    |   268956
Range status and errors
Selected range
     Filename L:\Lossless Temp\Steve Hackett\1980. Steve Hackett - Defector (2005 EMI Records, 00946 337209 2 3, E.U.)\Steve Hackett - Defector [2005 Remaster].wav
     Peak level 94.4 %
     Extraction speed 8.4 X
     Range quality 100.0 %
     Test CRC 63C8588E
     Copy CRC 63C8588E
     Copy OK
No errors occurred
AccurateRip summary
Track  1  accurately ripped (confidence 30)  [1EF232E0]  (AR v2)
Track  2  accurately ripped (confidence 30)  [18F2DEB4]  (AR v2)
Track  3  accurately ripped (confidence 30)  [926AA298]  (AR v2)
Track  4  accurately ripped (confidence 30)  [5825851A]  (AR v2)
Track  5  accurately ripped (confidence 30)  [9C51AF6C]  (AR v2)
Track  6  accurately ripped (confidence 30)  [54985096]  (AR v2)
Track  7  accurately ripped (confidence 30)  [A5508B72]  (AR v2)
Track  8  accurately ripped (confidence 30)  [3F39ED18]  (AR v2)
Track  9  accurately ripped (confidence 30)  [367699D0]  (AR v2)
Track 10  accurately ripped (confidence 30)  [D0182607]  (AR v2)
Track 11  accurately ripped (confidence 27)  [F7DDDBC7]  (AR v2)
Track 12  accurately ripped (confidence 27)  [F9F64A4F]  (AR v2)
Track 13  accurately ripped (confidence 27)  [D9261745]  (AR v2)
Track 14  accurately ripped (confidence 27)  [CF57E131]  (AR v2)
Track 15  accurately ripped (confidence 27)  [22907358]  (AR v2)
All tracks accurately ripped
End of status report
==== Log checksum 603167E2573CC56B0515DF0BDEE9E98FE04F29D5F88F46989DF974BD55E2CC6C ====

Год выпуска диска: 2007
Производитель диска: EU
Лейбл: EMI/Virgin Records
Номер по каталогу: 00946 384415 2 6
Продолжительность: 42min
01. Steve Hackett - Hope I Don`t Wake
02. Steve Hackett - Picture Postcard
03. Steve Hackett - Can`t Let Go
04. Steve Hackett - The Air Conditioned Nightmare
05. Steve Hackett - Funny Feeling
06. Steve Hackett - A Cradle Of Swans
07. Steve Hackett - Overnight Sleeper
08. Steve Hackett - Turn Back Time
Bonus Tracks:
09. Steve Hackett - Tales of The Riverbank
10. Steve Hackett - Second Chance
11. Steve Hackett - The Air-Conditioned Nightmare
Код: Выделить всё
Exact Audio Copy V1.0 beta 6 from 9. April 2015
EAC extraction logfile from 3. July 2015, 14:12
Steve Hackett / Cured [2007 Remaster]
Used drive  : PLEXTOR DVDR   PX-891SA   Adapter: 0  ID: 2
Read mode               : Secure
Utilize accurate stream : Yes
Defeat audio cache      : Yes
Make use of C2 pointers : No
Read offset correction                      : 6
Overread into Lead-In and Lead-Out          : No
Fill up missing offset samples with silence : Yes
Delete leading and trailing silent blocks   : No
Null samples used in CRC calculations       : Yes
Used interface                              : Installed external ASPI interface
Used output format              : User Defined Encoder
Selected bitrate                : 320 kBit/s
Quality                         : High
Add ID3 tag                     : No
Command line compressor         : C:\Program Files\Exact Audio Copy 1.0 b6\Exact Audio Copy\Flac\flac.exe
Additional command line options : -V -8 -T "Date=%year%" -T "Genre=%genre%" %source%
TOC of the extracted CD
     Track |   Start  |  Length  | Start sector | End sector
    ---------------------------------------------------------
        1  |  0:00.00 |  3:47.39 |         0    |    17063
        2  |  3:47.39 |  3:54.36 |     17064    |    34649
        3  |  7:42.00 |  5:42.47 |     34650    |    60346
        4  | 13:24.47 |  4:42.08 |     60347    |    81504
        5  | 18:06.55 |  4:06.43 |     81505    |    99997
        6  | 22:13.23 |  2:49.04 |     99998    |   112676
        7  | 25:02.27 |  4:37.00 |    112677    |   133451
        8  | 29:39.27 |  4:23.05 |    133452    |   153181
        9  | 34:02.32 |  2:00.06 |    153182    |   162187
       10  | 36:02.38 |  2:00.35 |    162188    |   171222
       11  | 38:02.73 |  4:08.34 |    171223    |   189856
Range status and errors
Selected range
     Filename L:\Lossless Temp\Steve Hackett\1981. Steve Hackett - Cured (2007 EMI Records, 00946 384415 2 6, E.U.)\Steve Hackett - Cured [2007 Remaster].wav
     Peak level 94.4 %
     Extraction speed 7.7 X
     Range quality 100.0 %
     Test CRC 1C4D5D32
     Copy CRC 1C4D5D32
     Copy OK
No errors occurred
AccurateRip summary
Track  1  accurately ripped (confidence 4)  [44BBAA74]  (AR v2)
Track  2  accurately ripped (confidence 4)  [ECA2118A]  (AR v2)
Track  3  accurately ripped (confidence 4)  [4D8D186F]  (AR v2)
Track  4  accurately ripped (confidence 4)  [E8DB5430]  (AR v2)
Track  5  accurately ripped (confidence 4)  [FC567409]  (AR v2)
Track  6  accurately ripped (confidence 4)  [85EFB290]  (AR v2)
Track  7  accurately ripped (confidence 4)  [329495EE]  (AR v2)
Track  8  accurately ripped (confidence 4)  [43BD4774]  (AR v2)
Track  9  accurately ripped (confidence 4)  [993A77FA]  (AR v2)
Track 10  accurately ripped (confidence 4)  [3CB58B3A]  (AR v2)
Track 11  accurately ripped (confidence 4)  [EA3B0853]  (AR v2)
All tracks accurately ripped
End of status report
==== Log checksum B315ED6566B514CA7D1ED7B018880D407EF606AEF3FBBAE16ED72DF582029881 ====

Год выпуска диска: 1989
Производитель диска: UK
Лейбл: Virgin/Charisma Records
Номер по каталогу: HACKCD1
Продолжительность: 38min
01 - Camino Royale
02 - Cell 151
03 - Always Somewhere Else
04 - Walking Through Walls
05 - Give It Away
06 - Weightless
07 - Group Therapy
08 - India Rubber Man
09 - Hackett To Pieces
Код: Выделить всё
Exact Audio Copy V0.99 prebeta 5 from 4. May 2009
Отчёт EAC об извлечении, выполненном 17. января 2011, 14:28
Steve Hackett / Highly Strung
Дисковод: PIONEER DVD-RW  DVR-115D   Adapter: 1  ID: 0
Режим чтения                 : Достоверность
Использование точного потока : Да
Отключение кэша аудио        : Да
Использование указателей C2  : Нет
Коррекция смещения при чтении                     : 48
Способность читать области Lead-in и Lead-out     : Нет
Заполнение пропущенных сэмплов тишиной            : Да
Удаление блоков с тишиной в начале и конце        : Нет
При вычислениях CRC использовались нулевые сэмплы : Да
Интерфейс                                         : Установленный внешний ASPI-интерфейс
Выходной формат : Внутренние WAV-операции
Формат сэмплов  : 44.100 Гц; 16 бит; стерео
TOC извлечённого CD
     Трек |   Старт  | Длительность | Начальный сектор | Конечный сектор
    ---------------------------------------------------------------------
       1  |  0:00.02 |    5:25.65   |           2      |      24441
       2  |  5:25.67 |    6:25.53   |       24442      |      53369
       3  | 11:51.45 |    3:58.27   |       53370      |      71246
       4  | 15:49.72 |    3:45.40   |       71247      |      88161
       5  | 19:35.37 |    4:05.65   |       88162      |     106601
       6  | 23:41.27 |    3:29.73   |      106602      |     122349
       7  | 27:11.25 |    5:44.65   |      122350      |     148214
       8  | 32:56.15 |    2:29.42   |      148215      |     159431
       9  | 35:25.57 |    2:38.10   |      159432      |     171291
Характеристики диапазона извлечения и сообщения об ошибках
Выбранный диапазон
     Имя файла K:\Lossless MUSIC Archive\Art Rock\England\Steve Hackett\Steve Hackett - Highly Strung - 1983 (Virgin Records 1989, HACKCD1)\Steve Hackett - Highly Strung.wav
     Пиковый уровень 100.0 %
     Качество диапазона 100.0 %
     CRC теста D00BDCD2
     CRC копии D00BDCD2
     Копирование... OK
Ошибок не произошло
AccurateRip: сводка
Трек  1  точное извлечение (доверие 12)  [06A8106A]
Трек  2  точное извлечение (доверие 12)  [056D522B]
Трек  3  точное извлечение (доверие 12)  [AF189674]
Трек  4  точное извлечение (доверие 12)  [0F657D90]
Трек  5  точное извлечение (доверие 12)  [6D687764]
Трек  6  точное извлечение (доверие 12)  [5F4D38C6]
Трек  7  точное извлечение (доверие 12)  [BCA4314C]
Трек  8  точное извлечение (доверие 12)  [9C6BB22A]
Трек  9  точное извлечение (доверие 12)  [4A48FC7F]
Все треки извлечены точно
Конец отчёта

Год выпуска диска: 1994
Производитель диска: Japan
Лейбл: WHD Entertainment Inc.
Номер по каталогу: IECP - 10101
Продолжительность: 44min
01 - Bay Of Kings
02 - The Journey
03 - Kim
04 - Marigold
05 - St Elmo's Fire
06 - Petropolis
07 - Second Chance
08 - Cast Adrift
09 - Horizons
10 - Black Light
11 - The Barren Land
12 - Calmaria
13 - Time Lapse At Milton Keynes
14 - Tales Of The Riverbank
15 - Skye Boat Song
Код: Выделить всё
Exact Audio Copy V0.99 prebeta 5 from 4. May 2009
Отчёт EAC об извлечении, выполненном 17. января 2011, 14:51
Steve Hackett / Bay Of Kings
Дисковод: PIONEER DVD-RW  DVR-115D   Adapter: 1  ID: 0
Режим чтения                 : Достоверность
Использование точного потока : Да
Отключение кэша аудио        : Да
Использование указателей C2  : Нет
Коррекция смещения при чтении                     : 48
Способность читать области Lead-in и Lead-out     : Нет
Заполнение пропущенных сэмплов тишиной            : Да
Удаление блоков с тишиной в начале и конце        : Нет
При вычислениях CRC использовались нулевые сэмплы : Да
Интерфейс                                         : Установленный внешний ASPI-интерфейс
Выходной формат : Внутренние WAV-операции
Формат сэмплов  : 44.100 Гц; 16 бит; стерео
TOC извлечённого CD
     Трек |   Старт  | Длительность | Начальный сектор | Конечный сектор
    ---------------------------------------------------------------------
       1  |  0:00.00 |    4:56.66   |           0      |      22265
       2  |  4:56.66 |    4:14.56   |       22266      |      41371
       3  |  9:11.47 |    2:25.14   |       41372      |      52260
       4  | 11:36.61 |    3:36.35   |       52261      |      68495
       5  | 15:13.21 |    3:08.58   |       68496      |      82653
       6  | 18:22.04 |    2:45.56   |       82654      |      95084
       7  | 21:07.60 |    1:58.10   |       95085      |     103944
       8  | 23:05.70 |    2:15.21   |      103945      |     114090
       9  | 25:21.16 |    1:47.60   |      114091      |     122175
      10  | 27:09.01 |    2:31.07   |      122176      |     133507
      11  | 29:40.08 |    3:46.40   |      133508      |     150497
      12  | 33:26.48 |    3:23.08   |      150498      |     165730
      13  | 36:49.56 |    3:56.33   |      165731      |     183463
      14  | 40:46.14 |    2:02.51   |      183464      |     192664
      15  | 42:48.65 |    1:35.68   |      192665      |     199857
Характеристики диапазона извлечения и сообщения об ошибках
Выбранный диапазон
     Имя файла K:\Lossless MUSIC Archive\Art Rock\England\Steve Hackett\Steve Hackett - Bay Of Kings - 1983 (Japan, 1994, IECP - 10101)\Steve Hackett - Bay Of Kings.wav
     Пиковый уровень 100.0 %
     Качество диапазона 100.0 %
     CRC теста 336ECCF1
     CRC копии 336ECCF1
     Копирование... OK
Ошибок не произошло
AccurateRip: сводка
Трек  1  точное извлечение (доверие 1)  [0CDA5D20]
Трек  2  точное извлечение (доверие 1)  [C7606AD4]
Трек  3  точное извлечение (доверие 1)  [E1FC0285]
Трек  4  точное извлечение (доверие 1)  [22CC6258]
Трек  5  точное извлечение (доверие 1)  [E725AB84]
Трек  6  точное извлечение (доверие 1)  [D6570646]
Трек  7  точное извлечение (доверие 1)  [E1E17566]
Трек  8  точное извлечение (доверие 1)  [4FA83123]
Трек  9  точное извлечение (доверие 1)  [86364558]
Трек 10  точное извлечение (доверие 1)  [06B74D75]
Трек 11  точное извлечение (доверие 1)  [6D8AE0C5]
Трек 12  точное извлечение (доверие 1)  [7A35096D]
Трек 13  точное извлечение (доверие 1)  [A854F141]
Трек 14  точное извлечение (доверие 1)  [ADFF17C5]
Трек 15  точное извлечение (доверие 1)  [71A68197]
Все треки извлечены точно
Конец отчёта

Год выпуска диска: 1990
Производитель диска: Germany
Лейбл: Castle
Номер по каталогу: CLC 5004
Продолжительность: 41:00
1 Duel (Based On The Film By Steven Spielberg) 4:50
2 Matilda Smith-Williams Home For The Aged 8:03
3 Let Me Count The Ways 6:05
4 A Doll That's Made In Japan 3:57
5 Myopia 2:56
6 What's My Name 7:05
7 The Rio Connection 3:23
8 Taking The Easy Way Out 3:49
9 When You Wish Upon A Star 0:52
Код: Выделить всё
Exact Audio Copy V1.0 beta 1 from 15. November 2010
EAC extraction logfile from 20. January 2011, 3:46
Steve Hackett / Till We Have Faces (CLC 5004)
Used drive  : TEAC    DV-W516GDM   Adapter: 0  ID: 1
Read mode               : Secure
Utilize accurate stream : Yes
Defeat audio cache      : Yes
Make use of C2 pointers : No
Read offset correction                      : 6
Overread into Lead-In and Lead-Out          : No
Fill up missing offset samples with silence : Yes
Delete leading and trailing silent blocks   : No
Null samples used in CRC calculations       : Yes
Used interface                              : Native Win32 interface for Win NT & 2000
Used output format              : User Defined Encoder
Selected bitrate                : 896 kBit/s
Quality                         : High
Add ID3 tag                     : No
Command line compressor         : C:\Program Files\Exact Audio Copy 1.0\Flac\flac.exe
Additional command line options : -8 -V %s
TOC of the extracted CD
     Track |   Start  |  Length  | Start sector | End sector
    ---------------------------------------------------------
        1  |  0:00.00 |  4:50.30 |         0    |    21779
        2  |  4:50.30 |  8:03.57 |     21780    |    58061
        3  | 12:54.12 |  6:05.63 |     58062    |    85499
        4  | 19:00.00 |  3:57.37 |     85500    |   103311
        5  | 22:57.37 |  2:56.05 |    103312    |   116516
        6  | 25:53.42 |  7:05.20 |    116517    |   148411
        7  | 32:58.62 |  3:23.73 |    148412    |   163709
        8  | 36:22.60 |  3:49.10 |    163710    |   180894
        9  | 40:11.70 |  0:52.05 |    180895    |   184799
Range status and errors
Selected range
     Filename C:\Olaf der Weisse\Steve Hackett . 1984 . Till We Have Faces (CLC 5004)\Steve Hackett - Till We Have Faces (CLC 5004).wav
     Peak level 86.5 %
     Extraction speed 0.0 X
     Range quality 100.0 %
     Test CRC 500458AB
     Copy CRC 500458AB
     Copy OK
No errors occurred
AccurateRip summary
Track  1  accurately ripped (confidence 1)  [EC0A0AB8]
Track  2  accurately ripped (confidence 1)  [DDCE77A9]
Track  3  accurately ripped (confidence 1)  [06D54A25]
Track  4  accurately ripped (confidence 1)  [D3E4BD31]
Track  5  accurately ripped (confidence 1)  [7952EEDD]
Track  6  accurately ripped (confidence 1)  [285024F5]
Track  7  accurately ripped (confidence 1)  [8C5F70BD]
Track  8  accurately ripped (confidence 1)  [0377E193]
Track  9  accurately ripped (confidence 1)  [631BD64E]
All tracks accurately ripped
End of status report
==== Log checksum EA57C6A342ECF7D32FE7982348E6EE30E5BE30DB56750F1331ED08F90687C0CA ====
Год выпуска диска: 1994
Производитель диска: Japan
Лейбл: WHD Entertainment Inc.
Номер по каталогу: IECP - 10102
Продолжительность: 52min
01 - What's My Name
02 - The Rio Connection
03 - Matilda Smith-Williams Home For The Aged
04 - Let Me Count The Ways
05 - A Doll That's Made In Japan
06 - Duel
07 - Myopia
08 - Taking The Easy Way Out
09 - The Gulf
10 - Stadiums Of The Damned
11 - When You Wish Upon A Star
Код: Выделить всё
Exact Audio Copy V0.99 prebeta 5 from 4. May 2009
Отчёт EAC об извлечении, выполненном 17. января 2011, 15:34
Steve Hackett / Till We Have Faces
Дисковод: PIONEER DVD-RW  DVR-115D   Adapter: 1  ID: 0
Режим чтения                 : Достоверность
Использование точного потока : Да
Отключение кэша аудио        : Да
Использование указателей C2  : Нет
Коррекция смещения при чтении                     : 48
Способность читать области Lead-in и Lead-out     : Нет
Заполнение пропущенных сэмплов тишиной            : Да
Удаление блоков с тишиной в начале и конце        : Нет
При вычислениях CRC использовались нулевые сэмплы : Да
Интерфейс                                         : Установленный внешний ASPI-интерфейс
Выходной формат : Внутренние WAV-операции
Формат сэмплов  : 44.100 Гц; 16 бит; стерео
TOC извлечённого CD
     Трек |   Старт  | Длительность | Начальный сектор | Конечный сектор
    ---------------------------------------------------------------------
       1  |  0:00.00 |    7:05.68   |           0      |      31942
       2  |  7:05.68 |    3:20.59   |       31943      |      47001
       3  | 10:26.52 |    8:06.63   |       47002      |      83514
       4  | 18:33.40 |    6:05.69   |       83515      |     110958
       5  | 24:39.34 |    3:56.61   |      110959      |     128719
       6  | 28:36.20 |    4:48.15   |      128720      |     150334
       7  | 33:24.35 |    2:55.43   |      150335      |     163502
       8  | 36:20.03 |    3:49.38   |      163503      |     180715
       9  | 40:09.41 |    6:33.01   |      180716      |     210191
      10  | 46:42.42 |    4:37.30   |      210192      |     230996
      11  | 51:19.72 |    0:48.57   |      230997      |     234653
Характеристики диапазона извлечения и сообщения об ошибках
Выбранный диапазон
     Имя файла K:\Lossless MUSIC Archive\Art Rock\England\Steve Hackett\Steve Hackett - Till We Have Faces - 1984 (Japan, 1994, IECP - 10102)\Steve Hackett - Till We Have Faces.wav
     Пиковый уровень 95.7 %
     Качество диапазона 99.9 %
     CRC теста A8536FF7
     CRC копии A8536FF7
     Копирование... OK
Ошибок не произошло
AccurateRip: сводка
Трек  1  точное извлечение (доверие 1)  [FDDFB238]
Трек  2  точное извлечение (доверие 1)  [C77CD407]
Трек  3  точное извлечение (доверие 1)  [1EC93623]
Трек  4  точное извлечение (доверие 1)  [FEB8E77D]
Трек  5  точное извлечение (доверие 1)  [43EEFE26]
Трек  6  точное извлечение (доверие 1)  [21FF7DCA]
Трек  7  точное извлечение (доверие 1)  [5EB929D0]
Трек  8  точное извлечение (доверие 1)  [0CA38666]
Трек  9  точное извлечение (доверие 1)  [3D74BF68]
Трек 10  точное извлечение (доверие 1)  [34620AA7]
Трек 11  точное извлечение (доверие 1)  [EE411EEF]
Все треки извлечены точно
Конец отчёта

Год выпуска диска: 1997
Производитель диска: UK
Лейбл: Camino Records.
Номер по каталогу: CAMCD 10
Продолжительность: 61min
01 - Cavalcanti
02 - The Sleeping Sea
03 - Portrait Of A Brazilian Lady
04 - When The Bell Breaks
05 - A Bed, A Chair And A Guitar
06 - Concert For Munich
07 - Last Rites Of Innocence
08 - Troubled Spirit
09 - Variation On A Theme By Chopin
10 - Pierrot
11 - Momentum
12 - Bouree
13 - An Open Window
14 - The Vigil
Код: Выделить всё
Exact Audio Copy V0.99 prebeta 5 from 4. May 2009
Отчёт EAC об извлечении, выполненном 17. января 2011, 16:05
Hackett, Steve / Momentum
Дисковод: PIONEER DVD-RW  DVR-115D   Adapter: 1  ID: 0
Режим чтения                 : Достоверность
Использование точного потока : Да
Отключение кэша аудио        : Да
Использование указателей C2  : Нет
Коррекция смещения при чтении                     : 48
Способность читать области Lead-in и Lead-out     : Нет
Заполнение пропущенных сэмплов тишиной            : Да
Удаление блоков с тишиной в начале и конце        : Нет
При вычислениях CRC использовались нулевые сэмплы : Да
Интерфейс                                         : Установленный внешний ASPI-интерфейс
Выходной формат : Внутренние WAV-операции
Формат сэмплов  : 44.100 Гц; 16 бит; стерео
TOC извлечённого CD
     Трек |   Старт  | Длительность | Начальный сектор | Конечный сектор
    ---------------------------------------------------------------------
       1  |  0:00.00 |    6:13.55   |           0      |      28029
       2  |  6:13.55 |    3:27.65   |       28030      |      43619
       3  |  9:41.45 |    5:15.32   |       43620      |      67276
       4  | 14:57.02 |    3:03.15   |       67277      |      81016
       5  | 18:00.17 |    2:44.08   |       81017      |      93324
       6  | 20:44.25 |    4:55.65   |       93325      |     115514
       7  | 25:40.15 |    5:28.15   |      115515      |     140129
       8  | 31:08.30 |    2:30.45   |      140130      |     151424
       9  | 33:39.00 |    4:55.47   |      151425      |     173596
      10  | 38:34.47 |    2:53.45   |      173597      |     186616
      11  | 41:28.17 |    2:38.25   |      186617      |     198491
      12  | 44:06.42 |    1:34.10   |      198492      |     205551
      13  | 45:40.52 |    9:02.48   |      205552      |     246249
      14  | 54:43.25 |    6:19.25   |      246250      |     274699
Характеристики диапазона извлечения и сообщения об ошибках
Выбранный диапазон
     Имя файла K:\Lossless MUSIC Archive\Art Rock\England\Steve Hackett\Steve Hackett - Momentum - 1988\Hackett, Steve - Momentum.wav
     Пиковый уровень 99.6 %
     Качество диапазона 99.9 %
     CRC теста 147A2AE1
     CRC копии 147A2AE1
     Копирование... OK
Ошибок не произошло
AccurateRip: сводка
Трек  1  точность не определена (достоверность 5)  [2C2EFF99], AccurateRip вернул [F45482BA]
Трек  2  точность не определена (достоверность 5)  [6F372336], AccurateRip вернул [89C2CA3F]
Трек  3  точность не определена (достоверность 5)  [95AC9ACD], AccurateRip вернул [22492FA4]
Трек  4  точность не определена (достоверность 5)  [0C34702B], AccurateRip вернул [18A64BCA]
Трек  5  точность не определена (достоверность 5)  [99FEB234], AccurateRip вернул [682BE5B7]
Трек  6  точность не определена (достоверность 5)  [975A8C5D], AccurateRip вернул [23478A7D]
Трек  7  точность не определена (достоверность 5)  [D3F701B7], AccurateRip вернул [CF1D3CB0]
Трек  8  точность не определена (достоверность 5)  [14F37C61], AccurateRip вернул [17FBD237]
Трек  9  точность не определена (достоверность 5)  [414DE20D], AccurateRip вернул [22073880]
Трек 10  точность не определена (достоверность 5)  [6FF4447F], AccurateRip вернул [6CE455EF]
Трек 11  точность не определена (достоверность 5)  [DB722643], AccurateRip вернул [4AFDE0EB]
Трек 12  точность не определена (достоверность 5)  [2C0A0437], AccurateRip вернул [A50D6DB7]
Трек 13  точность не определена (достоверность 5)  [02BC538E], AccurateRip вернул [4A24FC5B]
Трек 14  точность не определена (достоверность 5)  [4D2D1070], AccurateRip вернул [D9A7947E]
Ни один трек не прошёл проверки на точность
В вашей базе может быть иной вариант штамповки диска
Конец отчёта

Год выпуска диска: 1993
Производитель диска: Israel
Лейбл: Viceroy Music.
Номер по каталогу: VIC8008-2
Продолжительность: 56min
01 - Lost in Your Eyes
02 - In the Heart of the City
03 - Sierra Quemada
04 - Vampire with a Healthy Appetite
05 - Take These Pearls
06 - Little America
07 - There Are Many Sides To the Night
08 - Walking Away from Rainbows
09 - Like an Arrow
10 - Dark as The Grave
11 - Paint Your Picture
12 - Tristesse
13 - Cassandra
Код: Выделить всё
Exact Audio Copy V0.99 prebeta 5 from 4. May 2009
Отчёт EAC об извлечении, выполненном 17. января 2011, 16:56
Steve Hackett / Guitar Noir
Дисковод: PIONEER DVD-RW  DVR-115D   Adapter: 1  ID: 0
Режим чтения                 : Достоверность
Использование точного потока : Да
Отключение кэша аудио        : Да
Использование указателей C2  : Нет
Коррекция смещения при чтении                     : 48
Способность читать области Lead-in и Lead-out     : Нет
Заполнение пропущенных сэмплов тишиной            : Да
Удаление блоков с тишиной в начале и конце        : Нет
При вычислениях CRC использовались нулевые сэмплы : Да
Интерфейс                                         : Установленный внешний ASPI-интерфейс
Выходной формат : Внутренние WAV-операции
Формат сэмплов  : 44.100 Гц; 16 бит; стерео
TOC извлечённого CD
     Трек |   Старт  | Длительность | Начальный сектор | Конечный сектор
    ---------------------------------------------------------------------
       1  |  0:00.00 |    4:10.32   |           0      |      18781
       2  |  4:10.32 |    4:32.48   |       18782      |      39229
       3  |  8:43.05 |    5:05.05   |       39230      |      62109
       4  | 13:48.10 |    5:20.60   |       62110      |      86169
       5  | 19:08.70 |    4:12.37   |       86170      |     105106
       6  | 23:21.32 |    4:41.23   |      105107      |     126204
       7  | 28:02.55 |    6:56.40   |      126205      |     157444
       8  | 34:59.20 |    3:10.02   |      157445      |     171696
       9  | 38:09.22 |    2:49.53   |      171697      |     184424
      10  | 40:59.00 |    4:37.65   |      184425      |     205264
      11  | 45:36.65 |    2:59.00   |      205265      |     218689
      12  | 48:35.65 |    3:58.17   |      218690      |     236556
      13  | 52:34.07 |    3:42.23   |      236557      |     253229
Характеристики диапазона извлечения и сообщения об ошибках
Выбранный диапазон
     Имя файла K:\Lossless MUSIC Archive\Art Rock\England\Steve Hackett\Steve Hackett - Guitar Noir - 1993 (Viceroy Music, Israel, VIC8008-2)\Steve Hackett - Guitar Noir.wav
     Пиковый уровень 100.0 %
     Качество диапазона 99.9 %
     CRC теста C74422D9
     CRC копии C74422D9
     Копирование... OK
Ошибок не произошло
AccurateRip: сводка
Трек  1  точное извлечение (доверие 9)  [81EEE821]
Трек  2  точное извлечение (доверие 9)  [DA18CA54]
Трек  3  точное извлечение (доверие 9)  [245FB6AA]
Трек  4  точное извлечение (доверие 9)  [C5DC5516]
Трек  5  точное извлечение (доверие 9)  [44DFB239]
Трек  6  точное извлечение (доверие 9)  [9EBFF304]
Трек  7  точное извлечение (доверие 9)  [2A49FC51]
Трек  8  точное извлечение (доверие 9)  [763631DD]
Трек  9  точное извлечение (доверие 9)  [7F241331]
Трек 10  точное извлечение (доверие 9)  [AA157734]
Трек 11  точное извлечение (доверие 9)  [A24E4124]
Трек 12  точное извлечение (доверие 9)  [610AB22F]
Трек 13  точное извлечение (доверие 9)  [17E2471C]
Все треки извлечены точно
Конец отчёта

Год выпуска диска: 1994
Производитель диска: Japan
Лейбл: WHD Entertainment Inc.
Номер по каталогу: IECP - 10106
Продолжительность: 47min
01 - Born In Chicago
02 - The Stumble
03 - Love Of Another Kind
04 - Way Down South
05 - A Blue Part Of Town
06 - Footloose
07 - Tombstone Roller
08 - Blues With A Feeling
09 - Big Dallas Sky
10 - The 13th Floor
11 - So Many Roads
12 - Solid Ground
Код: Выделить всё
Exact Audio Copy V0.99 prebeta 5 from 4. May 2009
Отчёт EAC об извлечении, выполненном 17. января 2011, 18:22
Steve Hackett / Blues With A Feeling
Дисковод: PIONEER DVD-RW  DVR-115D   Adapter: 1  ID: 0
Режим чтения                 : Достоверность
Использование точного потока : Да
Отключение кэша аудио        : Да
Использование указателей C2  : Нет
Коррекция смещения при чтении                     : 48
Способность читать области Lead-in и Lead-out     : Нет
Заполнение пропущенных сэмплов тишиной            : Да
Удаление блоков с тишиной в начале и конце        : Нет
При вычислениях CRC использовались нулевые сэмплы : Да
Интерфейс                                         : Установленный внешний ASPI-интерфейс
Выходной формат : Внутренние WAV-операции
Формат сэмплов  : 44.100 Гц; 16 бит; стерео
TOC извлечённого CD
     Трек |   Старт  | Длительность | Начальный сектор | Конечный сектор
    ---------------------------------------------------------------------
       1  |  0:00.00 |    3:57.65   |           0      |      17839
       2  |  3:57.65 |    2:55.10   |       17840      |      30974
       3  |  6:53.00 |    3:59.50   |       30975      |      48949
       4  | 10:52.50 |    4:28.45   |       48950      |      69094
       5  | 15:21.20 |    3:03.70   |       69095      |      82889
       6  | 18:25.15 |    2:30.15   |       82890      |      94154
       7  | 20:55.30 |    5:17.45   |       94155      |     117974
       8  | 26:13.00 |    4:22.35   |      117975      |     137659
       9  | 30:35.35 |    4:47.50   |      137660      |     159234
      10  | 35:23.10 |    3:29.05   |      159235      |     174914
      11  | 38:52.15 |    3:15.35   |      174915      |     189574
      12  | 42:07.50 |    4:27.65   |      189575      |     209664
Характеристики диапазона извлечения и сообщения об ошибках
Выбранный диапазон
     Имя файла K:\Lossless MUSIC Archive\Art Rock\England\Steve Hackett\11 - Steve Hackett - Blues With A Feeling - 1994 (Japan, 1994 IECP - 10106)\Steve Hackett - Blues With A Feeling.wav
     Пиковый уровень 96.8 %
     Качество диапазона 100.0 %
     CRC теста 09E62D85
     CRC копии 09E62D85
     Копирование... OK
Ошибок не произошло
AccurateRip: сводка
Трек  1  нет в базе данных
Трек  2  нет в базе данных
Трек  3  нет в базе данных
Трек  4  нет в базе данных
Трек  5  нет в базе данных
Трек  6  нет в базе данных
Трек  7  нет в базе данных
Трек  8  нет в базе данных
Трек  9  нет в базе данных
Трек 10  нет в базе данных
Трек 11  нет в базе данных
Трек 12  нет в базе данных
Ни одного трека нет в базе AccurateRip
Конец отчёта

Год выпуска диска: 2003
Производитель диска: UK
Лейбл: Snapper Classic, Watcher Ltd.
Номер по каталогу: SDPCD126
Продолжительность: 76min
01 - Watcher of the Skies
02 - Dance on a Volcano
03 - Valley of the Kings
04 - Deja Vu
05 - Firth of Fifth
06 - For Absent Friends
07 - Your Own Special Way
08 - Fountain of Salmacis
09 - Waiting Room Only
10 - I Know What I Like
11 - Los Endos
Код: Выделить всё
Exact Audio Copy V0.99 prebeta 5 from 4. May 2009
Отчёт EAC об извлечении, выполненном 19. января 2011, 2:24
Steve Hackett / Watcher of the Skies (Genesis  Revisited)
Дисковод: PIONEER DVD-RW  DVR-115D   Adapter: 1  ID: 0
Режим чтения                 : Достоверность
Использование точного потока : Да
Отключение кэша аудио        : Да
Использование указателей C2  : Нет
Коррекция смещения при чтении                     : 48
Способность читать области Lead-in и Lead-out     : Нет
Заполнение пропущенных сэмплов тишиной            : Да
Удаление блоков с тишиной в начале и конце        : Нет
При вычислениях CRC использовались нулевые сэмплы : Да
Интерфейс                                         : Установленный внешний ASPI-интерфейс
Выходной формат : Внутренние WAV-операции
Формат сэмплов  : 44.100 Гц; 16 бит; стерео
TOC извлечённого CD
     Трек |   Старт  | Длительность | Начальный сектор | Конечный сектор
    ---------------------------------------------------------------------
       1  |  0:00.00 |    8:39.35   |           0      |      38959
       2  |  8:39.35 |    7:27.20   |       38960      |      72504
       3  | 16:06.55 |    6:31.40   |       72505      |     101869
       4  | 22:38.20 |    5:53.00   |      101870      |     128344
       5  | 28:31.20 |    9:39.57   |      128345      |     171826
       6  | 38:11.02 |    3:02.55   |      171827      |     185531
       7  | 41:13.57 |    4:18.18   |      185532      |     204899
       8  | 45:32.00 |    9:53.57   |      204900      |     249431
       9  | 55:25.57 |    6:53.18   |      249432      |     280424
      10  | 62:19.00 |    5:37.12   |      280425      |     305711
      11  | 67:56.12 |    8:46.05   |      305712      |     345166
Характеристики диапазона извлечения и сообщения об ошибках
Выбранный диапазон
     Имя файла K:\Lossless MUSIC Archive\Art Rock\England\Steve Hackett\12 - Steve Hackett - Genesis Revisited - 1996\Steve Hackett - Watcher of the Skies (Genesis  Revisited).wav
     Пиковый уровень 95.5 %
     Качество диапазона 100.0 %
     CRC теста 57287E27
     CRC копии 57287E27
     Копирование... OK
Ошибок не произошло
AccurateRip: сводка
Трек  1  точность не определена (достоверность 5)  [2CB00416], AccurateRip вернул [09CA2E71]
Трек  2  точность не определена (достоверность 5)  [5BFE3FAB], AccurateRip вернул [91AAD7F2]
Трек  3  точность не определена (достоверность 5)  [B77E3D30], AccurateRip вернул [EF73BE3E]
Трек  4  точность не определена (достоверность 5)  [EC17683D], AccurateRip вернул [3916D49C]
Трек  5  точность не определена (достоверность 5)  [43A5BA8D], AccurateRip вернул [F6617EB4]
Трек  6  точность не определена (достоверность 5)  [7ABCC807], AccurateRip вернул [6EF861F3]
Трек  7  точность не определена (достоверность 5)  [64826154], AccurateRip вернул [2C1D203A]
Трек  8  точность не определена (достоверность 5)  [BD2D3694], AccurateRip вернул [D2235D62]
Трек  9  точность не определена (достоверность 5)  [1C5B4679], AccurateRip вернул [584DC035]
Трек 10  точность не определена (достоверность 5)  [21B59FD6], AccurateRip вернул [90C38B95]
Трек 11  точность не определена (достоверность 5)  [D322E6FA], AccurateRip вернул [0F86C82A]
Ни один трек не прошёл проверки на точность
В вашей базе может быть иной вариант штамповки диска
Конец отчёта

Год выпуска диска: 1997
Производитель диска: UK
Лейбл: Camino Records.
Номер по каталогу: CAMCD22
Продолжительность: 62min
01 - The Palace of Theseus
02 - A Form In Wax
03 - By Paved Fountain
04 - Titania
05 - Set Your Heart At Rest
06 - Oberon
07 - Within This Wood
08 - In The Beached Margent Of The Sea
09 - Between The Cold Moon & The Earth
10 - Puck
11 - Helena
12 - Peaseblossom, Cobweb, Moth & Mustardseed
13 - Mountains Turned Into Clouds
14 - The Lunatic, The Lover & The Poet
15 - Starlight
16 - Lysander & Demetrius
17 - Celebration
18 - All Is Mended
Код: Выделить всё
Exact Audio Copy V0.99 prebeta 5 from 4. May 2009
Отчёт EAC об извлечении, выполненном 6. мая 2011, 17:56
Steve Hackett / A Midsummer Night's Dream
Дисковод: PIONEER DVD-RW  DVR-115D   Adapter: 1  ID: 0
Режим чтения                 : Достоверность
Использование точного потока : Да
Отключение кэша аудио        : Да
Использование указателей C2  : Нет
Коррекция смещения при чтении                     : 48
Способность читать области Lead-in и Lead-out     : Нет
Заполнение пропущенных сэмплов тишиной            : Да
Удаление блоков с тишиной в начале и конце        : Нет
При вычислениях CRC использовались нулевые сэмплы : Да
Интерфейс                                         : Установленный внешний ASPI-интерфейс
Выходной формат : Внутренние WAV-операции
Формат сэмплов  : 44.100 Гц; 16 бит; стерео
TOC извлечённого CD
     Трек |   Старт  | Длительность | Начальный сектор | Конечный сектор
    ---------------------------------------------------------------------
       1  |  0:00.00 |    2:46.17   |           0      |      12466
       2  |  2:46.17 |    4:40.61   |       12467      |      33527
       3  |  7:27.03 |    2:00.45   |       33528      |      42572
       4  |  9:27.48 |    2:24.07   |       42573      |      53379
       5  | 11:51.55 |    3:31.28   |       53380      |      69232
       6  | 15:23.08 |    2:31.70   |       69233      |      80627
       7  | 17:55.03 |    2:36.12   |       80628      |      92339
       8  | 20:31.15 |    2:38.61   |       92340      |     104250
       9  | 23:10.01 |    2:44.65   |      104251      |     116615
      10  | 25:54.66 |    1:52.67   |      116616      |     125082
      11  | 27:47.58 |    4:21.41   |      125083      |     144698
      12  | 32:09.24 |    4:28.50   |      144699      |     164848
      13  | 36:37.74 |    4:36.60   |      164849      |     185608
      14  | 41:14.59 |    4:14.36   |      185609      |     204694
      15  | 45:29.20 |    4:47.73   |      204695      |     226292
      16  | 50:17.18 |    2:45.54   |      226293      |     238721
      17  | 53:02.72 |    6:15.23   |      238722      |     266869
      18  | 59:18.20 |    3:13.62   |      266870      |     281406
      19  | 65:04.07 |    8:01.58   |      292807      |     328939
Характеристики диапазона извлечения и сообщения об ошибках
Выбранный диапазон
     Имя файла K:\Lossless MUSIC Archive\Art Rock\England\Steve Hackett\13 - Steve Hackett - A Midsummer Night's Dream - 1997 (Camino Records 1997, CAMCD22)\Steve Hackett - A Midsummer Night's Dream.wav
     Пиковый уровень 98.5 %
     Качество диапазона 99.9 %
     CRC теста EFFCE6F3
     CRC копии EFFCE6F3
     Копирование... OK
Ошибок не произошло
AccurateRip: сводка
Трек  1  точное извлечение (доверие 3)  [18837551]
Трек  2  точное извлечение (доверие 3)  [843ABCB1]
Трек  3  точное извлечение (доверие 3)  [74D7B9AC]
Трек  4  точное извлечение (доверие 3)  [DB23F41E]
Трек  5  точное извлечение (доверие 3)  [F9FF99B4]
Трек  6  точное извлечение (доверие 3)  [7339C8D8]
Трек  7  точное извлечение (доверие 3)  [2C5C664F]
Трек  8  точное извлечение (доверие 3)  [30F29960]
Трек  9  точное извлечение (доверие 3)  [BF94B289]
Трек 10  точное извлечение (доверие 3)  [6606F989]
Трек 11  точное извлечение (доверие 3)  [9B1EB1F2]
Трек 12  точное извлечение (доверие 3)  [EAAF7CC4]
Трек 13  точное извлечение (доверие 3)  [E6B4D948]
Трек 14  точное извлечение (доверие 3)  [AC4E047F]
Трек 15  точное извлечение (доверие 3)  [710A7C5D]
Трек 16  точное извлечение (доверие 3)  [F8B1530B]
Трек 17  точное извлечение (доверие 3)  [D0C6F84D]
Трек 18  точное извлечение (доверие 2)  [F6AE7B30]
Все треки извлечены точно
Конец отчёта

Voyage Of The Acolyte (CASCD 1111) UK Pressing 1988
Please Don't Touch (CDSCD 4012) UK Pressing 1988
Spectral Mornings (CDSCD 4017) UK Pressing 1989
Defector (CDSCD 4018) UK Pressing 1989
Till We Have Faces (CLC 5004) German Pressing 1990
Olaf der Weisse
Все остальные - Swamp Fox

Торрент обновлен 05.03.2019


Правила, инструкции, FAQ!!!
Торрент  Добавлен [09 мар 2019, 11:25] Скачать торрент Магнет ссылка
Скачать торрент
110.82 КБ

Статус
Проверен 
 
Размер  17.54 ГБ
Приватный: Нет (DHT включён)
.torrent скачан  0
Как залить торрент? | Как скачать Torrent? | Как смотреть и слушать онлайн?  
Гость
 



Вернуться в Progressive & Art-Rock

Кто сейчас на конференции

Сейчас этот форум просматривают: нет зарегистрированных пользователей и гости: 0