(Art Rock, Power Pop, Avant-garde) [CD] The Bears (Adrian Belew) - Rise and Shine - 1988, FLAC (image+.cue), lossless


Статистика раздачи
Размер: 306.16 МБ | Добавлен: 09 мар 2019, 11:25 | Скачали: 0
Сидеров: 0  [0 байт/сек]    Личеров: 0  [0 байт/сек]

Сообщение Гость » 09 мар 2019, 11:25

The Bears - Rise and Shine
Жанр: Art Rock, Power Pop, Avant-garde
Страна-производитель диска: USA
Год издания диска: 1988
Издатель (лейбл): Primitive Man Recording Company
Номер по каталогу: IRSD-42139
Страна: USA
Аудиокодек: FLAC (*.flac)
Тип рипа: image+.cue
Битрейт аудио: lossless
Продолжительность: 00:49:35
Источник (релизер): Juergen
Наличие сканов в содержимом раздачи: да
Треклист:
01. Aches And Pains 03:19
02. Save Me 03:42
03. Robobo's Beef 03:40
04. Not Worlds Apart 03:33
05. Nobody's Fool 02:56
06. Highway 2 00:52
07. Little Blue River 03:06
08. Rabbit Manor 02:48
09. Holy Mack 03:19
10. Complicated Potatoes 02:35
11. You Can Buy Friends 02:41
12. The Best Laid Plans 02:59
13. Old Fat Cadillac 03:05
14. Girl With Clouds 03:18
15. Man Behind The Curtain (Revisited) 04:12
16. Figure It Out 03:32
Код: Выделить всё
Exact Audio Copy V1.0 beta 3 from 29. August 2011
EAC extraction logfile from 11. February 2019, 20:58
The Bears / Rise And Shine
Used drive  : PLEXTOR DVDR   PX-740A   Adapter: 0  ID: 0
Read mode               : Secure
Utilize accurate stream : Yes
Defeat audio cache      : Yes
Make use of C2 pointers : No
Read offset correction                      : 618
Overread into Lead-In and Lead-Out          : No
Fill up missing offset samples with silence : Yes
Delete leading and trailing silent blocks   : No
Null samples used in CRC calculations       : Yes
Used interface                              : Native Win32 interface for Win NT & 2000
Used output format : Internal WAV Routines
Sample format      : 44.100 Hz; 16 Bit; Stereo
TOC of the extracted CD
     Track |   Start  |  Length  | Start sector | End sector
    ---------------------------------------------------------
        1  |  0:00.37 |  3:18.50 |        37    |    14936
        2  |  3:19.12 |  3:41.43 |     14937    |    31554
        3  |  7:00.55 |  3:39.70 |     31555    |    48049
        4  | 10:40.50 |  3:33.20 |     48050    |    64044
        5  | 14:13.70 |  2:56.25 |     64045    |    77269
        6  | 17:10.20 |  0:52.30 |     77270    |    81199
        7  | 18:02.50 |  3:05.45 |     81200    |    95119
        8  | 21:08.20 |  2:47.40 |     95120    |   107684
        9  | 23:55.60 |  3:18.42 |    107685    |   122576
       10  | 27:14.27 |  2:34.58 |    122577    |   134184
       11  | 29:49.10 |  2:41.00 |    134185    |   146259
       12  | 32:30.10 |  2:58.52 |    146260    |   159661
       13  | 35:28.62 |  3:05.23 |    159662    |   173559
       14  | 38:34.10 |  3:17.47 |    173560    |   188381
       15  | 41:51.57 |  4:12.28 |    188382    |   207309
       16  | 46:04.10 |  3:31.55 |    207310    |   223189
Range status and errors
Selected range
     Filename C:\MUSIC\CD Rips_J\Bears\The Bears - Rise And Shine.wav
     Peak level 96.7 %
     Extraction speed 9.0 X
     Range quality 100.0 %
     Test CRC 5BD6B0D7
     Copy CRC 5BD6B0D7
     Copy OK
No errors occurred
AccurateRip summary
Track  1  accurately ripped (confidence 19)  [8CB6A3AD]  (AR v2)
Track  2  accurately ripped (confidence 19)  [8483EF7E]  (AR v2)
Track  3  accurately ripped (confidence 19)  [8D5ED40C]  (AR v2)
Track  4  accurately ripped (confidence 19)  [2D170D69]  (AR v2)
Track  5  accurately ripped (confidence 19)  [868F9C32]  (AR v2)
Track  6  accurately ripped (confidence 19)  [4319C17A]  (AR v2)
Track  7  accurately ripped (confidence 19)  [A0CEDBA6]  (AR v2)
Track  8  accurately ripped (confidence 19)  [91B31677]  (AR v2)
Track  9  accurately ripped (confidence 19)  [B316A272]  (AR v2)
Track 10  accurately ripped (confidence 19)  [4AE43F66]  (AR v2)
Track 11  accurately ripped (confidence 19)  [177344DD]  (AR v2)
Track 12  accurately ripped (confidence 19)  [540DAC3D]  (AR v2)
Track 13  accurately ripped (confidence 19)  [BF241933]  (AR v2)
Track 14  accurately ripped (confidence 19)  [8A72F328]  (AR v2)
Track 15  accurately ripped (confidence 18)  [1D1F4415]  (AR v2)
Track 16  accurately ripped (confidence 18)  [9E67DE52]  (AR v2)
All tracks accurately ripped
End of status report
==== Log checksum C4F022019A33B5CAC55139026A87616994BC45A69B650783178A07C0008E029F ====
Код: Выделить всё
REM GENRE Rock
REM DATE 1988
REM DISCID BC0B9F10
REM COMMENT "ExactAudioCopy v1.0b3"
PERFORMER "The Bears"
TITLE "Rise And Shine"
FILE "The Bears - Rise And Shine.flac" WAVE
  TRACK 01 AUDIO
    TITLE "Aches And Pains"
    PERFORMER "The Bears"
    INDEX 00 00:00:00
    INDEX 01 00:00:37
  TRACK 02 AUDIO
    TITLE "Save Me"
    PERFORMER "The Bears"
    FLAGS DCP
    INDEX 00 03:15:22
    INDEX 01 03:19:12
  TRACK 03 AUDIO
    TITLE "Robobo's Beef"
    PERFORMER "The Bears"
    FLAGS DCP
    INDEX 00 06:56:65
    INDEX 01 07:00:55
  TRACK 04 AUDIO
    TITLE "Not Worlds Apart"
    PERFORMER "The Bears"
    FLAGS DCP
    INDEX 00 10:36:60
    INDEX 01 10:40:50
  TRACK 05 AUDIO
    TITLE "Nobody's Fool"
    PERFORMER "The Bears"
    FLAGS DCP
    INDEX 00 14:10:05
    INDEX 01 14:13:70
  TRACK 06 AUDIO
    TITLE "Highway 2"
    PERFORMER "The Bears"
    FLAGS DCP
    INDEX 00 17:06:30
    INDEX 01 17:10:20
  TRACK 07 AUDIO
    TITLE "Little Blue River"
    PERFORMER "The Bears"
    FLAGS DCP
    INDEX 00 17:58:60
    INDEX 01 18:02:50
  TRACK 08 AUDIO
    TITLE "Rabbit Manor"
    PERFORMER "The Bears"
    FLAGS DCP
    INDEX 00 21:04:30
    INDEX 01 21:08:20
  TRACK 09 AUDIO
    TITLE "Holy Mack"
    PERFORMER "The Bears"
    FLAGS DCP
    INDEX 00 23:51:70
    INDEX 01 23:55:60
  TRACK 10 AUDIO
    TITLE "Complicated Potatoes"
    PERFORMER "The Bears"
    FLAGS DCP
    INDEX 00 27:10:37
    INDEX 01 27:14:27
  TRACK 11 AUDIO
    TITLE "You Can Buy Friends"
    PERFORMER "The Bears"
    FLAGS DCP
    INDEX 00 29:45:20
    INDEX 01 29:49:10
  TRACK 12 AUDIO
    TITLE "The Best Laid Plans"
    PERFORMER "The Bears"
    FLAGS DCP
    INDEX 00 32:26:20
    INDEX 01 32:30:10
  TRACK 13 AUDIO
    TITLE "Old Fat Cadillac"
    PERFORMER "The Bears"
    FLAGS DCP
    INDEX 00 35:24:72
    INDEX 01 35:28:62
  TRACK 14 AUDIO
    TITLE "Girl With Clouds"
    PERFORMER "The Bears"
    FLAGS DCP
    INDEX 00 38:30:20
    INDEX 01 38:34:10
  TRACK 15 AUDIO
    TITLE "Man Behind the Curtain (revisited)"
    PERFORMER "The Bears"
    FLAGS DCP
    INDEX 00 41:47:67
    INDEX 01 41:51:57
  TRACK 16 AUDIO
    TITLE "Figure It Out"
    PERFORMER "The Bears"
    FLAGS DCP
    INDEX 00 46:00:20
    INDEX 01 46:04:10
Код: Выделить всё
-----------------------
DON'T MODIFY THIS FILE
-----------------------
PERFORMER: auCDtect Task Manager, ver. 1.5.1RC4 build 1.5.1.5
Copyright (c) 2008-2010 y-soft. All rights reserved
[url=http://y-soft.org]http://y-soft.org[/url]
ANALYZER: auCDtect: CD records authenticity detector, version 0.8.2
Copyright (c) 2004 Oleg Berngardt. All rights reserved.
Copyright (c) 2004 Alexander Djourik. All rights reserved.
FILE: The Bears - Rise And Shine.flac
  Size: 319023222 Hash: C2D6920624E3D6B12D6C13F233BF869D Accuracy: -m0
  Conclusion: CDDA 100%
  Signature: 3D94F7F2DD0E7C0C7498655DC482E62D4CDDE002
Код: Выделить всё
foobar2000 1.3.9 / Замер динамического диапазона (DR) 1.1.1
Дата отчёта:  2019-03-05 13:52:04
--------------------------------------------------------------------------------
Анализ:   The Bears / Rise And Shine
--------------------------------------------------------------------------------
DR         Пики         RMS           Продолжительность трека
--------------------------------------------------------------------------------
DR13      -0.29 дБ   -14.57 дБ      3:19 1-Aches And Pains
DR12      -1.28 дБ   -15.54 дБ      3:42 2-Save Me
DR13      -0.71 дБ   -14.66 дБ      3:40 3-Robobo's Beef
DR14      -0.39 дБ   -15.12 дБ      3:33 4-Not Worlds Apart
DR14      -1.13 дБ   -16.55 дБ      2:56 5-Nobody's Fool
DR13      -4.70 дБ   -21.72 дБ      0:52 6-Highway 2
DR13      -2.45 дБ   -18.13 дБ      3:06 7-Little Blue River
DR14      -0.49 дБ   -15.71 дБ      2:48 8-Rabbit Manor
DR14      -0.70 дБ   -16.71 дБ      3:19 9-Holy Mack
DR14      -0.48 дБ   -15.30 дБ      2:35 10-Complicated Potatoes
DR13      -2.02 дБ   -17.37 дБ      2:41 11-You Can Buy Friends
DR14      -1.87 дБ   -17.65 дБ      2:59 12-The Best Laid Plans
DR14      -0.91 дБ   -17.37 дБ      3:05 13-Old Fat Cadillac
DR14      -1.28 дБ   -16.80 дБ      3:18 14-Girl With Clouds
DR12      -1.37 дБ   -17.00 дБ      4:12 15-Man Behind the Curtain (revisited)
DR13      -0.44 дБ   -15.82 дБ      3:32 16-Figure It Out
--------------------------------------------------------------------------------
Количество треков: 16
Реальные значения DR: DR13
Частота:   44100 Гц
Каналов:   2
Разрядность:   16
Битрейт:   857 кбит/с
Кодек:   FLAC
================================================================================
Доп. информация
Adrian Belew - Guitar and Vocals
Rob Fetters - Guitar and Vocals
Bob Nyswonger - Bass
Chris Arduser - Drums
Bill Janssen - Saxophone on "Figure It Out"
The guitar experimentation of Adrian Belew and Rob Fetters is top-notch on this record, but the material itself is not. Belew and his backing group of Cincinnati, Ohio-based musicians tend to sound like many other bands. On the first track, "Aches and Pains," the Bears literally break out all the bells and whistles, as those items are incorporated into what seems to be a second-rate Squeeze song. Belew and Fetters do manage to polish up some of the rough spots, however, on songs like "Robobo's Beef," which transforms a distorted electric guitar into what sounds like an electric violin helmed by Jean-Luc Ponty's evil twin brother. The album doesn't lack diversity, as heard on tracks ranging from lullabyes ("Little Blue River") to fusion worldbeat ("Rabbit Manor"), but it does lack fully developed writing. The record is a mixed palette with bits of music that could have made up a beautiful canvas if they were carefully thought out.
https://www.allmusic.com/album/rise-and-shine-mw0000199179
https://en.wikipedia.org/wiki/The_Bears_(band)
https://en.wikipedia.org/wiki/Rise_and_Shine_(The_Bears_album)
Правила, инструкции, FAQ!!!
Торрент  Добавлен [09 мар 2019, 11:25] Скачать торрент Магнет ссылка
Скачать торрент
12.8 КБ

Статус
Проверен 
 
Размер  306.16 МБ
Приватный: Нет (DHT включён)
.torrent скачан  0
Как залить торрент? | Как скачать Torrent? | Как смотреть и слушать онлайн?  
Гость
 



Вернуться в Progressive & Art-Rock

Кто сейчас на конференции

Сейчас этот форум просматривают: нет зарегистрированных пользователей и гости: 0