Architects - 6 Альбомов (2006-2014) Дискография [FLAC|Lossless]<Metalcore | Post-Hardcore >


Статистика раздачи
Размер: 1.94 ГБ | Добавлен: 16 мар 2014, 00:40 | Скачали: 11
Сидеров: 52  [0 байт/сек]    Личеров: 18  [0 байт/сек]

Сообщение Гость » 16 мар 2014, 00:40


Architects
- Дискография





Год выпуска: 2006-2014
Жанр: Metalcore | Post-Hardcore
Продолжительность: 04:24:15
Тип издания: Дискография
Страна: Великобритания



>>> Треклист: <<<
------------------------------------------------------------------------
01. To The Death
02. You Don't Walk Away From Dismemberment
03. Minesweeper
04. They'll Be Hanging Us Tonight
05. This Confession Means Nothing
06. In The Desert
07. A Portrait For The Deceased
08. The Darkest Tomb
------------------------------------------------------------------------
>>> Продолжительность: 00:30:24 >>>

Код:
Код: Выделить всё
Exact Audio Copy V0.99 prebeta 3 from 28. July 2007

EAC extraction logfile from 4. April 2008, 19:18

Architects / Nightmares

Used drive  : SAMSUNG CDRW/DVD SM-348B   Adapter: 1  ID: 0

Read mode               : Secure
Utilize accurate stream : Yes
Defeat audio cache      : Yes
Make use of C2 pointers : No

Read offset correction                      : 6
Overread into Lead-In and Lead-Out          : No
Fill up missing offset samples with silence : Yes
Delete leading and trailing silent blocks   : No
Null samples used in CRC calculations       : No
Used interface                              : Native Win32 interface for Win NT & 2000
Gap handling                                : Not detected, thus appended to previous track

Used output format              : User Defined Encoder
Selected bitrate                : 1024 kBit/s
Quality                         : High
Add ID3 tag                     : No
Command line compressor         : C:\Program Files\Exact Audio Copy\FLAC\FLAC.EXE
Additional command line options : -6 -V -T "ARTIST=%a" -T "TITLE=%t" -T "ALBUM=%g" -T "DATE=%y" -T "TRACKNUMBER=%n" -T "GENRE=%m" -T "COMMENT=%e" %s -o %d

TOC of the extracted CD

     Track |   Start  |  Length  | Start sector | End sector
    ---------------------------------------------------------
        1  |  0:00.00 |  2:41.24 |         0    |    12098
        2  |  2:41.24 |  4:58.56 |     12099    |    34504
        3  |  7:40.05 |  3:32.69 |     34505    |    50473
        4  | 11:12.74 |  3:31.11 |     50474    |    66309
        5  | 14:44.10 |  3:29.40 |     66310    |    82024
        6  | 18:13.50 |  4:05.47 |     82025    |   100446
        7  | 22:19.22 |  4:23.12 |    100447    |   120183
        8  | 26:42.34 |  3:42.05 |    120184    |   136838

Track  1

     Filename E:\Media\Architects - Nightmares\To The Death.wav

     Peak level 98.8 %
     Track quality 100.0 %
     Copy CRC 3BE3BAC3
     Accurately ripped (confidence 1)  [51BE0CF6]
     Copy OK

Track  2

     Filename E:\Media\Architects - Nightmares\You Don't Walk Away From Dismemberment.wav

     Peak level 98.8 %
     Track quality 100.0 %
     Copy CRC E63C6B24
     Accurately ripped (confidence 1)  [D228E434]
     Copy OK

Track  3

     Filename E:\Media\Architects - Nightmares\Minesweeper.wav

     Peak level 98.8 %
     Track quality 100.0 %
     Copy CRC DB4618CB
     Accurately ripped (confidence 1)  [BB41179C]
     Copy OK

Track  4

     Filename E:\Media\Architects - Nightmares\They'll Be Hanging Us Tonight.wav

     Peak level 98.8 %
     Track quality 100.0 %
     Copy CRC CB8278D7
     Accurately ripped (confidence 1)  [5F25AA60]
     Copy OK

Track  5

     Filename E:\Media\Architects - Nightmares\This Confession Means Nothing.wav

     Peak level 98.8 %
     Track quality 99.9 %
     Copy CRC 97D7E8B7
     Accurately ripped (confidence 1)  [92EE6CE7]
     Copy OK

Track  6

     Filename E:\Media\Architects - Nightmares\In The Desert.wav

     Peak level 98.8 %
     Track quality 100.0 %
     Copy CRC 758B3836
     Accurately ripped (confidence 1)  [698BCB2D]
     Copy OK

Track  7

     Filename E:\Media\Architects - Nightmares\A Portrait For The Deceased.wav

     Peak level 98.8 %
     Track quality 100.0 %
     Copy CRC 2D94D2CA
     Accurately ripped (confidence 1)  [FFD1CBD4]
     Copy OK

Track  8

     Filename E:\Media\Architects - Nightmares\The Darkest Tomb.wav

     Peak level 98.8 %
     Track quality 100.0 %
     Copy CRC 300DE437
     Accurately ripped (confidence 1)  [0B2E4EAA]
     Copy OK

All tracks accurately ripped

No errors occurred

End of status report

Код:
Код: Выделить всё
-----------------------

DON'T MODIFY THIS FILE

-----------------------

PERFORMER: auCDtect Task Manager, ver. 1.5.1RC6 build 1.5.1.7
Copyright (c) 2008-2010 y-soft. All rights reserved
http:/y-soft.org

ANALYZER: auCDtect: CD records authenticity detector, version 0.8.2
Copyright (c) 2004 Oleg Berngardt. All rights reserved.
Copyright (c) 2004 Alexander Djourik. All rights reserved.

FILE: 08. Architects - The Darkest Tomb.flac
  Size: 28360865 Hash: 4E21B4F5155172DDA9D88849D703CCDE Accuracy: -m0
  Conclusion: CDDA 100%
  Signature: 34D46370DD449F9FB4DE608AE874F974FD665427
FILE: 07. Architects - A Portrait For The Deceased.flac
  Size: 33953980 Hash: 189B730D7227477695F2DBDDBDBD0DFC Accuracy: -m0
  Conclusion: CDDA 100%
  Signature: 32CE2D20DA381B17A9A77CD79775FF27646029A6
FILE: 06. Architects - In The Desert.flac
  Size: 30697644 Hash: 08B6541C54E7AB6E5146B2EAEF524A81 Accuracy: -m0
  Conclusion: CDDA 100%
  Signature: 1723FFC9D242A4E9314B007743BBC1AB89D783DD
FILE: 05. Architects - This Confession Means Nothing.flac
  Size: 23149402 Hash: 9B8988810AD1C2C3A78EC551027B2B81 Accuracy: -m0
  Conclusion: CDDA 100%
  Signature: ED981331C6EB60F696DE7D7A4F3A32D668217DCB
FILE: 04. Architects - They'll Be Hanging Us Tonight.flac
  Size: 26109831 Hash: 2291F7AC0218385D8E215017E5491665 Accuracy: -m0
  Conclusion: CDDA 100%
  Signature: 5A57CA906E9B367284217221741A1E6E561A3C0F
FILE: 03. Architects - Minesweeper.flac
  Size: 27519878 Hash: AA2215EF39F6CD16C42728DD686C7969 Accuracy: -m0
  Conclusion: CDDA 100%
  Signature: CB8023FFA5FA9CE44685745F52A5DF525F11E40A
FILE: 02. Architects - You Don't Walk Away From Dismemberment.flac
  Size: 36883582 Hash: 2CEC867A0A0D099E5CE2D6824D7F030F Accuracy: -m0
  Conclusion: CDDA 100%
  Signature: 3AA557C42852E4D7CB810D9263C0E973F7A54CAC
FILE: 01. Architects - To The Death.flac
  Size: 20873429 Hash: F09FFE0A60E2537C2F425F5751708389 Accuracy: -m0
  Conclusion: CDDA 100%
  Signature: 6D4E1E0ABBA157D51274B48EA9A96F7FE915F549


#777>>> Треклист: <<<
----------------------------------------------------------------------------
01. Buried At Sea
02. Hunt Them Down
03. You'll Find Safety
04. Always
05. Sail This Ship Alone
06. Heartless
07. North Lane
08. I Can't See The Light
09. Low
10. Running From The Sun
11. Save Me
12. Broken Clocks*
----------------------------------------------------------------------------
>>> Продолжительность: 00:43:03 >>>


Код:
Код: Выделить всё
EAC extraction logfile from 6. April 2009, 16:58 for CD
Architects / Ruin

Used drive  : PLEXTOR DVD-ROM PX-130A   Adapter: 0  ID: 0
Read mode   : Secure with NO C2, accurate stream, disable cache
Read offset correction : 738
Overread into Lead-In and Lead-Out : No

Used output format : C:\Program Files\Exact Audio Copy\FLAC.EXE   (User Defined Encoder)
                     128 kBit/s
                     Additional command line options : -6 -V -T "artist=%a" -T "title=%t" -T "album=%g" -T "date=%y" -T "tracknumber=%n" -T "genre=%m" -T "comment=EAC 0.9beta4 / FLAC 1.1.0 q6" %s

Other options      :
    Fill up missing offset samples with silence : Yes
    Delete leading and trailing silent blocks : No
    Native Win32 interface for Win NT & 2000

Range status and errors
Selected range
   Filename C:\Documents and Settings\ERIC\Bureau\METALMADNESS\ARCHITECTS - Ruin.flac.wav

   Peak level 100.0 %
   Range quality 99.9 %
   CRC 5CC70F83
   Copy OK

No errors occured

End of status report

Код:
Код: Выделить всё
-----------------------

DON'T MODIFY THIS FILE

-----------------------

PERFORMER: auCDtect Task Manager, ver. 1.5.1RC6 build 1.5.1.7
Copyright (c) 2008-2010 y-soft. All rights reserved
http:/y-soft.org

ANALYZER: auCDtect: CD records authenticity detector, version 0.8.2
Copyright (c) 2004 Oleg Berngardt. All rights reserved.
Copyright (c) 2004 Alexander Djourik. All rights reserved.

FILE: 12. Architects - Broken Clocks_.flac
  Size: 30728861 Hash: 04DEC73823F79EB1CD23E0340043C11C Accuracy: -m0
  Conclusion: CDDA 100%
  Signature: 93F6B1F19B2E648C4C3C3F58FA1440CBA754E609
FILE: 11. Architects - Save Me.flac
  Size: 34082104 Hash: 0D0999430444DE3C9776BB7C0F8BA855 Accuracy: -m0
  Conclusion: CDDA 100%
  Signature: 8ADC405BADABA8B786B6A32E15EFB94F3873FCC6
FILE: 10. Architects - Running From The Sun.flac
  Size: 32247475 Hash: 902D606F3892D840024C399857A216BF Accuracy: -m0
  Conclusion: CDDA 100%
  Signature: DA1EC2F7C88136D17D6FB4493B0306B7568BBEB1
FILE: 09. Architects - Low.flac
  Size: 20774327 Hash: A792980050E716018C18F56A3FDD6578 Accuracy: -m0
  Conclusion: CDDA 100%
  Signature: DFBC2379725E699EB375A06F5D292B243FFB5607
FILE: 08. Architects - I Can't See The Light.flac
  Size: 36645188 Hash: A2A5067AE4F8CD004D04C7FFCB367C87 Accuracy: -m0
  Conclusion: CDDA 100%
  Signature: C252C94ECA17F7C9C3510CC63B2576110834D3F0
FILE: 07. Architects - North Lane.flac
  Size: 27717373 Hash: 350CE03B0F0D94BA84E5AD9A84F190F1 Accuracy: -m0
  Conclusion: CDDA 100%
  Signature: 903EAB6EA80EDDD4CE248BD65B9E80220C2327D9
FILE: 06. Architects - Heartless.flac
  Size: 36736648 Hash: 1C247F6DAC633B4D9FF6582356810E6F Accuracy: -m0
  Conclusion: CDDA 100%
  Signature: DD803B42FD6735B052E0FC40349157BC676DAD6E
FILE: 05. Architects - Sail This Ship Alone.flac
  Size: 15798913 Hash: F315E4456BB9B266EDF3AD8B71150098 Accuracy: -m0
  Conclusion: CDDA 100%
  Signature: E347EB7F27A03E674F888947982D22B8A868473C
FILE: 04. Architects - Always.flac
  Size: 34919543 Hash: 684E63B51B0D0C99C2335B04739B0A28 Accuracy: -m0
  Conclusion: CDDA 100%
  Signature: 0A58306866CBD84B107F9489BFFE4F14DA3308E5
FILE: 03. Architects - You'll Find Safety.flac
  Size: 29974070 Hash: B764AD6F603EE63E7DD1E356E5D35484 Accuracy: -m0
  Conclusion: CDDA 99%
  Signature: B51A1CC1FEFBC367315F2ACEBE221ABAD1C3703F
FILE: 02. Architects - Hunt Them Down.flac
  Size: 27998785 Hash: 8B6CDF5CB0B81BCB66ECA70F3FA35F68 Accuracy: -m0
  Conclusion: CDDA 100%
  Signature: AEC69B62EFBE57B032C8F02F7E4F47765F095760
FILE: 01. Architects - Buried At Sea.flac
  Size: 30652102 Hash: 47C3180197B8076AB77442CE624DBF18 Accuracy: -m0
  Conclusion: CDDA 100%
  Signature: FB7B1E02F61C0FC556C648D96789D46A1A0B5E90


#777>>> Треклист: <<<
----------------------------------------------------------------------------
01. Early Grave
02. Dethroned
03. Numbers Count For Nothing
04. Follow The Water
05. In Elegance
06. We're All Alone
07. Borrowed Time
08. Every Last Breath
09. One Of These Days
10. Dead March
11. Left With A Last Minute
12. Hollow Crown
13. To The Death (2008)
----------------------------------------------------------------------------
>>> Продолжительность: 00:43:48 >>>


Код:
Код: Выделить всё
Exact Audio Copy V0.99 prebeta 4 from 23. January 2008

EAC extraction logfile from 29. January 2009, 17:29

Architects / Hollow Crown

Used drive  : LITE-ON DVDRW SHW-160P6S   Adapter: 0  ID: 0

Read mode               : Secure
Utilize accurate stream : Yes
Defeat audio cache      : Yes
Make use of C2 pointers : No

Read offset correction                      : 6
Overread into Lead-In and Lead-Out          : No
Fill up missing offset samples with silence : Yes
Delete leading and trailing silent blocks   : No
Null samples used in CRC calculations       : Yes
Used interface                              : Native Win32 interface for Win NT & 2000
Gap handling                                : Appended to previous track

Used output format              : User Defined Encoder
Selected bitrate                : 768 kBit/s
Quality                         : High
Add ID3 tag                     : No
Command line compressor         : B:\Program Files\Exact Audio Copy\FLAC\FLAC.EXE
Additional command line options : -V -5 -T "artist=%a" -T "title=%t" -T "album=%g" -T "date=%y" -T "tracknumber=%n" -T "genre=%m" %s

TOC of the extracted CD

     Track |   Start  |  Length  | Start sector | End sector
    ---------------------------------------------------------
        1  |  0:00.00 |  3:32.35 |         0    |    15934
        2  |  3:32.35 |  3:06.65 |     15935    |    29949
        3  |  6:39.25 |  3:50.01 |     29950    |    47200
        4  | 10:29.26 |  3:40.48 |     47201    |    63748
        5  | 14:09.74 |  4:16.54 |     63749    |    83002
        6  | 18:26.53 |  3:01.03 |     83003    |    96580
        7  | 21:27.56 |  2:30.35 |     96581    |   107865
        8  | 23:58.16 |  3:28.61 |    107866    |   123526
        9  | 27:27.02 |  2:34.13 |    123527    |   135089
       10  | 30:01.15 |  3:47.05 |    135090    |   152119
       11  | 33:48.20 |  2:57.56 |    152120    |   165450
       12  | 36:46.01 |  4:24.54 |    165451    |   185304
       13  | 41:10.55 |  2:38.02 |    185305    |   197156

Track  1

     Filename B:\Levi\Music\Hollow Crown FLAC\01 Early Grave.wav

     Pre-gap length  0:00:02.00

     Peak level 99.1 %
     Track quality 99.9 %
     Test CRC 56F784CD
     Copy CRC 56F784CD
     Copy OK

Track  2

     Filename B:\Levi\Music\Hollow Crown FLAC\02 Dethroned.wav

     Peak level 99.1 %
     Track quality 100.0 %
     Test CRC A3DB1C7C
     Copy CRC A3DB1C7C
     Copy OK

Track  3

     Filename B:\Levi\Music\Hollow Crown FLAC\03 Numbers Count For Nothing.wav

     Peak level 99.1 %
     Track quality 100.0 %
     Test CRC D051F5CA
     Copy CRC D051F5CA
     Copy OK

Track  4

     Filename B:\Levi\Music\Hollow Crown FLAC\04 Follow The Water.wav

     Peak level 99.1 %
     Track quality 100.0 %
     Test CRC EB35CC3C
     Copy CRC EB35CC3C
     Copy OK

Track  5

     Filename B:\Levi\Music\Hollow Crown FLAC\05 In Elegance.wav

     Peak level 99.1 %
     Track quality 100.0 %
     Test CRC 02393BCB
     Copy CRC 02393BCB
     Copy OK

Track  6

     Filename B:\Levi\Music\Hollow Crown FLAC\06 We're All Alone.wav

     Peak level 99.1 %
     Track quality 100.0 %
     Test CRC 976F9FF0
     Copy CRC 976F9FF0
     Copy OK

Track  7

     Filename B:\Levi\Music\Hollow Crown FLAC\07 Borrowed Time.wav

     Peak level 99.1 %
     Track quality 100.0 %
     Test CRC 71AAF19A
     Copy CRC 71AAF19A
     Copy OK

Track  8

     Filename B:\Levi\Music\Hollow Crown FLAC\08 Every Last Breath.wav

     Peak level 99.1 %
     Track quality 100.0 %
     Test CRC 47BAD44E
     Copy CRC 47BAD44E
     Copy OK

Track  9

     Filename B:\Levi\Music\Hollow Crown FLAC\09 One Of These Days.wav

     Peak level 99.1 %
     Track quality 100.0 %
     Test CRC 3652CD73
     Copy CRC 3652CD73
     Copy OK

Track 10

     Filename B:\Levi\Music\Hollow Crown FLAC\10 Dead March.wav

     Peak level 99.1 %
     Track quality 100.0 %
     Test CRC D8AD127E
     Copy CRC D8AD127E
     Copy OK

Track 11

     Filename B:\Levi\Music\Hollow Crown FLAC\11 Left With A Last Minute.wav

     Peak level 99.1 %
     Track quality 100.0 %
     Test CRC 2D3D42FE
     Copy CRC 2D3D42FE
     Copy OK

Track 12

     Filename B:\Levi\Music\Hollow Crown FLAC\12 Hollow Crown.wav

     Peak level 99.1 %
     Track quality 100.0 %
     Test CRC 6CEA84A8
     Copy CRC 6CEA84A8
     Copy OK

Track 13

     Filename B:\Levi\Music\Hollow Crown FLAC\13 To The Death (2008).wav

     Peak level 98.8 %
     Track quality 100.0 %
     Test CRC 0BFE3CB6
     Copy CRC 0BFE3CB6
     Copy OK

No errors occurred

End of status report

Код:
Код: Выделить всё
-----------------------

DON'T MODIFY THIS FILE

-----------------------

PERFORMER: auCDtect Task Manager, ver. 1.5.1RC6 build 1.5.1.7
Copyright (c) 2008-2010 y-soft. All rights reserved
http:/y-soft.org

ANALYZER: auCDtect: CD records authenticity detector, version 0.8.2
Copyright (c) 2004 Oleg Berngardt. All rights reserved.
Copyright (c) 2004 Alexander Djourik. All rights reserved.

FILE: 13. Architects - To The Death (2008).flac
  Size: 21177972 Hash: 84F0A452D35FD0188FA5AF434603F5B3 Accuracy: -m0
  Conclusion: CDDA 100%
  Signature: 737A6859191F70629A3F6596AC58AE8F456DBFAE
FILE: 12. Architects - Hollow Crown.flac
  Size: 34872659 Hash: E0D389AC028DC5F145372CC7E7A4431E Accuracy: -m0
  Conclusion: CDDA 100%
  Signature: 232098615830E6B0E6246FCA0A130EBB084674F7
FILE: 11. Architects - Left With A Last Minute.flac
  Size: 25389890 Hash: 75D9486E1531B1D2960B5848184613FC Accuracy: -m0
  Conclusion: CDDA 100%
  Signature: CE0894BA908F22A1957A76D6B0CC76356A0A9220
FILE: 10. Architects - Dead March.flac
  Size: 31562503 Hash: 70530096A9AF7A2F0F9D9D31F67924AC Accuracy: -m0
  Conclusion: CDDA 99%
  Signature: DEC307A3057520CE45C6D181E2788646384DB019
FILE: 09. Architects - One Of These Days.flac
  Size: 22140039 Hash: 0C75D2FE25A80F5472D866F24A3C4A37 Accuracy: -m0
  Conclusion: CDDA 99%
  Signature: 2968514D592DDEF8D4A7D802463A23D9758D318D
FILE: 08. Architects - Every Last Breath.flac
  Size: 29940955 Hash: 8FDA2EA70C43E9BA40BC796E374DD735 Accuracy: -m0
  Conclusion: CDDA 100%
  Signature: E3D2ABA1FB1772377F323B18FF603EF2E412BC2A
FILE: 07. Architects - Borrowed Time.flac
  Size: 21730890 Hash: 6F3EB76FAE64238A747D9E98D9CD125A Accuracy: -m0
  Conclusion: CDDA 99%
  Signature: BEC3DF546F2E4348CD5CBF0A522A0C8CE077E045
FILE: 06. Architects - We're All Alone.flac
  Size: 25954926 Hash: 1CA82D5EEADE484EF7EE476D90986C71 Accuracy: -m0
  Conclusion: CDDA 100%
  Signature: 0BC46F024DE872A49591F803D00098B93F5CCAE2
FILE: 05. Architects - In Elegance.flac
  Size: 36052241 Hash: D52A62172C0D3E83200F86750C874AF6 Accuracy: -m0
  Conclusion: CDDA 100%
  Signature: 37F19FA36885A013EC4E24DB2D4DD6F1E7E2944C
FILE: 04. Architects - Follow The Water.flac
  Size: 31569187 Hash: 7AC901E36A4652C6CF4F5028AEEE5D5B Accuracy: -m0
  Conclusion: CDDA 99%
  Signature: E43E8D8C4C8C7F67F927B8CD28EC1EB92F1B2502
FILE: 03. Architects - Numbers Count For Nothing.flac
  Size: 32231010 Hash: 2964D3F93ADFF9A4E3C7C36EEBB6FA3B Accuracy: -m0
  Conclusion: CDDA 100%
  Signature: DD2458EB285936B0251D53C9D96C8B5A97C0579F
FILE: 02. Architects - Dethroned.flac
  Size: 26648338 Hash: 80E6C4F330B91646612365974A6125AF Accuracy: -m0
  Conclusion: CDDA 100%
  Signature: BF59A102702DFC3E4E2AE2D787257BB20A058D1D
FILE: 01. Architects - Early Grave.flac
  Size: 30322249 Hash: 3D0E4872D9E67678A5DABB4FF2A1E631 Accuracy: -m0
  Conclusion: CDDA 100%
  Signature: D1CFEE39D78A41FE70DE76047DB95F51DAE520B8


#777>>> Треклист: <<<
----------------------------------------------------------------------------
01. Day In Day Out
02. Learn To Live
03. Delete, Rewind.
04. Btn
05. An Open Letter To Myself
06. The Blues
07. Red Eyes
08. Stay Young Forever
09. Heartburn
10. Year In Year Out/Up And Away
11. Devil's Island
12. Untitled
13. Day In Day Out (Big Chocolate Remix)
----------------------------------------------------------------------------
>>> Продолжительность: 00:51:38 >>>


Код:
Код: Выделить всё
Exact Audio Copy V1.0 beta 3 from 29. August 2011

EAC extraction logfile from 24. February 2012, 16:28

Architects / The Here And Now

Used drive  : PLDS    DVD-ROM DH-16D2S   Adapter: 2  ID: 0

Read mode               : Secure
Utilize accurate stream : Yes
Defeat audio cache      : Yes
Make use of C2 pointers : No

Read offset correction                      : 6
Overread into Lead-In and Lead-Out          : No
Fill up missing offset samples with silence : Yes
Delete leading and trailing silent blocks   : No
Null samples used in CRC calculations       : Yes
Used interface                              : Native Win32 interface for Win NT & 2000
Gap handling                                : Appended to previous track

Used output format              : User Defined Encoder
Selected bitrate                : 1024 kBit/s
Quality                         : High
Add ID3 tag                     : No
Command line compressor         : C:\Program Files\Exact Audio Copy\Flac\flac.exe
Additional command line options : -8 -V %source% -o %dest%

TOC of the extracted CD

     Track |   Start  |  Length  | Start sector | End sector
    ---------------------------------------------------------
        1  |  0:00.00 |  3:10.30 |         0    |    14279
        2  |  3:10.30 |  4:01.37 |     14280    |    32391
        3  |  7:11.67 |  3:08.33 |     32392    |    46524
        4  | 10:20.25 |  3:57.64 |     46525    |    64363
        5  | 14:18.14 |  3:16.06 |     64364    |    79069
        6  | 17:34.20 |  3:16.62 |     79070    |    93831
        7  | 20:51.07 |  4:16.74 |     93832    |   113105
        8  | 25:08.06 |  3:02.37 |    113106    |   126792
        9  | 28:10.43 |  3:37.05 |    126793    |   143072
       10  | 31:47.48 |  7:27.63 |    143073    |   176660
       11  | 39:15.36 |  4:07.25 |    176661    |   195210
       12  | 43:22.61 |  3:28.64 |    195211    |   210874
       13  | 46:51.50 |  4:46.68 |    210875    |   232392

Track  1

     Filename D:\FiH\Architects-The_Here_And_Now-Special_Edition-CD-FLAC-2012-FiH\01-Architects-Day_In_Day_Out.wav

     Pre-gap length  0:00:02.00

     Peak level 99.1 %
     Extraction speed 3.5 X
     Track quality 100.0 %
     Test CRC 4767C267
     Copy CRC 4767C267
     Track not present in AccurateRip database
     Copy OK

Track  2

     Filename D:\FiH\Architects-The_Here_And_Now-Special_Edition-CD-FLAC-2012-FiH\02-Architects-Learn_To_Live.wav

     Peak level 99.1 %
     Extraction speed 4.0 X
     Track quality 100.0 %
     Test CRC BB1009FF
     Copy CRC BB1009FF
     Track not present in AccurateRip database
     Copy OK

Track  3

     Filename D:\FiH\Architects-The_Here_And_Now-Special_Edition-CD-FLAC-2012-FiH\03-Architects-Delete,_Rewind..wav

     Peak level 99.1 %
     Extraction speed 4.1 X
     Track quality 100.0 %
     Test CRC F8CE017E
     Copy CRC F8CE017E
     Track not present in AccurateRip database
     Copy OK

Track  4

     Filename D:\FiH\Architects-The_Here_And_Now-Special_Edition-CD-FLAC-2012-FiH\04-Architects-Btn.wav

     Peak level 99.1 %
     Extraction speed 4.6 X
     Track quality 100.0 %
     Test CRC 336E58CB
     Copy CRC 336E58CB
     Track not present in AccurateRip database
     Copy OK

Track  5

     Filename D:\FiH\Architects-The_Here_And_Now-Special_Edition-CD-FLAC-2012-FiH\05-Architects-An_Open_Letter_To_Myself.wav

     Pre-gap length  0:00:00.76

     Peak level 99.1 %
     Extraction speed 4.8 X
     Track quality 100.0 %
     Test CRC 35346EB1
     Copy CRC 35346EB1
     Track not present in AccurateRip database
     Copy OK

Track  6

     Filename D:\FiH\Architects-The_Here_And_Now-Special_Edition-CD-FLAC-2012-FiH\06-Architects-The_Blues.wav

     Peak level 99.1 %
     Extraction speed 5.0 X
     Track quality 100.0 %
     Test CRC A31C5623
     Copy CRC A31C5623
     Track not present in AccurateRip database
     Copy OK

Track  7

     Filename D:\FiH\Architects-The_Here_And_Now-Special_Edition-CD-FLAC-2012-FiH\07-Architects-Red_Eyes.wav

     Peak level 99.1 %
     Extraction speed 4.4 X
     Track quality 99.9 %
     Test CRC 6012140B
     Copy CRC 6012140B
     Track not present in AccurateRip database
     Copy OK

Track  8

     Filename D:\FiH\Architects-The_Here_And_Now-Special_Edition-CD-FLAC-2012-FiH\08-Architects-Stay_Young_Forever.wav

     Peak level 99.1 %
     Extraction speed 5.5 X
     Track quality 100.0 %
     Test CRC 21FB0474
     Copy CRC 21FB0474
     Track not present in AccurateRip database
     Copy OK

Track  9

     Filename D:\FiH\Architects-The_Here_And_Now-Special_Edition-CD-FLAC-2012-FiH\09-Architects-Heartburn.wav

     Peak level 99.1 %
     Extraction speed 5.8 X
     Track quality 100.0 %
     Test CRC 5776AA67
     Copy CRC 5776AA67
     Track not present in AccurateRip database
     Copy OK

Track 10

     Filename D:\FiH\Architects-The_Here_And_Now-Special_Edition-CD-FLAC-2012-FiH\10-Architects-Year_In_Year_Out-Up_And_Away.wav

     Peak level 99.1 %
     Extraction speed 5.8 X
     Track quality 99.9 %
     Test CRC 5E6D891A
     Copy CRC 5E6D891A
     Track not present in AccurateRip database
     Copy OK

Track 11

     Filename D:\FiH\Architects-The_Here_And_Now-Special_Edition-CD-FLAC-2012-FiH\11-Architects-Devil's_Island.wav

     Peak level 99.9 %
     Extraction speed 5.2 X
     Track quality 99.9 %
     Test CRC BF4A3EE5
     Copy CRC BF4A3EE5
     Track not present in AccurateRip database
     Copy OK

Track 12

     Filename D:\FiH\Architects-The_Here_And_Now-Special_Edition-CD-FLAC-2012-FiH\12-Architects-Untitled.wav

     Peak level 99.9 %
     Extraction speed 6.6 X
     Track quality 100.0 %
     Test CRC 7009816B
     Copy CRC 7009816B
     Track not present in AccurateRip database
     Copy OK

Track 13

     Filename D:\FiH\Architects-The_Here_And_Now-Special_Edition-CD-FLAC-2012-FiH\13-Architects-Day_In_Day_Out_(Big_Chocolate_Remix).wav

     Peak level 98.4 %
     Extraction speed 7.2 X
     Track quality 100.0 %
     Test CRC D81EFBE6
     Copy CRC D81EFBE6
     Track not present in AccurateRip database
     Copy OK

None of the tracks are present in the AccurateRip database

No errors occurred

End of status report

==== Log checksum 09EE0CBB4494E5AFF4F09236B931E25E3002EF48C5AAE84C3D6898F426C2D5B8 ====

Код:
Код: Выделить всё
-----------------------

DON'T MODIFY THIS FILE

-----------------------

PERFORMER: auCDtect Task Manager, ver. 1.5.1RC6 build 1.5.1.7
Copyright (c) 2008-2010 y-soft. All rights reserved
http:/y-soft.org

ANALYZER: auCDtect: CD records authenticity detector, version 0.8.2
Copyright (c) 2004 Oleg Berngardt. All rights reserved.
Copyright (c) 2004 Alexander Djourik. All rights reserved.

FILE: 13. Architects - Day In Day Out (Big Chocolate Remix).flac
  Size: 33979633 Hash: 49BB36F608DF5D09C6349EF7A0C332AC Accuracy: -m0
  Conclusion: CDDA 100%
  Signature: E1744C419F9DFE000BEC6C53B84DA21D8E50FB3D
FILE: 12. Architects - Untitled.flac
  Size: 23198177 Hash: 9D955F1B009FF2486B30E2AA7B8436E9 Accuracy: -m0
  Conclusion: CDDA 100%
  Signature: 4719869214C6C53487D1E8170F0C767B19098628
FILE: 11. Architects - Devil's Island.flac
  Size: 30434152 Hash: 72AC372EF91DAE24640F82F8F5D03856 Accuracy: -m0
  Conclusion: CDDA 100%
  Signature: 9B0F3309F1FBA558937857477F230F2A25277450
FILE: 10. Architects - Year In Year Out_Up And Away.flac
  Size: 50810192 Hash: A4D4ED67B8921F061D58640BB9669DA1 Accuracy: -m0
  Conclusion: CDDA 100%
  Signature: 093738FA7686246108CD63EA70A91E2884DAF599
FILE: 09. Architects - Heartburn.flac
  Size: 26254330 Hash: A8AEFB87C4D06EBC5A9D3C8395EA350C Accuracy: -m0
  Conclusion: CDDA 100%
  Signature: 2A23010D830EE0525B75E13CEB935026D55B9394
FILE: 08. Architects - Stay Young Forever.flac
  Size: 24753103 Hash: EA5FC9D8A0152B3340F8FF0C0E7BD141 Accuracy: -m0
  Conclusion: CDDA 99%
  Signature: B2EC2BD03284A0AFE0CCA4C7DC65C80358FCFC8D
FILE: 07. Architects - Red Eyes.flac
  Size: 32030350 Hash: 440C8496EAA8BCE18777D6B812F11B79 Accuracy: -m0
  Conclusion: CDDA 100%
  Signature: AE611982971D762A49159B42C5B4A0B3BD1C23E0
FILE: 06. Architects - The Blues.flac
  Size: 26245517 Hash: 214AD9CD0C54B8AD931E1036CF6F01D1 Accuracy: -m0
  Conclusion: CDDA 100%
  Signature: 8061EE0D94DB6D6E1D5B4205ECD0099F34EA8528
FILE: 05. Architects - An Open Letter To Myself.flac
  Size: 23649901 Hash: 2474FB7F48B198A76F70F2FF441E2328 Accuracy: -m0
  Conclusion: CDDA 100%
  Signature: 1CFBBE3F943EAB6E591F1B1A6830F0518C40F116
FILE: 04. Architects - Btn.flac
  Size: 31461749 Hash: AE983711E155709CC82FC0D097E4B083 Accuracy: -m0
  Conclusion: CDDA 100%
  Signature: F5AED1684467F2AB864F450ADE643F5D56397861
FILE: 03. Architects - Delete, Rewind.flac
  Size: 25938572 Hash: 1FC181D789C23A629AD75BB483118E58 Accuracy: -m0
  Conclusion: CDDA 100%
  Signature: 763B9E34B29330F2A29B34806C276820922C3F0E
FILE: 02. Architects - Learn To Live.flac
  Size: 32509817 Hash: 4264BA273CED865874375BB9CDDFD41D Accuracy: -m0
  Conclusion: CDDA 100%
  Signature: C7FF97EAD8F76D10B253DE070C6A6E1067752431
FILE: 01. Architects - Day In Day Out.flac
  Size: 26762966 Hash: 02A746ED8065AC59C56C4D72953D9401 Accuracy: -m0
  Conclusion: CDDA 100%
  Signature: 60364350C631C01DDEA46C8BD0EA83F162CC5CBD


#777>>> Треклист: <<<
----------------------------------------------------------------------------
01. The Bitter End
02. Alpha Omega
03. These Colours Don't Run
04. Daybreak
05. Truth, Be Told
06. Even If You Win, You're Still a Rat
07. Outsider Heart
08. Behind the Throne
09. Devil's Island
10. Feather Of Lead
11. Unbeliever
12. Cracks in the Earth
13. Rise Against
14. Untitled
----------------------------------------------------------------------------
>>> Продолжительность: 00:52:12 >>>


Код:
Код: Выделить всё
Exact Audio Copy V1.0 beta 3 from 29. August 2011

EAC extraction logfile from 19. June 2012, 13:08

Architects / Daybreaker

Used drive  : TSSTcorpCDDVDW TS-L633C   Adapter: 1  ID: 0

Read mode               : Secure
Utilize accurate stream : Yes
Defeat audio cache      : Yes
Make use of C2 pointers : No

Read offset correction                      : 6
Overread into Lead-In and Lead-Out          : No
Fill up missing offset samples with silence : Yes
Delete leading and trailing silent blocks   : No
Null samples used in CRC calculations       : Yes
Used interface                              : Native Win32 interface for Win NT & 2000
Gap handling                                : Appended to previous track

Used output format              : User Defined Encoder
Selected bitrate                : 1024 kBit/s
Quality                         : High
Add ID3 tag                     : No
Command line compressor         : C:\Program Files (x86)\Exact Audio Copy\Flac\flac.exe
Additional command line options : -V -8 -T "Date=%year%" -T "Genre=%genre%" %source%

TOC of the extracted CD

     Track |   Start  |  Length  | Start sector | End sector
    ---------------------------------------------------------
        1  |  0:00.00 |  2:55.06 |         0    |    13130
        2  |  2:55.06 |  3:55.71 |     13131    |    30826
        3  |  6:51.02 |  4:01.29 |     30827    |    48930
        4  | 10:52.31 |  3:32.69 |     48931    |    64899
        5  | 14:25.25 |  4:31.19 |     64900    |    85243
        6  | 18:56.44 |  3:12.48 |     85244    |    99691
        7  | 22:09.17 |  3:27.74 |     99692    |   115290
        8  | 25:37.16 |  4:08.49 |    115291    |   133939
        9  | 29:45.65 |  4:06.65 |    133940    |   152454
       10  | 33:52.55 |  2:50.32 |    152455    |   165236
       11  | 36:43.12 |  4:45.74 |    165237    |   186685
       12  | 41:29.11 |  3:22.06 |    186686    |   201841
       13  | 44:51.17 |  3:51.66 |    201842    |   219232
       14  | 48:43.08 |  3:29.00 |    219233    |   234907

Track  1

     Filename E:\Architects - Daybreaker (Japan) (2012)\01 - The Bitter End.wav

     Pre-gap length  0:00:02.00

     Peak level 97.7 %
     Extraction speed 2.4 X
     Track quality 100.0 %
     Test CRC CAFD4A29
     Copy CRC CAFD4A29
     Track not present in AccurateRip database
     Copy OK

Track  2

     Filename E:\Architects - Daybreaker (Japan) (2012)\02 - Alpha Omega.wav

     Peak level 97.7 %
     Extraction speed 2.8 X
     Track quality 100.0 %
     Test CRC 978D342E
     Copy CRC 978D342E
     Track not present in AccurateRip database
     Copy OK

Track  3

     Filename E:\Architects - Daybreaker (Japan) (2012)\03 - These Colours Don't Run.wav

     Peak level 97.7 %
     Extraction speed 2.9 X
     Track quality 100.0 %
     Test CRC 3355F826
     Copy CRC 3355F826
     Track not present in AccurateRip database
     Copy OK

Track  4

     Filename E:\Architects - Daybreaker (Japan) (2012)\04 - Daybreak.wav

     Peak level 97.7 %
     Extraction speed 3.0 X
     Track quality 100.0 %
     Test CRC 9043D13C
     Copy CRC 9043D13C
     Track not present in AccurateRip database
     Copy OK

Track  5

     Filename E:\Architects - Daybreaker (Japan) (2012)\05 - Truth, Be Told.wav

     Peak level 97.7 %
     Extraction speed 2.5 X
     Track quality 99.9 %
     Test CRC D66F1E8C
     Copy CRC D66F1E8C
     Track not present in AccurateRip database
     Copy OK

Track  6

     Filename E:\Architects - Daybreaker (Japan) (2012)\06 - Even If You Win, You're Still a Rat.wav

     Peak level 97.7 %
     Extraction speed 2.4 X
     Track quality 100.0 %
     Test CRC 3B400DA1
     Copy CRC 3B400DA1
     Track not present in AccurateRip database
     Copy OK

Track  7

     Filename E:\Architects - Daybreaker (Japan) (2012)\07 - Outsider Heart.wav

     Peak level 100.0 %
     Extraction speed 2.7 X
     Track quality 100.0 %
     Test CRC 2E6F6E26
     Copy CRC 2E6F6E26
     Track not present in AccurateRip database
     Copy OK

Track  8

     Filename E:\Architects - Daybreaker (Japan) (2012)\08 - Behind the Throne.wav

     Peak level 97.7 %
     Extraction speed 2.5 X
     Track quality 99.9 %
     Test CRC D7A8DEB3
     Copy CRC D7A8DEB3
     Track not present in AccurateRip database
     Copy OK

Track  9

     Filename E:\Architects - Daybreaker (Japan) (2012)\09 - Devil's Island.wav

     Peak level 97.7 %
     Extraction speed 3.2 X
     Track quality 100.0 %
     Test CRC 376E3709
     Copy CRC 376E3709
     Track not present in AccurateRip database
     Copy OK

Track 10

     Filename E:\Architects - Daybreaker (Japan) (2012)\10 - Feather Of Lead.wav

     Peak level 97.7 %
     Extraction speed 3.2 X
     Track quality 100.0 %
     Test CRC FA345A76
     Copy CRC FA345A76
     Track not present in AccurateRip database
     Copy OK

Track 11

     Filename E:\Architects - Daybreaker (Japan) (2012)\11 - Unbeliever.wav

     Peak level 97.7 %
     Extraction speed 3.6 X
     Track quality 100.0 %
     Test CRC 7E824364
     Copy CRC 7E824364
     Track not present in AccurateRip database
     Copy OK

Track 12

     Filename E:\Architects - Daybreaker (Japan) (2012)\12 - Cracks in the Earth.wav

     Peak level 97.7 %
     Extraction speed 3.3 X
     Track quality 100.0 %
     Test CRC 82615EDA
     Copy CRC 82615EDA
     Track not present in AccurateRip database
     Copy OK

Track 13

     Filename E:\Architects - Daybreaker (Japan) (2012)\13 - Rise Against.wav

     Peak level 97.7 %
     Extraction speed 2.9 X
     Track quality 100.0 %
     Test CRC 216559EF
     Copy CRC 216559EF
     Track not present in AccurateRip database
     Copy OK

Track 14

     Filename E:\Architects - Daybreaker (Japan) (2012)\14 - Untitled.wav

     Peak level 99.9 %
     Extraction speed 2.1 X
     Track quality 100.0 %
     Test CRC 66523892
     Copy CRC 66523892
     Track not present in AccurateRip database
     Copy OK

None of the tracks are present in the AccurateRip database

No errors occurred

End of status report

==== Log checksum 88C90A4E4A9445328B875583D9F386F21E00288CBDF36991EB24C141FF676BBC ====

Код:
Код: Выделить всё
-----------------------

DON'T MODIFY THIS FILE

-----------------------

PERFORMER: auCDtect Task Manager, ver. 1.5.1RC6 build 1.5.1.7
Copyright (c) 2008-2010 y-soft. All rights reserved
http:/y-soft.org

ANALYZER: auCDtect: CD records authenticity detector, version 0.8.2
Copyright (c) 2004 Oleg Berngardt. All rights reserved.
Copyright (c) 2004 Alexander Djourik. All rights reserved.

FILE: 14. Architects - Untitled.flac
  Size: 23112885 Hash: B64DF209922CAAE4DCE39EBB156DBC0A Accuracy: -m0
  Conclusion: CDDA 100%
  Signature: 997785C0AE3B5F0D1C886D9CCAA8DEA0EB93DC5E
FILE: 13. Architects - Rise Against.flac
  Size: 28071704 Hash: A3F21600B441F9B0F8C3E78FECBFE6E8 Accuracy: -m0
  Conclusion: CDDA 100%
  Signature: E268E30CA59AD67EF0C108096E56C4CD05E2972F
FILE: 12. Architects - Cracks in the Earth.flac
  Size: 24416650 Hash: 3A2CE7558728AAC4FA401CFC9DC89802 Accuracy: -m0
  Conclusion: CDDA 100%
  Signature: 3A7E170F8573271959EA79D1285852AC56E6B78B
FILE: 11. Architects - Unbeliever.flac
  Size: 32307660 Hash: EED9C8C863DB565BFAB13468A55CB456 Accuracy: -m0
  Conclusion: CDDA 100%
  Signature: 90128CD14FDDA38256A24BF69465E6C976F62D44
FILE: 10. Architects - Feather Of Lead.flac
  Size: 21351196 Hash: B11059CB4F1EBA2AFA77AC6552111CE4 Accuracy: -m0
  Conclusion: CDDA 100%
  Signature: 7B60D2DDCE6BE5AD135051A81F3474D2997AD4D2
FILE: 09. Architects - Devil's Island.flac
  Size: 30805166 Hash: AAFFDF47D86A28B7D32CFD6AF7726D89 Accuracy: -m0
  Conclusion: CDDA 99%
  Signature: 44D1BF300C65FB625DB60936DD18F8024D676A09
FILE: 08. Architects - Behind the Throne.flac
  Size: 26071759 Hash: BD41480B0EB04D8E562F6A717A34004C Accuracy: -m0
  Conclusion: CDDA 100%
  Signature: 04DBB00DC2B39821E8205E880843CFEA29D7DADE
FILE: 07. Architects - Outsider Heart.flac
  Size: 27084986 Hash: 1A5FD7C3917AB7B839DEFE058E0F7132 Accuracy: -m0
  Conclusion: CDDA 100%
  Signature: AF99E76D20C581FC76AC3B047649E386588E2843
FILE: 06. Architects - Even If You Win, You're Still a Rat.flac
  Size: 23966456 Hash: 3035BC526D74DA734D0D8BBE8B3C5D5F Accuracy: -m0
  Conclusion: CDDA 100%
  Signature: EDBE4953105DFC3809E3D64EB373090DE82340FB
FILE: 05. Architects - Truth, Be Told.flac
  Size: 33775439 Hash: 7BE65EF9162EEAF3E28A09A8BEED98EB Accuracy: -m0
  Conclusion: CDDA 100%
  Signature: FC499D097135A6799C0F4FC4E4D5603ED8AECA8C
FILE: 04. Architects - Daybreak.flac
  Size: 28061971 Hash: ED0E382C644C2FEE3A2E563CB314AD88 Accuracy: -m0
  Conclusion: CDDA 99%
  Signature: 315F0BF34E0993456FE1F6B4324A70B9E9B47BEC
FILE: 03. Architects - These Colours Don't Run.flac
  Size: 30452099 Hash: 1BD8106EA11D50B007D733E7491035DC Accuracy: -m0
  Conclusion: CDDA 100%
  Signature: CF188ABB46A91C06A6A226FB9C0EFFE8E46784DB
FILE: 02. Architects - Alpha Omega.flac
  Size: 31044887 Hash: 55B2EE165BB21EBD81A0ACCF74347E21 Accuracy: -m0
  Conclusion: CDDA 100%
  Signature: 1F4D23BF3CA3AF93AD8966D21D45C8A7F93A7AF1
FILE: 01. Architects - The Bitter End.flac
  Size: 20542402 Hash: 5C5097C4C3128EDBE2B179D46EF39A43 Accuracy: -m0
  Conclusion: CDDA 100%
  Signature: F4CAE2998E012867372C17E5BA1CDA438B1FBAF2


#777Треклист:

---------------------------------------
01. Gravedigger
02. Naysayer
03. Broken Cross
04. The Devil Is Near
05. Dead Man Talking
06. Red Hypergiant
07. C.A.N.C.E.R
08. Colony Collapse
09. Castles in the Air
10. Youth Is Wasted on the Young
11. The Distant Blue

Продолжительность: 00:43:11


Код:
Код: Выделить всё
Exact Audio Copy V1.0 beta 3 from 29. August 2011

EAC extraction logfile from 6. March 2014, 18:31

Architects / Lost Forever / Lost Together

Used drive  : HL-DT-STDVD-ROM GDR8163B   Adapter: 0  ID: 1

Read mode               : Secure
Utilize accurate stream : Yes
Defeat audio cache      : Yes
Make use of C2 pointers : No

Read offset correction                      : 102
Overread into Lead-In and Lead-Out          : No
Fill up missing offset samples with silence : Yes
Delete leading and trailing silent blocks   : No
Null samples used in CRC calculations       : Yes
Used interface                              : Native Win32 interface for Win NT & 2000
Gap handling                                : Appended to previous track

Used output format              : User Defined Encoder
Selected bitrate                : 1024 kBit/s
Quality                         : High
Add ID3 tag                     : No
Command line compressor         : C:\Programme\Exact Audio Copy\Flac\flac.exe
Additional command line options : -8 -V -T "ARTIST=%artist%" -T "TITLE=%title%" -T "ALBUM=%albumtitle%" -T "DATE=%year%" -T "TRACKNUMBER=%tracknr%" -T "GENRE=%genre%" -T "PERFORMER=%albuminterpret%" -T "COMPOSER=%composer%" %haslyrics%--tag-from-file=LYRICS="%lyricsfile%"%haslyrics% -T "ALBUMARTIST=%albumartist%" -T "DISCNUMBER=%cdnumber%" -T "TOTALDISCS=%totalcds%" -T "TOTALTRACKS=%numtracks%" -T "COMMENT=%comment%" %source% -o %dest%

TOC of the extracted CD

     Track |   Start  |  Length  | Start sector | End sector
    ---------------------------------------------------------
        1  |  0:00.00 |  4:05.18 |         0    |    18392
        2  |  4:05.18 |  3:26.24 |     18393    |    33866
        3  |  7:31.42 |  3:53.70 |     33867    |    51411
        4  | 11:25.37 |  3:35.22 |     51412    |    67558
        5  | 15:00.59 |  4:04.13 |     67559    |    85871
        6  | 19:04.72 |  2:08.05 |     85872    |    95476
        7  | 21:13.02 |  4:20.15 |     95477    |   114991
        8  | 25:33.17 |  4:32.32 |    114992    |   135423
        9  | 30:05.49 |  3:43.45 |    135424    |   152193
       10  | 33:49.19 |  4:09.46 |    152194    |   170914
       11  | 37:58.65 |  5:12.32 |    170915    |   194346

Track  1

     Filename C:\EAC What\01 - Gravedigger.wav

     Pre-gap length  0:00:02.00

     Peak level 100.0 %
     Extraction speed 4.0 X
     Track quality 100.0 %
     Test CRC 790975F4
     Copy CRC 790975F4
     Track not present in AccurateRip database
     Copy OK

Track  2

     Filename C:\EAC What\02 - Naysayer.wav

     Peak level 100.0 %
     Extraction speed 4.3 X
     Track quality 100.0 %
     Test CRC 03ED1183
     Copy CRC 03ED1183
     Track not present in AccurateRip database
     Copy OK

Track  3

     Filename C:\EAC What\03 - Broken Cross.wav

     Pre-gap length  0:00:00.65

     Peak level 100.0 %
     Extraction speed 4.7 X
     Track quality 100.0 %
     Test CRC AA901FE6
     Copy CRC AA901FE6
     Track not present in AccurateRip database
     Copy OK

Track  4

     Filename C:\EAC What\04 - The Devil Is Near.wav

     Pre-gap length  0:00:00.98

     Peak level 100.0 %
     Extraction speed 5.0 X
     Track quality 100.0 %
     Test CRC 0AC0282F
     Copy CRC 0AC0282F
     Track not present in AccurateRip database
     Copy OK

Track  5

     Filename C:\EAC What\05 - Dead Man Talking.wav

     Peak level 100.0 %
     Extraction speed 5.4 X
     Track quality 100.0 %
     Test CRC 33CF2C75
     Copy CRC 33CF2C75
     Track not present in AccurateRip database
     Copy OK

Track  6

     Filename C:\EAC What\06 - Red Hypergiant.wav

     Peak level 100.0 %
     Extraction speed 5.0 X
     Track quality 100.0 %
     Test CRC 62C3F868
     Copy CRC 62C3F868
     Track not present in AccurateRip database
     Copy OK

Track  7

     Filename C:\EAC What\07 - C.A.N.C.E.R.wav

     Peak level 100.0 %
     Extraction speed 5.9 X
     Track quality 100.0 %
     Test CRC 55AB91F3
     Copy CRC 55AB91F3
     Track not present in AccurateRip database
     Copy OK

Track  8

     Filename C:\EAC What\08 - Colony Collapse.wav

     Pre-gap length  0:00:00.97

     Peak level 100.0 %
     Extraction speed 5.3 X
     Track quality 100.0 %
     Test CRC EBF6582D
     Copy CRC EBF6582D
     Track not present in AccurateRip database
     Copy OK

Track  9

     Filename C:\EAC What\09 - Castles in the Air.wav

     Pre-gap length  0:00:00.98

     Peak level 100.0 %
     Extraction speed 6.4 X
     Track quality 100.0 %
     Test CRC D2907CB1
     Copy CRC D2907CB1
     Track not present in AccurateRip database
     Copy OK

Track 10

     Filename C:\EAC What\10 - Youth Is Wasted on the Young.wav

     Pre-gap length  0:00:00.98

     Peak level 100.0 %
     Extraction speed 6.7 X
     Track quality 100.0 %
     Test CRC 591E1122
     Copy CRC 591E1122
     Track not present in AccurateRip database
     Copy OK

Track 11

     Filename C:\EAC What\11 - The Distant Blue.wav

     Peak level 100.0 %
     Extraction speed 6.5 X
     Track quality 99.9 %
     Test CRC 33698E08
     Copy CRC 33698E08
     Track not present in AccurateRip database
     Copy OK

None of the tracks are present in the AccurateRip database

No errors occurred

End of status report

---- CUETools DB Plugin V2.1.3

[CTDB TOCID: 8DNT9EUC7HSCuAb_D6Iv0JE4hsA-] disk not present in database, Submit result: 8DNT9EUC7HSCuAb_D6Iv0JE4hsA- has been uploaded

==== Log checksum 2B7E38C68D98B8C479A56714BBCBD5A2B71F5B191943E43211B7B6AC1162983F ====


Код:
Код: Выделить всё
-----------------------

DON'T MODIFY THIS FILE

-----------------------

PERFORMER: auCDtect Task Manager, ver. 1.6.0 RC1 build 1.6.0.1
Copyright (c) 2008-2010 y-soft. All rights reserved
http:/y-soft.org

ANALYZER: auCDtect: CD records authenticity detector, version 0.8.2
Copyright (c) 2004 Oleg Berngardt. All rights reserved.
Copyright (c) 2004 Alexander Djourik. All rights reserved.

FILE: 10. Architects - Youth Is Wasted on the Young.flac
  Size: 33443370 Hash: 41E110B292182EBBA4CE6CCFD74E3D7A Accuracy: -m0
  Conclusion: CDDA 100%
  Signature: 899FD7D281D5EA61EF613F6D34A58B06638BB521
FILE: 09. Architects - Castles in the Air.flac
  Size: 30789967 Hash: 4CDBAB3CB394EA1B642F5BA42622E000 Accuracy: -m0
  Conclusion: CDDA 100%
  Signature: 25FB758CBA80803456F20D6FFB5D6B07D4B43D54
FILE: 08. Architects - Colony Collapse.flac
  Size: 35348627 Hash: D0639804C3D7D9E354EB1ACD4D1587E8 Accuracy: -m0
  Conclusion: CDDA 100%
  Signature: 57D7E50BD30207A2D37EF8F22F22B24232822B16
FILE: 07. Architects - C.A.N.C.E.R.flac
  Size: 35406351 Hash: A01DE58D42AD0E51B2BC03C9AC78BF3C Accuracy: -m0
  Conclusion: CDDA 100%
  Signature: 323719C2590D8763415E91526BCD1DAD8FC6C3AB
FILE: 06. Architects - Red Hypergiant.flac
  Size: 14332828 Hash: 4837B5A46082A4A7846026F6E7D78DBB Accuracy: -m0
  Conclusion: CDDA 100%
  Signature: 7F108E2CBFF97BD771065DD14A77A78D8CCF6B13
FILE: 05. Architects - Dead Man Talking.flac
  Size: 32779941 Hash: 3DCA0FD09EE0BD92AB775EB8F189A9BF Accuracy: -m0
  Conclusion: CDDA 99%
  Signature: 5015FDC6B7F7E76390EE9295688D88887F2ADAB2
FILE: 04. Architects - The Devil Is Near.flac
  Size: 28663883 Hash: 885666707F13C2A282F645512DA89DF8 Accuracy: -m0
  Conclusion: CDDA 100%
  Signature: 0DFA5C15B5100177C35E23B7CC1052101C1BAA9C
FILE: 03. Architects - Broken Cross.flac
  Size: 31087957 Hash: 68123CCADAA046F404B4F63820CD1CF6 Accuracy: -m0
  Conclusion: CDDA 100%
  Signature: 31FC69294F8E86217DBEB0A950F970B9B8A20AC3
FILE: 02. Architects - Naysayer.flac
  Size: 29083469 Hash: 77F477096CEC54DA4FC3F163B4740062 Accuracy: -m0
  Conclusion: CDDA 100%
  Signature: CD618B9AACCB723585925E667CC0F80FC4D49EA1
FILE: 01. Architects - Gravedigger.flac
  Size: 32383242 Hash: 350D38C078CFFCEAEBF94C1C8A40C3C3 Accuracy: -m0
  Conclusion: CDDA 100%
  Signature: 6A21B820B1B981AAF632A25CE6D112DD73DF1543
FILE: 11. Architects - The Distant Blue.flac
  Size: 35254795 Hash: 005D3327AC6E48A6EFC310454A750200 Accuracy: -m0
  Conclusion: CDDA 100%
  Signature: 101AD9AA3DA13ED0CF10C596C912175516C91176



Тип рипа: Tracks+.cue
Аудиокодек: FLAC
Битрейт аудио: lossless
Правила, инструкции, FAQ!!!
Торрент  Добавлен [16 мар 2014, 00:40] Скачать торрент Магнет ссылка
Скачать торрент
29.88 КБ

Статус
Проверен 
 
Размер  1.94 ГБ
Приватный: Нет (DHT включён)
.torrent скачан  11
Как залить торрент? | Как скачать Torrent? | Как смотреть и слушать онлайн?  
Гость
 



Вернуться в Дискографии (Зарубежные)

Кто сейчас на конференции

Сейчас этот форум просматривают: нет зарегистрированных пользователей и гости: 0