Андрей Шевага | Создание инфопродукта 2.0 (2015) WEBRip [H.264/720p]


Статистика раздачи
Размер: 294.49 МБ | Добавлен: 28 дек 2015, 22:48 | Скачали: 3
Сидеров: 10  [0 байт/сек]    Личеров: 6  [0 байт/сек]

Сообщение Гость » 28 дек 2015, 22:48

Андрей Шевага | Создание инфопродукта 2.0 [H.264] (2015) WEBRip [H.264/720p]

Автор (режиссер): Андрей Шевага
Производство: Россия
Жанр: Видеокурс

Описание:
КАК СОЗДАТЬ КАЧЕСТВЕННЫЙ ДЕШЕВЫЙ ИНФОПРОДУКТ ЗА 5 ДНЕЙ, КОТОРЫЙ БУДЕТ ПРИНОСИТЬ ДО 2540$ В МЕСЯЦ И ПРОДАВАТЬСЯ С КОНВЕРСИЕЙ ДО 10%
Это практический 5-дневный курс где дается технология, отшлифованная в бою именитыми интернет предпринимателями, после внедрения которой Ваши покупатели будут писать кипятком и топать ножками с радости от полезности и результативности Вашего нового продукта.

Продолжительность: 00:57:00
Качество видео: WEBRip

Видео: AVC, 1280x720, ~350 kbps
Аудио: AAC, 2 ch, 93 kbps, CBR
Код:
Код: Выделить всё
Видео
Идентификатор                            : 1
Формат                                   : AVC
Формат/Информация                        : Advanced Video Codec
Профиль формата                          :
Параметр CABAC формата                   : Нет
Параметр ReFrames формата                : 3 кадра
Параметр GOP формата                     : M=1, N=25
Идентификатор кодека                     : avc1
Идентификатор кодека/Информация          : Advanced Video Coding
Продолжительность                        : 57 м.
Вид битрейта                             : Переменный
Битрейт                                  : 383 Кбит/сек
Ширина                                   : 1280 пикселей
Высота                                   : 720 пикселей
Соотношение сторон                       : 16:9
Режим частоты кадров                     : Постоянный
Частота кадров                           : 5,000 кадров/сек
Цветовое пространство                    : YUV
Субдискретизация насыщенности            : 4:2:0
Битовая глубина                          : 8 бит
Тип развёртки                            : Прогрессивная
Бит/(Пиксели*Кадры)                      : 0.083
Размер потока                            : 157 Мбайт (55%)
Язык                                     : English
Дата кодирования                         : UTC 2014-12-26 02:41:08
Дата пометки                             : UTC 2014-12-26 02:41:08

Аудио
Идентификатор                            : 2
Формат                                   : AAC
Формат/Информация                        : Advanced Audio Codec
Профиль формата                          : LC
Идентификатор кодека                     : 40
Продолжительность                        : 57 м.
Вид битрейта                             : Переменный
Битрейт                                  : 318 Кбит/сек
Максимальный битрейт                     : 381 Кбит/сек
Каналы                                   : 2 канала
Расположение каналов                     : Front: L R
Частота                                  : 44,1 КГц
Метод сжатия                             : С потерями
Размер потока                            : 130 Мбайт (45%)
Язык                                     : English
Дата кодирования                         : UTC 2014-12-26 02:41:09
Дата пометки                             : UTC 2014-12-26 02:41:09

Скриншоты:



Время раздачи: 24/7 (круглосуточно)
Правила, инструкции, FAQ!!!
Торрент  Добавлен [28 дек 2015, 22:48] Скачать торрент Магнет ссылка
Скачать торрент
12.83 КБ

Статус
Проверен 
 
Размер  294.49 МБ
Приватный: Нет (DHT включён)
.torrent скачан  3
Как залить торрент? | Как скачать Torrent? | Как смотреть и слушать онлайн?  
Гость
 



Вернуться в Интерактивные обучающие и развивающие материалы

Кто сейчас на конференции

Сейчас этот форум просматривают: нет зарегистрированных пользователей и гости: 0