Анастасия / Anastasia (Дон Блат, Гари Голдман) [1997, Мультфильм, Приключения, Семейный, DVD9]


Статистика раздачи
Размер: 4.5 ГБ | Добавлен: 14 мар 2013, 23:47 | Скачали: 1
Сидеров: 1  [0 байт/сек]    Личеров: 0  [0 байт/сек]

Сообщение Гость » 14 мар 2013, 23:47

Анастасия / Anastasia


Русское название: Анастасия
Оригинальное название: Anastasia
Страна: США
Год выпуска: 1997
Жанр: Мультфильм, Приключения, Семейный

Описание фильма:
Анастасия — дочка последнего русского царя Николая, погубленного зловещим Распутиным. Ей удается спастись, добраться вместе с бабушкой до переполненного вокзала и… потеряться в толпе. Проходит десять лет. Анастасия стала взрослой красавицей и теперь хочет попасть в Париж. Сможет ли царевна осуществить задуманное? Ведь Распутин уже поднялся из своей могилы…

Режиссер: Дон Блат, Гари Голдман
Роли озвучивали: Мег Райан, Джон Кьюсак, Келси Грэммер, Кристофер Ллойд, Хэнк Азария, Бернадетт Питерс, Кирстен Данст, Анджела Лэнсбери, Рик Джонс, Андреа Мартин

Продолжительность: 01:34:10
Перевод: Дублированный
Cубтитры: Английский, Русский, Болгарский, Хорватский, Чешский, Венгерский, Польский, Турецкий, Румынский



Дата мировой премьеры: 14 ноября 1997 года
Дата российской премьеры: 13 марта 1998 года
Дата выхода Blu-Ray релиза: 7 апреля 2011 года

Качество видео: DVD9 R 2, 5. Лицензия "Геміні", Украина
Видео: MPEG 2, 720x576 (16:9), 25.000 fps, 7 500 Kbps (0.537 bit/pixel)
Аудио #1: AC-3 Dolby Digital, 48.0 KHz, 2 ch, 192 Kbps, CBR Русский
Аудио #2: AC-3 Dolby Digital, 48.0 KHz, 2 ch, 192 Kbps, CBR Чешский
Аудио #3: AC-3 Dolby Digital, 48.0 KHz, 2 ch, 192 Kbps, CBR Венгерский
Аудио #4: AC-3 Dolby Digital, 48.0 KHz, 2 ch, 192 Kbps, CBR Польский
Аудио #5: AC-3 Dolby Digital, 48.0 KHz, 2 ch, 192 Kbps, CBR Турецкий
Аудио #6: AC-3, 48.0 KHz, 6 ch, 384 Kbps, CBR Английский
Title:
Size: 4.50 Gb ( 4 714 138,00 KBytes ) - DVD-9
Enabled regions: 1, 2, 3, 4, 5, 6, 7, 8
VTS_01 :
Play Length: 01:30:17+00:00:26
Summary Bitrate: ~ 7092.20 kbps avg
Video: PAL 16:9 (720x576) VBR, Auto Letterboxed
Audio:
Czech(Ceske) (Dolby AC3, 2 ch)
English (Dolby AC3, 6 ch)
Magyar (Dolby AC3, 2 ch)
Polish (Dolby AC3, 2 ch)
Russian (Dolby AC3, 2 ch)
Turkish (Dolby AC3, 2 ch)
English (Dolby AC3, 6 ch)
Subtitles:
Bulgarian
Hrvatski
Czech(Ceske)
English
Magyar
Polish
Romanian
Russian
Turkish
Czech(Ceske)
Magyar
Polish
Russian
Turkish
* Menus Information *
VIDEO_TS Menu
Video:
PAL 16:9 (720x576) VBR
Auto Pan&Scan
Language Unit :
Title Menu
VTS_01 Menu
Video:
PAL 16:9 (720x576) VBR
Auto Pan&Scan
English Language Unit :
Root Menu
Видео
Идентификатор : 224 (0xE0)
Формат : MPEG Video
Версия формата : Version 2
Профиль формата : Main@Main
Параметр BVOP формата : Да
Параметр матрицы формата : Выборочная
Параметр GOP формата : M=3, N=15
Продолжительность : 6 м. 17 с.
Вид битрейта : Переменный
Битрейт : 5564 Кбит/сек
Максимальный битрейт : 7500 Кбит/сек
Ширина : 720 пикселей
Высота : 576 пикселей
Соотношение сторон : 16:9
Частота кадров : 25,000 кадров/сек
Стандарт вещания : PAL
Цветовое пространство : YUV
Субдискретизация насыщенности : 4:2:0
Битовая глубина : 8 бит
Тип развёртки : Прогрессивная
Порядок развёртки : Верхнее поле первое
Метод сжатия : С потерями
Бит/(Пиксели*Кадры) : 0.537
Размер потока : 250 Мбайт (79%)

Аудио #1
Идентификатор : 189 (0xBD)-128 (0x80)
Формат : AC-3
Формат/Информация : Audio Coding 3
Профиль формата : Dolby Digital
Расширение режима : CM (complete main)
Параметр Endianness формата : Big
Режим смешивания : DVD-Video
Продолжительность : 6 м. 17 с.
Вид битрейта : Постоянный
Битрейт : 192 Кбит/сек
Каналы : 2 канала
Расположение каналов : Front: L R
Частота : 48,0 КГц
Битовая глубина : 16 бит
Метод сжатия : С потерями
Задержка видео : -168 мс.
Размер потока : 8,64 Мбайт (3%)

Аудио #2
Идентификатор : 189 (0xBD)-129 (0x81)
Формат : AC-3
Формат/Информация : Audio Coding 3
Расширение режима : CM (complete main)
Параметр Endianness формата : Big
Режим смешивания : DVD-Video
Продолжительность : 6 м. 17 с.
Вид битрейта : Постоянный
Битрейт : 384 Кбит/сек
Каналы : 6 каналов
Расположение каналов : Front: L C R, Side: L R, LFE
Частота : 48,0 КГц
Битовая глубина : 16 бит
Метод сжатия : С потерями
Задержка видео : -144 мс.
Размер потока : 17,3 Мбайт (5%)

Аудио #3
Идентификатор : 189 (0xBD)-130 (0x82)
Формат : AC-3
Формат/Информация : Audio Coding 3
Профиль формата : Dolby Digital
Расширение режима : CM (complete main)
Параметр Endianness формата : Big
Режим смешивания : DVD-Video
Продолжительность : 6 м. 17 с.
Вид битрейта : Постоянный
Битрейт : 192 Кбит/сек
Каналы : 2 канала
Расположение каналов : Front: L R
Частота : 48,0 КГц
Битовая глубина : 16 бит
Метод сжатия : С потерями
Задержка видео : -168 мс.
Размер потока : 8,64 Мбайт (3%)

Аудио #4
Идентификатор : 189 (0xBD)-131 (0x83)
Формат : AC-3
Формат/Информация : Audio Coding 3
Профиль формата : Dolby Digital
Расширение режима : CM (complete main)
Параметр Endianness формата : Big
Режим смешивания : DVD-Video
Продолжительность : 6 м. 17 с.
Вид битрейта : Постоянный
Битрейт : 192 Кбит/сек
Каналы : 2 канала
Расположение каналов : Front: L R
Частота : 48,0 КГц
Битовая глубина : 16 бит
Метод сжатия : С потерями
Задержка видео : -168 мс.
Размер потока : 8,64 Мбайт (3%)

Аудио #5
Идентификатор : 189 (0xBD)-132 (0x84)
Формат : AC-3
Формат/Информация : Audio Coding 3
Профиль формата : Dolby Digital
Расширение режима : CM (complete main)
Параметр Endianness формата : Big
Режим смешивания : DVD-Video
Продолжительность : 6 м. 17 с.
Вид битрейта : Постоянный
Битрейт : 192 Кбит/сек
Каналы : 2 канала
Расположение каналов : Front: L R
Частота : 48,0 КГц
Битовая глубина : 16 бит
Метод сжатия : С потерями
Задержка видео : -72 мс.
Размер потока : 8,63 Мбайт (3%)

Аудио #6
Идентификатор : 189 (0xBD)-133 (0x85)
Формат : AC-3
Формат/Информация : Audio Coding 3
Профиль формата : Dolby Digital
Расширение режима : CM (complete main)
Параметр Endianness формата : Big
Режим смешивания : DVD-Video
Продолжительность : 6 м. 17 с.
Вид битрейта : Постоянный
Битрейт : 192 Кбит/сек
Каналы : 2 канала
Расположение каналов : Front: L R
Частота : 48,0 КГц
Битовая глубина : 16 бит
Метод сжатия : С потерями
Задержка видео : -96 мс.
Размер потока : 8,64 Мбайт (3%)

Меню
Оскар, 1998 год
Номинации (2):
Лучшая песня — «Journey To The Past»
Лучший саундтрек к музыкальному/комедийному фильму
Золотой глобус, 1998 год
Номинации (2):
Лучшая песня — «Journey To The Past»
Лучшая песня — «Once Upon A December»
    Мультфильм начинается с костюмированного бала (совмещённого с празднованием 300-летие рода Романовых), который по сюжету происходит в 1916 году. На самом деле этот бал действительно был тринадцатью годами ранее — в 1903 году, и после него таких балов не устраивалось, а 300-летие рода Романовых отмечали в 1913 году.
    Ворота перед Зимним, в которые в начале въезжает Мария Федоровна на самом деле ворота Екатерининского дворца в Пушкине. На верхушке ворот зимнего не буква Е, а двуглавый орёл. Вход во дворец также не имеет ничего общего с Зимним дворцом. Отсутствует Александровская колонна напротив Зимнего Дворца, хотя к тому времени её уже установили.
    Анастасии в 1916 году было не 8 лет, а 15. А в год революции ей было 16 лет.
    Мария Фёдоровна эмигрировала не в Париж, а в Копенгаген.
    Рисунок, который в начале маленькая Анастасия показывает бабушке, — тоже реальный, но Анастасия нарисовала его в 1914 году и подарила не бабушке, а отцу.
    Музыкальная шкатулка существовала и в реальности, но Мария Фёдоровна подарила её Анастасии на её тринадцатилетие. Также вместо танцующих фигурок Николая и Александры у реальной шкатулки была просто серебряная балерина.
    По сюжету Распутин был ненавистником семьи Романовых и желал их смерти, за что Николай его и прогнал. На самом же деле, Распутин никогда не желал смерти Николаю и его семье, а император с ним не конфликтовал.
    По сюжету, Распутин тонет в реке в год революции — в 1917. На самом деле его убили в конце 1916 года.
    Странный собор-небоскреб, показанный в начале панорамного пролёта над Петербургом спустя десять лет после начала действия, отчасти скопирован с храма «Спас на крови». Только тот гораздо меньше по размерам и имеет 9 глав.
    Город на Неве в мультфильме как в 1917 году, так и в 1927 называется Санкт-Петербургом. На самом деле в 1917 году он назывался Петроградом, а в 1927 — Ленинградом.
    Владимира часто называют Владом. Как правило, Влад — это краткая форма имени Владислав.
    Когда показывают портрет царской семьи, у княжен рыжие волосы, на самом деле они шатенки (ближе к шатенкам).
    На большом портрете с Николаем, Александрой и их детьми, который висит в танцевальном зале, слева от Анастасии изображена собака. Это реальный спаниель по кличке Джой, который принадлежал Алексею и был найден живым в доме Ипатьева. Собака Анастасии Джимми тогда не выжила.
    Распутин после смерти находился в чистилище, что соответствует католическому, а не православному вероучению.
    Советские паспорта в 1927 году были не красные, а тёмно-зелёные, при этом использовались только для загранпоездок (паспортная система в СССР была введена только в 1932 году).
    Мост в Париже, на котором разворачивается финальная битва, это мост Александра III — дедушки реальной Анастасии. Мост был назван в его честь после того, как тот в 1870 году посетил Францию с государственным визитом.
Скриншоты:



Правила, инструкции, FAQ!!!
Торрент  Добавлен [14 мар 2013, 23:47] Скачать торрент Магнет ссылка
Скачать торрент
23.73 КБ

Статус
Проверен 
 
Размер  4.5 ГБ
Приватный: Нет (DHT включён)
.torrent скачан  1
Как залить торрент? | Как скачать Torrent? | Как смотреть и слушать онлайн?  
Гость
 



Вернуться в Зарубежные мультфильмы (DVD Video)

Кто сейчас на конференции

Сейчас этот форум просматривают: нет зарегистрированных пользователей и гости: 0