Alexisonfire - 6 albums (2002-2009) Discography [FLAC|Lossless]<Post-Hardcore / Emo-Rock>


Статистика раздачи
Размер: 1.91 ГБ | Добавлен: 16 мар 2014, 00:41 | Скачали: 1
Сидеров: 9  [0 байт/сек]    Личеров: 6  [0 байт/сек]

Сообщение Гость » 16 мар 2014, 00:41

Alexisonfire - Discography (2002-2009)

Годы существования: 2001-2011
Страна: Canada
Жанр: Post-Hardcore / Emo-Rock
Продолжительность всей дискографии: 04:03:17
Кодек: FLAC
Тип рипа: Tracks+.cue
Битрейт: Lossless
Источник: What.cd
Наличие Сканов: Частично

Alexisonfire (произносится как Alexis-on-fire) — музыкальная группа, образованная в городе Сент-Катаринс, Канада в 2001 году. В состав группы входят Джордж Петтит, Даллас Грин, Уэйд МакНил, Крис Стил и Джордан Гастингс.
Сами музыканты описывают свою музыку как «звуки, издаваемые двумя ученицами католической школы, дерущимися на ножах» (ссылаясь на свою песню «A Dagger Through the Heart of St. Angeles», которая также вдохновила их на дизайн обложки дебютного альбома).
В 2011 году группа распадается потому, что Даллас Грин решил больше уделять внимание своему сайд-проекту City and Colour.
#777Треклист:

01 - 44 Caliber Love Letter (4:30)
02 - Counterparts And Number Them (2:19)
03 - Adelleda (5:47)
04 - A Dagger Through The Heart Of St.Angeles (4:12)
05 - Polaroids Of Polar Bears (5:08)
06 - Waterwings(And Other Pool Side Fashion Faux Pas) (2:41)
07 - Where No One Knows (3:13)
08 -The Kennedy Curse (3:39)
09 - Jubella (2:30)
10 - Little Girls Pointing And Laughing (4:55)
11 - Pulmonary Archery (3:23)
Продолжительность: 00:42:15
Издатель: Equal Vision Records
№ по каталогу: B0000B00HY
9 сентября 2002 года в свет вышел первый альбом «Alexisonfire». Сама группа устроила тур в поддержку диска, дважды объехав Канаду и выступив в США и Европе. Коллектив поиграл на одной сцене с такими именитыми коллегами как Billy Talent, Godsmack, Glassjaw, Deftones.
Код:
Код: Выделить всё
Exact Audio Copy V0.99 prebeta 4 from 23. January 2008
EAC extraction logfile from 18. April 2008, 21:17
Alexisonfire / Alexisonfire
Used drive : TOSHIBA ODD-DVD SD-R6372 Adapter: 1 ID: 0
Read mode : Secure
Utilize accurate stream : Yes
Defeat audio cache : Yes
Make use of C2 pointers : No
Read offset correction : 116
Overread into Lead-In and Lead-Out : No
Fill up missing offset samples with silence : Yes
Delete leading and trailing silent blocks : No
Null samples used in CRC calculations : Yes
Used interface : Native Win32 interface for Win NT & 2000
Gap handling : Appended to previous track
Used output format : User Defined Encoder
Selected bitrate : 768 kBit/s
Quality : High
Add ID3 tag : No
Command line compressor : C:\Program Files\FLAC\flac.exe
Additional command line options : -V -8 -T "artist=%a" -T "title=%t" -T "album=%g" -T "date=%y" -T "tracknumber=%n" %s
TOC of the extracted CD
Track | Start | Length | Start sector | End sector
---------------------------------------------------------
1 | 0:00.00 | 4:30.26 | 0 | 20275
2 | 4:30.26 | 2:18.66 | 20276 | 30691
3 | 6:49.17 | 5:47.01 | 30692 | 56717
4 | 12:36.18 | 4:12.17 | 56718 | 75634
5 | 16:48.35 | 5:08.16 | 75635 | 98750
6 | 21:56.51 | 2:41.26 | 98751 | 110851
7 | 24:38.02 | 3:12.56 | 110852 | 125307
8 | 27:50.58 | 3:38.45 | 125308 | 141702
9 | 31:29.28 | 2:29.43 | 141703 | 152920
10 | 33:58.71 | 4:54.53 | 152921 | 175023
11 | 38:53.49 | 3:22.66 | 175024 | 190239
Track 1
Filename C:\Hi there RIAA, What's up IFPI\Alexisonfire - Alexisonfire\01 - 44. Caliber Love Letter.wav
Pre-gap length 0:00:02.00
Peak level 98.8 %
Track quality 100.0 %
Test CRC 49B8BB00
Copy CRC 49B8BB00
Track not present in AccurateRip database
Copy OK
Track 2
Filename C:\Hi there RIAA, What's up IFPI\Alexisonfire - Alexisonfire\02 - Counterparts And Number Them.wav
Pre-gap length 0:00:01.52
Peak level 98.8 %
Track quality 100.0 %
Test CRC E698B4C8
Copy CRC E698B4C8
Track not present in AccurateRip database
Copy OK
Track 3
Filename C:\Hi there RIAA, What's up IFPI\Alexisonfire - Alexisonfire\03 - Adelleda.wav
Pre-gap length 0:00:01.54
Peak level 100.0 %
Track quality 99.9 %
Test CRC 920F5C8B
Copy CRC 920F5C8B
Track not present in AccurateRip database
Copy OK
Track 4
Filename C:\Hi there RIAA, What's up IFPI\Alexisonfire - Alexisonfire\04 - A Dagger Through The Heart Of St. Angeles.wav
Pre-gap length 0:00:01.57
Peak level 98.8 %
Track quality 100.0 %
Test CRC 92BC517A
Copy CRC 92BC517A
Track not present in AccurateRip database
Copy OK
Track 5
Filename C:\Hi there RIAA, What's up IFPI\Alexisonfire - Alexisonfire\05 - Polaroids Of Polar Bears.wav
Peak level 98.8 %
Track quality 100.0 %
Test CRC 0282DD88
Copy CRC 0282DD88
Track not present in AccurateRip database
Copy OK
Track 6
Filename C:\Hi there RIAA, What's up IFPI\Alexisonfire - Alexisonfire\06 - Waterwings (And Other Pool Side Fashion Faux Pas).wav
Pre-gap length 0:00:01.54
Peak level 98.8 %
Track quality 99.9 %
Test CRC B2E23112
Copy CRC B2E23112
Track not present in AccurateRip database
Copy OK
Track 7
Filename C:\Hi there RIAA, What's up IFPI\Alexisonfire - Alexisonfire\07 - Where No One Knows.wav
Pre-gap length 0:00:01.56
Peak level 98.8 %
Track quality 100.0 %
Test CRC E5A4DB6F
Copy CRC E5A4DB6F
Track not present in AccurateRip database
Copy OK
Track 8
Filename C:\Hi there RIAA, What's up IFPI\Alexisonfire - Alexisonfire\08 - The Kennedy Curse.wav
Pre-gap length 0:00:01.74
Peak level 98.8 %
Track quality 100.0 %
Test CRC 7CA51A7C
Copy CRC 7CA51A7C
Track not present in AccurateRip database
Copy OK
Track 9
Filename C:\Hi there RIAA, What's up IFPI\Alexisonfire - Alexisonfire\09 - Jubella.wav
Pre-gap length 0:00:01.51
Peak level 98.8 %
Track quality 100.0 %
Test CRC 4A9658DB
Copy CRC 4A9658DB
Track not present in AccurateRip database
Copy OK
Track 10
Filename C:\Hi there RIAA, What's up IFPI\Alexisonfire - Alexisonfire\10 - Little Girls Pointing And Laughing.wav
Pre-gap length 0:00:01.58
Peak level 98.8 %
Track quality 100.0 %
Test CRC 80EC1B62
Copy CRC 80EC1B62
Track not present in AccurateRip database
Copy OK
Track 11
Filename C:\Hi there RIAA, What's up IFPI\Alexisonfire - Alexisonfire\11 - Pulmonary Archery.wav
Pre-gap length 0:00:01.57
Peak level 98.8 %
Track quality 99.9 %
Test CRC 1FD93D1C
Copy CRC 1FD93D1C
Track not present in AccurateRip database
Copy OK
None of the tracks are present in the AccurateRip database
No errors occurred
End of status report
Код:
Код: Выделить всё
-----------------------

DON'T MODIFY THIS FILE

-----------------------

PERFORMER: auCDtect Task Manager, ver. 1.6.0 RC1 build 1.6.0.1
Copyright (c) 2008-2010 y-soft. All rights reserved
http:/y-soft.org

ANALYZER: auCDtect: CD records authenticity detector, version 0.8.2
Copyright (c) 2004 Oleg Berngardt. All rights reserved.
Copyright (c) 2004 Alexander Djourik. All rights reserved.

FILE: 07 - Where No One Knows.flac
  Size: 22546433 Hash: F0A334BC7A9B7D9A5FE570B211EF66F4 Accuracy: -m0
  Conclusion: CDDA 100%
  Signature: B002254280917306D8BF5B4A27E551BAE37EF905
FILE: 06 - Waterwings (And Other Pool Side Fashion Faux Pas).flac
  Size: 21067285 Hash: 437D24ACE204B839625C08B5A44CF10E Accuracy: -m0
  Conclusion: CDDA 99%
  Signature: 754364E9E09D05279A45CC362268B926C4682966
FILE: 05 - Polaroids Of Polar Bears.flac
  Size: 35245448 Hash: 0443FBF38769D52213A7E3BC4754A11B Accuracy: -m0
  Conclusion: CDDA 99%
  Signature: 7727699BDFB5D48BE92448C78A1747E7333473F3
FILE: 04 - A Dagger Through The Heart Of St. Angeles.flac
  Size: 32247371 Hash: 7A985321BCCFD37CF16BE4AA3FC93A2D Accuracy: -m0
  Conclusion: CDDA 100%
  Signature: 4C08925362D5A8A735FD5FE3AAA342D2AB521C6F
FILE: 03 - Adelleda.flac
  Size: 38330908 Hash: 3B207ABEB7A5892365950D038E4F34B1 Accuracy: -m0
  Conclusion: CDDA 100%
  Signature: 8D15A511844FB6CD077BDDD7D61F2B4DF1556996
FILE: 02 - Counterparts And Number Them.flac
  Size: 16546860 Hash: 00552B10DC3AAED1897CB60F3042A516 Accuracy: -m0
  Conclusion: CDDA 100%
  Signature: 78D154D60E395BC16373C1E5AE74CAFCB4C5C01E
FILE: 01 - 44. Caliber Love Letter.flac
  Size: 33991248 Hash: 7B3DDBFAB708F2C163CDB41E61CCA051 Accuracy: -m0
  Conclusion: CDDA 100%
  Signature: A6A73F8EA47B13B99E136E08FE3EFBD0B8661F5F
FILE: 11 - Pulmonary Archery.flac
  Size: 21971212 Hash: 0537F8695257D8ED0FDAE97065615271 Accuracy: -m0
  Conclusion: CDDA 100%
  Signature: B38A135FB3061807AB1D8AFE97556B0DFF9C9777
FILE: 10 - Little Girls Pointing And Laughing.flac
  Size: 33937914 Hash: A8B15995A18997AC11F5B9AE75A0A818 Accuracy: -m0
  Conclusion: CDDA 100%
  Signature: 0CB76BDB23F5FCE15A954AD058994FE794D26111
FILE: 09 - Jubella.flac
  Size: 18479206 Hash: 923496B8C2C68075EAE43369467C48B3 Accuracy: -m0
  Conclusion: CDDA 100%
  Signature: 1215EBB0F7B36781CB9BC54A861DE4B50E80C57A
FILE: 08 - The Kennedy Curse.flac
  Size: 25159676 Hash: ECDF73E5EB6757D221A34DA14610EA6B Accuracy: -m0
  Conclusion: CDDA 100%
  Signature: 856B19615B2113BDCB1D89E8509BE03CDCBAEDD3
Код:
Код: Выделить всё
REM DATE 2002
REM DISCID 7909E80B
REM COMMENT "ExactAudioCopy v0.99pb4"
PERFORMER "Alexisonfire"
TITLE "Alexisonfire"
FILE "01 - 44. Caliber Love Letter.flac" WAVE
TRACK 01 AUDIO
TITLE "44. Caliber Love Letter"
PERFORMER "Alexisonfire"
INDEX 01 00:00:00
TRACK 02 AUDIO
TITLE "Counterparts And Number Them"
PERFORMER "Alexisonfire"
INDEX 00 04:28:49
FILE "02 - Counterparts And Number Them.flac" WAVE
INDEX 01 00:00:00
TRACK 03 AUDIO
TITLE "Adelleda"
PERFORMER "Alexisonfire"
INDEX 00 02:17:12
FILE "03 - Adelleda.flac" WAVE
INDEX 01 00:00:00
TRACK 04 AUDIO
TITLE "A Dagger Through The Heart Of St. Angeles"
PERFORMER "Alexisonfire"
INDEX 00 05:45:19
FILE "04 - A Dagger Through The Heart Of St. Angeles.flac" WAVE
INDEX 01 00:00:00
FILE "05 - Polaroids Of Polar Bears.flac" WAVE
TRACK 05 AUDIO
TITLE "Polaroids Of Polar Bears"
PERFORMER "Alexisonfire"
INDEX 01 00:00:00
TRACK 06 AUDIO
TITLE "Waterwings (And Other Pool Side Fashion Faux Pas)"
PERFORMER "Alexisonfire"
INDEX 00 05:06:37
FILE "06 - Waterwings (And Other Pool Side Fashion Faux Pas).flac" WAVE
INDEX 01 00:00:00
TRACK 07 AUDIO
TITLE "Where No One Knows"
PERFORMER "Alexisonfire"
INDEX 00 02:39:45
FILE "07 - Where No One Knows.flac" WAVE
INDEX 01 00:00:00
TRACK 08 AUDIO
TITLE "The Kennedy Curse"
PERFORMER "Alexisonfire"
INDEX 00 03:10:57
FILE "08 - The Kennedy Curse.flac" WAVE
INDEX 01 00:00:00
TRACK 09 AUDIO
TITLE "Jubella"
PERFORMER "Alexisonfire"
INDEX 00 03:36:69
FILE "09 - Jubella.flac" WAVE
INDEX 01 00:00:00
TRACK 10 AUDIO
TITLE "Little Girls Pointing And Laughing"
PERFORMER "Alexisonfire"
INDEX 00 02:27:60
FILE "10 - Little Girls Pointing And Laughing.flac" WAVE
INDEX 01 00:00:00
TRACK 11 AUDIO
TITLE "Pulmonary Archery"
PERFORMER "Alexisonfire"
INDEX 00 04:52:71
FILE "11 - Pulmonary Archery.flac" WAVE
INDEX 01 00:00:00
#777Треклист:

01 - Accidents (4:09)
02 - Control (3:44)
03 - It Was Fear Of Myself That Made Me Odd (3:54)
04 - Side Walk When She Walks (4:22)
05 - "Hey, Its Your Funeral Mama" (4:22)
06 - No Transitory (3:17)
07 - Sharks And Danger (4:39)
08 - That Girl Posesed (3:26)
09 - White Devil (3:35)
10 - Get Fighted (3:05)
11 - Happiness By The Kilowatt (5:12)
Продолжительность: 00:43:45
Издатель: Equal Vision Records
№ по каталогу: B0002BO0BC
Код:
Код: Выделить всё
Exact Audio Copy V0.99 prebeta 4 from 23. January 2008
EAC extraction logfile from 13. December 2008, 21:55
Alexisonfire / Watch Out!
Used drive : BENQ DVD DD DW1640 Adapter: 1 ID: 0
Read mode : Secure
Utilize accurate stream : Yes
Defeat audio cache : Yes
Make use of C2 pointers : No
Read offset correction : 618
Overread into Lead-In and Lead-Out : No
Fill up missing offset samples with silence : Yes
Delete leading and trailing silent blocks : No
Null samples used in CRC calculations : Yes
Used interface : Native Win32 interface for Win NT & 2000
Gap handling : Appended to previous track
Used output format : User Defined Encoder
Selected bitrate : 128 kBit/s
Quality : High
Add ID3 tag : No
Command line compressor : D:\Music and Audio Files\Exact Audio Copy\Flac\flac.exe
Additional command line options : -V -8 -T "artist=%a" -T "title=%t" -T "album=%g" -T "date=%y" -T "tracknumber=%n" -T "genre=%m" %s
TOC of the extracted CD
Track | Start | Length | Start sector | End sector
---------------------------------------------------------
1 | 0:00.00 | 4:09.05 | 0 | 18679
2 | 4:09.05 | 3:43.64 | 18680 | 35468
3 | 7:52.69 | 3:54.36 | 35469 | 53054
4 | 11:47.30 | 4:22.07 | 53055 | 72711
5 | 16:09.37 | 4:22.29 | 72712 | 92390
6 | 20:31.66 | 3:16.62 | 92391 | 107152
7 | 23:48.53 | 4:38.39 | 107153 | 128041
8 | 28:27.17 | 3:26.13 | 128042 | 143504
9 | 31:53.30 | 3:34.59 | 143505 | 159613
10 | 35:28.14 | 3:05.21 | 159614 | 173509
11 | 38:33.35 | 5:11.73 | 173510 | 196907
Track 1
Filename D:\Music and Audio Files\FLAC\01 - Alexisonfire - Accidents.wav
Pre-gap length 0:00:02.00
Peak level 97.7 %
Track quality 99.9 %
Test CRC 86ECF70D
Copy CRC 86ECF70D
Accurately ripped (confidence 6) [26D086CE]
Copy OK
Track 2
Filename D:\Music and Audio Files\FLAC\02 - Alexisonfire - Control.wav
Peak level 97.7 %
Track quality 100.0 %
Test CRC EA966402
Copy CRC EA966402
Accurately ripped (confidence 6) [846C3816]
Copy OK
Track 3
Filename D:\Music and Audio Files\FLAC\03 - Alexisonfire - It Was Fear of Myself That Made Me Odd.wav
Peak level 97.7 %
Track quality 100.0 %
Test CRC CBB04956
Copy CRC CBB04956
Accurately ripped (confidence 6) [6CDFE2C1]
Copy OK
Track 4
Filename D:\Music and Audio Files\FLAC\04 - Alexisonfire - Side Walk When She Walks.wav
Peak level 97.7 %
Track quality 100.0 %
Test CRC B30E6CC1
Copy CRC B30E6CC1
Accurately ripped (confidence 6) [AE4DBA1C]
Copy OK
Track 5
Filename D:\Music and Audio Files\FLAC\05 - Alexisonfire - 'Hey, It's Your Funeral Mama'.wav
Peak level 97.7 %
Track quality 100.0 %
Test CRC 9D1A8B38
Copy CRC 9D1A8B38
Accurately ripped (confidence 6) [CDBEF249]
Copy OK
Track 6
Filename D:\Music and Audio Files\FLAC\06 - Alexisonfire - No Transitory.wav
Pre-gap length 0:00:53.52
Peak level 97.7 %
Track quality 100.0 %
Test CRC 572A963E
Copy CRC 572A963E
Accurately ripped (confidence 6) [5A30BA0E]
Copy OK
Track 7
Filename D:\Music and Audio Files\FLAC\07 - Alexisonfire - Sharks and Danger.wav
Pre-gap length 0:00:01.72
Peak level 97.7 %
Track quality 100.0 %
Test CRC 0D21EFB1
Copy CRC 0D21EFB1
Accurately ripped (confidence 6) [208CD197]
Copy OK
Track 8
Filename D:\Music and Audio Files\FLAC\08 - Alexisonfire - That Girl Possessed.wav
Pre-gap length 0:00:01.98
Peak level 97.7 %
Track quality 100.0 %
Test CRC 2EFC78D6
Copy CRC 2EFC78D6
Accurately ripped (confidence 6) [AC1C404A]
Copy OK
Track 9
Filename D:\Music and Audio Files\FLAC\09 - Alexisonfire - White Devil.wav
Peak level 97.7 %
Track quality 100.0 %
Test CRC 5DCD4EFF
Copy CRC 5DCD4EFF
Accurately ripped (confidence 6) [BCD08720]
Copy OK
Track 10
Filename D:\Music and Audio Files\FLAC\10 - Alexisonfire - Get Fighted.wav
Peak level 97.7 %
Track quality 99.9 %
Test CRC A4B134B7
Copy CRC A4B134B7
Accurately ripped (confidence 6) [334FBDCF]
Copy OK
Track 11
Filename D:\Music and Audio Files\FLAC\11 - Alexisonfire - Happiness by the Kilowatt.wav
Pre-gap length 0:00:00.61
Peak level 97.7 %
Track quality 100.0 %
Test CRC 0D4A7865
Copy CRC 0D4A7865
Accurately ripped (confidence 6) [7BC9E29A]
Copy OK
All tracks accurately ripped
No errors occurred
End of status report
Код:
Код: Выделить всё
-----------------------

DON'T MODIFY THIS FILE

-----------------------

PERFORMER: auCDtect Task Manager, ver. 1.6.0 RC1 build 1.6.0.1
Copyright (c) 2008-2010 y-soft. All rights reserved
http:/y-soft.org

ANALYZER: auCDtect: CD records authenticity detector, version 0.8.2
Copyright (c) 2004 Oleg Berngardt. All rights reserved.
Copyright (c) 2004 Alexander Djourik. All rights reserved.

FILE: 05 - Alexisonfire - 'Hey, It's Your Funeral Mama'.flac
  Size: 33349059 Hash: 0646C2E19276E83D8629AD1E114C064E Accuracy: -m0
  Conclusion: CDDA 100%
  Signature: 084B9EDB665B6CB8B0CCB5C70B21F974566AFD13
FILE: 04 - Alexisonfire - Side Walk When She Walks.flac
  Size: 30565855 Hash: 4A668AD4E6105FBA58E82FE4B38CEC72 Accuracy: -m0
  Conclusion: CDDA 100%
  Signature: C4B9B77E6BC9E384039E1D20A6ADE3BAF2E6D979
FILE: 03 - Alexisonfire - It Was Fear of Myself That Made Me Odd.flac
  Size: 28972119 Hash: 15C2578BFAE004BF04D19D249DAF3A7C Accuracy: -m0
  Conclusion: CDDA 100%
  Signature: 17197A9EBED27B5CEB53553E161FF9524C611C8C
FILE: 02 - Alexisonfire - Control.flac
  Size: 29373623 Hash: 02774DA9256CFBFC4530D155061FF434 Accuracy: -m0
  Conclusion: CDDA 100%
  Signature: 37772AF5FA0DCBFC8F00836EFDBA3C1277C89DBF
FILE: 01 - Alexisonfire - Accidents.flac
  Size: 31422078 Hash: 412848AAA5AC66E534B6EE081908A807 Accuracy: -m0
  Conclusion: CDDA 99%
  Signature: 20B4F3370F550F40850881BCE28614B66CE8F759
FILE: 11 - Alexisonfire - Happiness by the Kilowatt.flac
  Size: 40222596 Hash: 67D2FBC8689AFC68E40568DFB718091A Accuracy: -m0
  Conclusion: CDDA 99%
  Signature: 2722C9AC70C129D0DEEDE0B2D5798DCCA88D973A
FILE: 10 - Alexisonfire - Get Fighted.flac
  Size: 23854513 Hash: 28DDAC750C0B10199F5CFE332D2515C5 Accuracy: -m0
  Conclusion: CDDA 100%
  Signature: E59371EDCF7130BCE5FC04499755B725DF9C5EEE
FILE: 09 - Alexisonfire - White Devil.flac
  Size: 28485081 Hash: 623ABD29434ACB39681DFFF5327CB6B4 Accuracy: -m0
  Conclusion: CDDA 100%
  Signature: 34B2667B82CFCC17C2979F7574D43FF4F8FCD8CF
FILE: 08 - Alexisonfire - That Girl Possessed.flac
  Size: 26989436 Hash: A3B74D0E58530CD5A6EE3A42B89244C7 Accuracy: -m0
  Conclusion: CDDA 100%
  Signature: A0716B14E5ED440E5E211C68ED67D4CC0E1205E9
FILE: 07 - Alexisonfire - Sharks and Danger.flac
  Size: 34756041 Hash: 6ABB0650D3714128375EFE3E6931B08C Accuracy: -m0
  Conclusion: CDDA 100%
  Signature: 1AB08F4B5C083660818422033AF045B221F963A3
FILE: 06 - Alexisonfire - No Transitory.flac
  Size: 26482953 Hash: 4325BDB7CBFAA59AA20A1AF981A4B14D Accuracy: -m0
  Conclusion: CDDA 100%
  Signature: 81316397234EC6E3F8A47418CA8DC954E455BCC1
Код:
Код: Выделить всё
REM GENRE Hardcore
REM DATE 2004
REM DISCID 7D0A410B
REM COMMENT "ExactAudioCopy v0.99pb4"
PERFORMER "Alexisonfire"
TITLE "Watch Out!"
FILE "01 - Alexisonfire - Accidents.wav" WAVE
TRACK 01 AUDIO
TITLE "Accidents"
PERFORMER "Alexisonfire"
INDEX 01 00:00:00
FILE "02 - Alexisonfire - Control.wav" WAVE
TRACK 02 AUDIO
TITLE "Control"
PERFORMER "Alexisonfire"
FLAGS DCP
INDEX 01 00:00:00
FILE "03 - Alexisonfire - It Was Fear of Myself That Made Me Odd.wav" WAVE
TRACK 03 AUDIO
TITLE "It Was Fear of Myself That Made Me Odd"
PERFORMER "Alexisonfire"
FLAGS DCP
INDEX 01 00:00:00
FILE "04 - Alexisonfire - Side Walk When She Walks.wav" WAVE
TRACK 04 AUDIO
TITLE "Side Walk When She Walks"
PERFORMER "Alexisonfire"
FLAGS DCP
INDEX 01 00:00:00
FILE "05 - Alexisonfire - 'Hey, It's Your Funeral Mama'.wav" WAVE
TRACK 05 AUDIO
TITLE "'Hey, It's Your Funeral Mama'"
PERFORMER "Alexisonfire"
FLAGS DCP
INDEX 01 00:00:00
TRACK 06 AUDIO
TITLE "No Transitory"
PERFORMER "Alexisonfire"
FLAGS DCP
INDEX 00 03:28:65
FILE "06 - Alexisonfire - No Transitory.wav" WAVE
INDEX 01 00:00:00
TRACK 07 AUDIO
TITLE "Sharks and Danger"
PERFORMER "Alexisonfire"
FLAGS DCP
INDEX 00 03:15:08
FILE "07 - Alexisonfire - Sharks and Danger.wav" WAVE
INDEX 01 00:00:00
TRACK 08 AUDIO
TITLE "That Girl Possessed"
PERFORMER "Alexisonfire"
FLAGS DCP
INDEX 00 04:36:40
FILE "08 - Alexisonfire - That Girl Possessed.wav" WAVE
INDEX 01 00:00:00
FILE "09 - Alexisonfire - White Devil.wav" WAVE
TRACK 09 AUDIO
TITLE "White Devil"
PERFORMER "Alexisonfire"
FLAGS DCP
INDEX 01 00:00:00
FILE "10 - Alexisonfire - Get Fighted.wav" WAVE
TRACK 10 AUDIO
TITLE "Get Fighted"
PERFORMER "Alexisonfire"
FLAGS DCP
INDEX 01 00:00:00
TRACK 11 AUDIO
TITLE "Happiness by the Kilowatt"
PERFORMER "Alexisonfire"
FLAGS DCP
INDEX 00 03:04:50
FILE "11 - Alexisonfire - Happiness by the Kilowatt.wav" WAVE
INDEX 01 00:00:00
#777Треклист:

01 - Alexisonfire - Passing Out In America [Cover of The Passing Of America] (4:01)
02 - Moneen - Accidents Are On Purpose [Cover of Accidents] (5:40)
03 - Alexisonfire - Tonight, I Am Going To Wash The Hippy [Cover of Tonight, I'm Gone...] (5:47)
04 - Moneen - Sharks In Danger [Cover of Sharks and Danger] (4:46)
05 - Moneen - Bleed and Blister (Version 2) (5:03)
06 - Alexisonfire - Charlie Sheen vs. Henry Rollins (3:40)
Продолжительность: 00:27:16
Издатель: Vagrant Records
№ по каталогу: B000BT96YQ
Код:
Код: Выделить всё
Exact Audio Copy V0.99 prebeta 4 from 23. January 2008
EAC extraction logfile from 24. December 2008, 13:45
Alexisonfire/Moneen / Switcheroo Series
Used drive : _NEC DVD_RW ND-3500AG Adapter: 0 ID: 0
Read mode : Secure
Utilize accurate stream : Yes
Defeat audio cache : Yes
Make use of C2 pointers : No
Read offset correction : 48
Overread into Lead-In and Lead-Out : No
Fill up missing offset samples with silence : Yes
Delete leading and trailing silent blocks : No
Null samples used in CRC calculations : Yes
Used interface : Native Win32 interface for Win NT & 2000
Gap handling : Appended to previous track
Used output format : User Defined Encoder
Selected bitrate : 128 kBit/s
Quality : High
Add ID3 tag : No
Command line compressor : C:\Program Files (x86)\FLAC\flac.exe
Additional command line options : -V -8 -T "artist=%a" -T "title=%t" -T "album=%g" -T "date=%y" -T "tracknumber=%n" -T "genre=%m" %s
TOC of the extracted CD
Track | Start | Length | Start sector | End sector
---------------------------------------------------------
1 | 0:01.00 | 4:00.39 | 75 | 18113
2 | 4:01.39 | 5:40.34 | 18114 | 43647
3 | 9:41.73 | 5:47.19 | 43648 | 69691
4 | 15:29.17 | 4:46.04 | 69692 | 91145
5 | 20:15.21 | 5:03.25 | 91146 | 113895
6 | 25:18.46 | 3:39.42 | 113896 | 130362
Track 1
Filename C:\torrents\Alexisonfire,Moneen - 2005 - Switcheroo Series\01 - 01 - Alexisonfire - Passing Out In America.wav
Pre-gap length 0:00:03.00
Peak level 99.9 %
Track quality 100.0 %
Test CRC 3099ED49
Copy CRC 3099ED49
Cannot be verified as accurate (confidence 1) [13491528], AccurateRip returned [01204EDE]
Copy OK
Track 2
Filename C:\torrents\Alexisonfire,Moneen - 2005 - Switcheroo Series\02 - 02 - Moneen - Accidents are on Purpose.wav
Pre-gap length 0:00:01.50
Peak level 99.9 %
Track quality 100.0 %
Test CRC D665F2F8
Copy CRC D665F2F8
Cannot be verified as accurate (confidence 1) [28008DE3], AccurateRip returned [01001DF5]
Copy OK
Track 3
Filename C:\torrents\Alexisonfire,Moneen - 2005 - Switcheroo Series\03 - 03 - Alexisonfire - Tonight I am Going to Wash the Hippy.wav
Pre-gap length 0:00:03.33
Peak level 99.9 %
Track quality 100.0 %
Test CRC 4AC716DF
Copy CRC 4AC716DF
Cannot be verified as accurate (confidence 1) [3FAB0E80], AccurateRip returned [E82C1B91]
Copy OK
Track 4
Filename C:\torrents\Alexisonfire,Moneen - 2005 - Switcheroo Series\04 - 04 - Moneen - Sharks in Danger.wav
Pre-gap length 0:00:00.13
Peak level 99.9 %
Track quality 100.0 %
Test CRC 05E3A693
Copy CRC 05E3A693
Cannot be verified as accurate (confidence 1) [2AD2116E], AccurateRip returned [3357DE79]
Copy OK
Track 5
Filename C:\torrents\Alexisonfire,Moneen - 2005 - Switcheroo Series\05 - 05 - Moneen - Bleed & Blister xVersion Twox.wav
Peak level 97.7 %
Track quality 100.0 %
Test CRC D21FAB97
Copy CRC D21FAB97
Cannot be verified as accurate (confidence 1) [0576ACDE], AccurateRip returned [0DB91AFE]
Copy OK
Track 6
Filename C:\torrents\Alexisonfire,Moneen - 2005 - Switcheroo Series\06 - 06 - Alexisonfire - Charlie Sheen vs Henry Rollins.wav
Peak level 99.9 %
Track quality 100.0 %
Test CRC 96B289B5
Copy CRC 96B289B5
Cannot be verified as accurate (confidence 1) [0E9FA7A1], AccurateRip returned [92B35F98]
Copy OK
No tracks could be verified as accurate
You may have a different pressing from the one(s) in the database
No errors occurred
End of status report
Код:
Код: Выделить всё
-----------------------

DON'T MODIFY THIS FILE

-----------------------

PERFORMER: auCDtect Task Manager, ver. 1.6.0 RC1 build 1.6.0.1
Copyright (c) 2008-2010 y-soft. All rights reserved
http:/y-soft.org

ANALYZER: auCDtect: CD records authenticity detector, version 0.8.2
Copyright (c) 2004 Oleg Berngardt. All rights reserved.
Copyright (c) 2004 Alexander Djourik. All rights reserved.

FILE: 02 - Moneen - Accidents are on Purpose.flac
  Size: 41321801 Hash: 90704B851249D3A9F94E5D489DE1AD1F Accuracy: -m0
  Conclusion: CDDA 100%
  Signature: CD711916FECE335053934E3614275B44E6F9E9B4
FILE: 01 - Alexisonfire - Passing Out In America.flac
  Size: 29434294 Hash: C67B340BC6326A2C1F8D85C232A3B938 Accuracy: -m0
  Conclusion: CDDA 99%
  Signature: 6D511970C3C12A34B72A5FD22EF1734E5563E3A3
FILE: 06 - Alexisonfire - Charlie Sheen vs Henry Rollins.flac
  Size: 28170573 Hash: ABCBD4E66CCEE299E00AEF004F65803C Accuracy: -m0
  Conclusion: CDDA 100%
  Signature: 292992EC509F6DB2E4F3F526D168A7B35CBF83DD
FILE: 05 - Moneen - Bleed & Blister xVersion Twox.flac
  Size: 38901050 Hash: 7D13B5A2D34382687F4EABF0F9247F42 Accuracy: -m0
  Conclusion: CDDA 100%
  Signature: 757AC63789F0D7C0745C966B140ADD1A457B290B
FILE: 04 - Moneen - Sharks in Danger.flac
  Size: 33525881 Hash: 5D93D162C385A86B6491CBB09BBAB2F6 Accuracy: -m0
  Conclusion: CDDA 100%
  Signature: 9B4CEEA0B4CED177E246B58DB5BBF734B980D4C7
FILE: 03 - Alexisonfire - Tonight I am Going to Wash the Hippy.flac
  Size: 41268545 Hash: B772E7D0C900CE7D1C8FD2881E85B4E7 Accuracy: -m0
  Conclusion: CDDA 100%
  Signature: 6A667102A2BAAFD3AAF86AD6A118424B837F62C0
Код:
Код: Выделить всё
REM GENRE Emo-core
REM DATE 2005
REM DISCID 3C06C906
REM COMMENT "ExactAudioCopy v0.99pb4"
FILE "01 - Alexisonfire - Passing Out In America.wav" WAVE
TRACK 01 AUDIO
TITLE "Alexisonfire - Passing Out In America"
PERFORMER "Alexisonfire"
FLAGS DCP
PREGAP 00:01:00
INDEX 01 00:00:00
TRACK 02 AUDIO
TITLE "Moneen - Accidents are on Purpose"
PERFORMER "Alexisonfire"
FLAGS DCP
INDEX 00 03:59:01
FILE "02 - Moneen - Accidents are on Purpose.wav" WAVE
INDEX 01 00:00:00
TRACK 03 AUDIO
TITLE "Alexisonfire - Tonight I am Going to Wash the Hippy"
PERFORMER "Alexisonfire"
FLAGS DCP
INDEX 00 05:37:09
FILE "03 - Alexisonfire - Tonight I am Going to Wash the Hippy.wav" WAVE
INDEX 01 00:00:00
TRACK 04 AUDIO
TITLE "Moneen - Sharks in Danger"
PERFORMER "Alexisonfire"
FLAGS DCP
INDEX 00 05:47:09
FILE "04 - Moneen - Sharks in Danger.wav" WAVE
INDEX 01 00:00:00
FILE "05 - Moneen - Bleed & Blister xVersion Twox.wav" WAVE
TRACK 05 AUDIO
TITLE "Moneen - Bleed & Blister xVersion Twox"
PERFORMER "Alexisonfire"
FLAGS DCP
INDEX 01 00:00:00
FILE "06 - Alexisonfire - Charlie Sheen vs Henry Rollins.wav" WAVE
TRACK 06 AUDIO
TITLE "Alexisonfire - Charlie Sheen vs Henry Rollins"
PERFORMER "Alexisonfire"
FLAGS DCP
INDEX 01 00:00:00
#777Треклист:

01 - Drunks, Lovers, Sinners and Saints (3:48)
02 - This Could Be Anywhere In The World (4:03)
03 - Mailbox Arson (3:32)
04 - Boiled Frogs (3:57)
05 - We Are The Sound (3:40)
06 - You Burn First (2:40)
07 - We Are The End (3:46)
08 - Crisis (3:31)
09 - Keep It On Wax (3:49)
10 - To A Friend (3:16)
11 - Rough Hands (5:30)
12 - Thrones (bonus) (4:13)
Продолжительность: 00:41:38
Издатель: Vagrant Records
№ по каталогу: B000GW8PY0
Код:
Код: Выделить всё
Exact Audio Copy V0.99 prebeta 5 from 4. May 2009
EAC extraction logfile from 12. September 2009, 20:27
Alexisonfire / Crisis
Used drive : PHILIPS DVDRAM SDVD8821H Adapter: 1 ID: 0
Read mode : Secure
Utilize accurate stream : Yes
Defeat audio cache : Yes
Make use of C2 pointers : No
Read offset correction : 6
Overread into Lead-In and Lead-Out : No
Fill up missing offset samples with silence : Yes
Delete leading and trailing silent blocks : No
Null samples used in CRC calculations : Yes
Used interface : Native Win32 interface for Win NT & 2000
Gap handling : Appended to previous track
Used output format : User Defined Encoder
Selected bitrate : 320 kBit/s
Quality : High
Add ID3 tag : No
Command line compressor : C:\Program Files\Exact Audio Copy\Flac\flac.exe
Additional command line options : -V -8 -T "artist=%a" -T "title=%t" -T "album=%g" -T "date=%y" -T "tracknumber=%n" -T "genre=%m" %s
TOC of the extracted CD
Track | Start | Length | Start sector | End sector
---------------------------------------------------------
1 | 0:00.00 | 3:49.07 | 0 | 17181
2 | 3:49.07 | 4:03.64 | 17182 | 35470
3 | 7:52.71 | 3:32.09 | 35471 | 51379
4 | 11:25.05 | 3:57.62 | 51380 | 69216
5 | 15:22.67 | 3:40.33 | 69217 | 85749
6 | 19:03.25 | 2:40.39 | 85750 | 97788
7 | 21:43.64 | 3:46.45 | 97789 | 114783
8 | 25:30.34 | 3:31.59 | 114784 | 130667
9 | 29:02.18 | 3:49.28 | 130668 | 147870
10 | 32:51.46 | 3:16.22 | 147871 | 162592
11 | 36:07.68 | 5:32.49 | 162593 | 187541
12 | 41:40.42 | 4:13.36 | 187542 | 206552
Track 1
Filename C:\Program Files\Exact Audio Copy\Rip\Alexisonfire - Crisis (2006)\01 - Drunks, Lovers, Sinners And Saints.wav
Pre-gap length 0:00:02.00
Peak level 96.7 %
Track quality 100.0 %
Test CRC 99F2E531
Copy CRC 99F2E531
Track not present in AccurateRip database
Copy OK
Track 2
Filename C:\Program Files\Exact Audio Copy\Rip\Alexisonfire - Crisis (2006)\02 - This Could Be Anywhere In The World.wav
Peak level 97.7 %
Track quality 100.0 %
Test CRC FDBFEA7B
Copy CRC FDBFEA7B
Track not present in AccurateRip database
Copy OK
Track 3
Filename C:\Program Files\Exact Audio Copy\Rip\Alexisonfire - Crisis (2006)\03 - Mailbox Arson.wav
Pre-gap length 0:00:00.40
Peak level 97.7 %
Track quality 100.0 %
Test CRC 3509F0AA
Copy CRC 3509F0AA
Track not present in AccurateRip database
Copy OK
Track 4
Filename C:\Program Files\Exact Audio Copy\Rip\Alexisonfire - Crisis (2006)\04 - Boiled Frogs.wav
Pre-gap length 0:00:00.60
Peak level 97.7 %
Track quality 100.0 %
Test CRC 59EB62A0
Copy CRC 59EB62A0
Track not present in AccurateRip database
Copy OK
Track 5
Filename C:\Program Files\Exact Audio Copy\Rip\Alexisonfire - Crisis (2006)\05 - We Are The Sound.wav
Pre-gap length 0:00:01.25
Peak level 97.7 %
Track quality 99.9 %
Test CRC C2CB5F5C
Copy CRC C2CB5F5C
Track not present in AccurateRip database
Copy OK
Track 6
Filename C:\Program Files\Exact Audio Copy\Rip\Alexisonfire - Crisis (2006)\06 - You Burn First.wav
Pre-gap length 0:00:01.72
Peak level 97.7 %
Track quality 100.0 %
Test CRC AC8BCBC1
Copy CRC AC8BCBC1
Track not present in AccurateRip database
Copy OK
Track 7
Filename C:\Program Files\Exact Audio Copy\Rip\Alexisonfire - Crisis (2006)\07 - We Are The End.wav
Peak level 97.7 %
Track quality 100.0 %
Test CRC 11089A0B
Copy CRC 11089A0B
Track not present in AccurateRip database
Copy OK
Track 8
Filename C:\Program Files\Exact Audio Copy\Rip\Alexisonfire - Crisis (2006)\08 - Crisis.wav
Pre-gap length 0:00:02.14
Peak level 97.7 %
Track quality 100.0 %
Test CRC 5A9C9D35
Copy CRC 5A9C9D35
Track not present in AccurateRip database
Copy OK
Track 9
Filename C:\Program Files\Exact Audio Copy\Rip\Alexisonfire - Crisis (2006)\09 - Keep It On Wax.wav
Peak level 96.7 %
Track quality 100.0 %
Test CRC 1E665011
Copy CRC 1E665011
Track not present in AccurateRip database
Copy OK
Track 10
Filename C:\Program Files\Exact Audio Copy\Rip\Alexisonfire - Crisis (2006)\10 - To A Friend.wav
Pre-gap length 0:00:01.44
Peak level 97.7 %
Track quality 100.0 %
Test CRC 5A5E0E85
Copy CRC 5A5E0E85
Track not present in AccurateRip database
Copy OK
Track 11
Filename C:\Program Files\Exact Audio Copy\Rip\Alexisonfire - Crisis (2006)\11 - Rough Hands.wav
Peak level 97.7 %
Track quality 100.0 %
Test CRC 7830FA89
Copy CRC 7830FA89
Track not present in AccurateRip database
Copy OK
Track 12
Filename C:\Program Files\Exact Audio Copy\Rip\Alexisonfire - Crisis (2006)\12 - Thrones.wav
Pre-gap length 0:00:01.66
Peak level 98.9 %
Track quality 100.0 %
Test CRC 3D90F1A1
Copy CRC 3D90F1A1
Track not present in AccurateRip database
Copy OK
None of the tracks are present in the AccurateRip database
No errors occurred
End of status report
Код:
Код: Выделить всё
-----------------------

DON'T MODIFY THIS FILE

-----------------------

PERFORMER: auCDtect Task Manager, ver. 1.6.0 RC1 build 1.6.0.1
Copyright (c) 2008-2010 y-soft. All rights reserved
http:/y-soft.org

ANALYZER: auCDtect: CD records authenticity detector, version 0.8.2
Copyright (c) 2004 Oleg Berngardt. All rights reserved.
Copyright (c) 2004 Alexander Djourik. All rights reserved.

FILE: 04 - Boiled Frogs.flac
  Size: 31726523 Hash: 0A0034348643DB7BD3DB99FEDE4F6EB3 Accuracy: -m0
  Conclusion: CDDA 99%
  Signature: F408828517EAA585BD271FF30A5A495809CB1E5C
FILE: 03 - Mailbox Arson.flac
  Size: 27702398 Hash: BA6CCA1AB9E748DA8302EAB225656A1B Accuracy: -m0
  Conclusion: CDDA 100%
  Signature: B97DF9A26C7B540E214A118903979200D9BA33D5
FILE: 02 - This Could Be Anywhere In The World.flac
  Size: 32445657 Hash: 2099561B17F31150A6B93C7942C4084F Accuracy: -m0
  Conclusion: CDDA 100%
  Signature: 89811507622F4F76408F8DBE366A5FC94D513AD2
FILE: 01 - Drunks, Lovers, Sinners And Saints.flac
  Size: 31245030 Hash: 8B58B0330D04A7F9503BDAF4B6B4E5B1 Accuracy: -m0
  Conclusion: CDDA 100%
  Signature: 6F9535680EC0F08A149FEE0FC8147352A7EFB8F1
FILE: 12 - Thrones.flac
  Size: 31634773 Hash: 88513EAFC748F19734D369470BB804EF Accuracy: -m0
  Conclusion: CDDA 100%
  Signature: 66A7B7CC1456763618BA329E7B24BF1501F75097
FILE: 11 - Rough Hands.flac
  Size: 37425115 Hash: 3CB706554D500A652A1852A1DEF073D9 Accuracy: -m0
  Conclusion: CDDA 100%
  Signature: FE2BA182F4121828A42F05B63AF2A3109EC1DD3F
FILE: 10 - To A Friend.flac
  Size: 25523496 Hash: 7E91FD19D7E38CAE7D79E4C42A2FC547 Accuracy: -m0
  Conclusion: CDDA 100%
  Signature: FE2B17AE47F4E1DBC06A411C718110AE660242CE
FILE: 09 - Keep It On Wax.flac
  Size: 30080084 Hash: 2665F788EFABDDD35475AD9FE6FDD216 Accuracy: -m0
  Conclusion: CDDA 100%
  Signature: 83A53FA4014A33EF8643F795F92E63164DA91EAB
FILE: 08 - Crisis.flac
  Size: 27846614 Hash: 6DAC72BD7314B9BA347D953D7A60EF87 Accuracy: -m0
  Conclusion: CDDA 100%
  Signature: EFEB58FC951BB686982D5FDAAE15612A91FC1788
FILE: 07 - We Are The End.flac
  Size: 29916926 Hash: AA91A2D8DFC5B442EE4815ED88FBBF95 Accuracy: -m0
  Conclusion: CDDA 100%
  Signature: 43277A0FBAEBA29E2C3F86504CA65944194107D6
FILE: 06 - You Burn First.flac
  Size: 19692280 Hash: 4B3295DCEAF5E2B8523AA182824ABD73 Accuracy: -m0
  Conclusion: CDDA 99%
  Signature: 09574217081EB57DF8E3A85A25EED1AE34F6C686
FILE: 05 - We Are The Sound.flac
  Size: 29153790 Hash: BD974C85232ED7E83E48893BE3BEE077 Accuracy: -m0
  Conclusion: CDDA 100%
  Signature: 42A3BAB89FA8A9C5CB89C4957207D93CA6B1869C
Код:
Код: Выделить всё
REM GENRE Punk
REM DATE 2006
REM DISCID 990AC20C
REM COMMENT "ExactAudioCopy v0.99pb5"
CATALOG 4988004101373
PERFORMER "Alexisonfire"
TITLE "Crisis"
FILE "01 - Drunks, Lovers, Sinners And Saints.wav" WAVE
TRACK 01 AUDIO
TITLE "Drunks, Lovers, Sinners And Saints"
PERFORMER "Alexisonfire"
ISRC C@l320600138
INDEX 01 00:00:00
FILE "02 - This Could Be Anywhere In The World.wav" WAVE
TRACK 02 AUDIO
TITLE "This Could Be Anywhere In The World"
PERFORMER "Alexisonfire"
ISRC C@l320600140
INDEX 01 00:00:00
TRACK 03 AUDIO
TITLE "Mailbox Arson"
PERFORMER "Alexisonfire"
ISRC C@l320600139
INDEX 00 04:03:34
FILE "03 - Mailbox Arson.wav" WAVE
INDEX 01 00:00:00
TRACK 04 AUDIO
TITLE "Boiled Frogs"
PERFORMER "Alexisonfire"
ISRC C@l320600141
INDEX 00 03:31:39
FILE "04 - Boiled Frogs.wav" WAVE
INDEX 01 00:00:00
TRACK 05 AUDIO
TITLE "We Are The Sound"
PERFORMER "Alexisonfire"
ISRC C@l320600142
INDEX 00 03:56:43
FILE "05 - We Are The Sound.wav" WAVE
INDEX 01 00:00:00
TRACK 06 AUDIO
TITLE "You Burn First"
PERFORMER "Alexisonfire"
ISRC C@l320600143
INDEX 00 03:38:54
FILE "06 - You Burn First.wav" WAVE
INDEX 01 00:00:00
FILE "07 - We Are The End.wav" WAVE
TRACK 07 AUDIO
TITLE "We Are The End"
PERFORMER "Alexisonfire"
ISRC C@l320600144
INDEX 01 00:00:00
TRACK 08 AUDIO
TITLE "Crisis"
PERFORMER "Alexisonfire"
ISRC C@l320600145
INDEX 00 03:44:34
FILE "08 - Crisis.wav" WAVE
INDEX 01 00:00:00
FILE "09 - Keep It On Wax.wav" WAVE
TRACK 09 AUDIO
TITLE "Keep It On Wax"
PERFORMER "Alexisonfire"
ISRC C@l320600146
INDEX 01 00:00:00
TRACK 10 AUDIO
TITLE "To A Friend"
PERFORMER "Alexisonfire"
ISRC C@l320600147
INDEX 00 03:47:70
FILE "10 - To A Friend.wav" WAVE
INDEX 01 00:00:00
FILE "11 - Rough Hands.wav" WAVE
TRACK 11 AUDIO
TITLE "Rough Hands"
PERFORMER "Alexisonfire"
ISRC C@l320600148
INDEX 01 00:00:00
TRACK 12 AUDIO
TITLE "Thrones"
PERFORMER "Alexisonfire"
ISRC C@l320600151
INDEX 00 05:30:74
FILE "12 - Thrones.wav" WAVE
INDEX 01 00:00:00
#777Треклист:

Disc 1
01 - You Burn First (2:58)
02 - We Are The Sound (4:52)
03 - Pulmonary Archery (2:53)
04 - No Transistory (3:49)
05 - We Are The End (3:44)
06 - This Could Be Anywhere In The World (4:21)
07 - Mailbox (4:04)
08 - Get Fighted (3:09)
Disc 2
09 - Rough Hands (4:59)
10 - Keep It On Wax (3:52)
11 - Drunks (4:18)
12 - Boiled Frogs (4:03)
13 - Accidents (6:13)
14 - Water Wings (3:58)
15 - Happiness (8:16)
Продолжительность: 01:01:25
Издатель: Phantasm Imports
№ по каталогу: B000ZJIV3O
Код:
Код: Выделить всё
Exact Audio Copy V0.99 prebeta 4 from 23. January 2008
EAC extraction logfile from 22. January 2009, 16:12
Alexisonfire / Live At The Manchester Academy - Nov 14 2007
Used drive : MATSHITADVD-RAM UJ-852 Adapter: 1 ID: 0
Read mode : Secure
Utilize accurate stream : Yes
Defeat audio cache : Yes
Make use of C2 pointers : No
Read offset correction : 102
Overread into Lead-In and Lead-Out : No
Fill up missing offset samples with silence : Yes
Delete leading and trailing silent blocks : No
Null samples used in CRC calculations : Yes
Used interface : Native Win32 interface for Win NT & 2000
Gap handling : Appended to previous track
Used output format : User Defined Encoder
Selected bitrate : 128 kBit/s
Quality : High
Add ID3 tag : No
Command line compressor : C:\Program Files\FLAC\flac.exe
Additional command line options : -V -8 -T "artist=%a" -T "title=%t" -T "album=%g" -T "date=%y" -T "tracknumber=%n" -T "genre=%m" %s
TOC of the extracted CD
Track | Start | Length | Start sector | End sector
---------------------------------------------------------
1 | 0:00.00 | 2:57.69 | 0 | 13343
2 | 2:57.69 | 4:51.55 | 13344 | 35223
3 | 7:49.49 | 2:52.40 | 35224 | 48163
4 | 10:42.14 | 3:48.40 | 48164 | 65303
5 | 14:30.54 | 3:44.28 | 65304 | 82131
6 | 18:15.07 | 4:21.17 | 82132 | 101723
7 | 22:36.24 | 4:04.23 | 101724 | 120046
8 | 26:40.47 | 3:09.23 | 120047 | 134244
Track 1
Filename C:\Documents and Settings\STELLUT_NICH\Desktop\Alexisonfire\Live At The Manchester Academy - Nov 14 2007\01 - You Burn.wav
Pre-gap length 0:00:02.00
Peak level 96.4 %
Track quality 100.0 %
Test CRC 2CBA17A3
Copy CRC 2CBA17A3
Copy OK
Track 2
Filename C:\Documents and Settings\STELLUT_NICH\Desktop\Alexisonfire\Live At The Manchester Academy - Nov 14 2007\02 - We Are The Sound.wav
Peak level 97.5 %
Track quality 100.0 %
Test CRC 2A4F318D
Copy CRC 2A4F318D
Copy OK
Track 3
Filename C:\Documents and Settings\STELLUT_NICH\Desktop\Alexisonfire\Live At The Manchester Academy - Nov 14 2007\03 - Pulmonary Archery.wav
Peak level 97.2 %
Track quality 100.0 %
Test CRC 424CB9B9
Copy CRC 424CB9B9
Copy OK
Track 4
Filename C:\Documents and Settings\STELLUT_NICH\Desktop\Alexisonfire\Live At The Manchester Academy - Nov 14 2007\04 - No Transitory.wav
Peak level 97.2 %
Track quality 100.0 %
Test CRC 10FFD6D1
Copy CRC 10FFD6D1
Copy OK
Track 5
Filename C:\Documents and Settings\STELLUT_NICH\Desktop\Alexisonfire\Live At The Manchester Academy - Nov 14 2007\05 - We Are The End.wav
Peak level 97.1 %
Track quality 100.0 %
Test CRC 647989FD
Copy CRC 647989FD
Copy OK
Track 6
Filename C:\Documents and Settings\STELLUT_NICH\Desktop\Alexisonfire\Live At The Manchester Academy - Nov 14 2007\06 - This Could Be Anywhere.wav
Peak level 97.4 %
Track quality 100.0 %
Test CRC CB473465
Copy CRC CB473465
Copy OK
Track 7
Filename C:\Documents and Settings\STELLUT_NICH\Desktop\Alexisonfire\Live At The Manchester Academy - Nov 14 2007\07 - Mailbox.wav
Peak level 97.1 %
Track quality 100.0 %
Test CRC 0FBB208E
Copy CRC 0FBB208E
Copy OK
Track 8
Filename C:\Documents and Settings\STELLUT_NICH\Desktop\Alexisonfire\Live At The Manchester Academy - Nov 14 2007\08 - Get Fighted.wav
Peak level 97.3 %
Track quality 100.0 %
Test CRC 419E0D05
Copy CRC 419E0D05
Copy OK
No errors occurred
End of status report
Код:
Код: Выделить всё
-----------------------

DON'T MODIFY THIS FILE

-----------------------

PERFORMER: auCDtect Task Manager, ver. 1.6.0 RC1 build 1.6.0.1
Copyright (c) 2008-2010 y-soft. All rights reserved
http:/y-soft.org

ANALYZER: auCDtect: CD records authenticity detector, version 0.8.2
Copyright (c) 2004 Oleg Berngardt. All rights reserved.
Copyright (c) 2004 Alexander Djourik. All rights reserved.

FILE: 03 - Pulmonary Archery.flac
  Size: 19613938 Hash: 68EF655866F4219466F733CF71FE7079 Accuracy: -m0
  Conclusion: CDDA 100%
  Signature: A2C0906369A56381AB2331A5F8A7FBF0FC1A7A15
FILE: 02 - We Are The Sound.flac
  Size: 33999152 Hash: AEAAA6E27629DF32EEC692E97669ED61 Accuracy: -m0
  Conclusion: CDDA 100%
  Signature: 89D042A7CB228D0752D80A7B2C255A2F049CEDBA
FILE: 01 - You Burn.flac
  Size: 19315317 Hash: B90E3659E4F8DA0A0793062C09DB9A3D Accuracy: -m0
  Conclusion: CDDA 99%
  Signature: E726249DFADCB75725E087699F798094A59E7979
FILE: 08 - Get Fighted.flac
  Size: 22823702 Hash: E2E3E70BF189368121FA823A4F187C4A Accuracy: -m0
  Conclusion: CDDA 100%
  Signature: 0C69A2E4CCA5E8CB8FED86FB713A757286B99470
FILE: 07 - Mailbox.flac
  Size: 30123881 Hash: 68FC5D1E9D2EF227A2971E864B499627 Accuracy: -m0
  Conclusion: CDDA 100%
  Signature: 237C53C48EDB790288EB5B573A88F90AF44433B0
FILE: 06 - This Could Be Anywhere.flac
  Size: 30988477 Hash: 85CE95066B17BB9D216311929EBC1392 Accuracy: -m0
  Conclusion: CDDA 100%
  Signature: A582162E6297ED5A8D2A485290045B0FC41BA1F4
FILE: 05 - We Are The End.flac
  Size: 26780144 Hash: 0486AAFD0CD12493AA29CC157A9C75BE Accuracy: -m0
  Conclusion: CDDA 100%
  Signature: 0933243A4FC79D39F6C3533E6DE1E7E77A9C4E8D
FILE: 04 - No Transitory.flac
  Size: 26626289 Hash: 0E785B0CFA862EF433D42EE4BA6C1644 Accuracy: -m0
  Conclusion: CDDA 100%
  Signature: 893895C744A6B081FF8706AA8E88FFE984B0C40A
Код:
Код: Выделить всё
REM GENRE Alternative
REM DATE 2007
REM DISCID 6906FD08
REM COMMENT "ExactAudioCopy v0.99pb4"
PERFORMER "Alexisonfire"
TITLE "Live At The Manchester Academy - Nov 14 2007"
FILE "01 - You Burn.wav" WAVE
TRACK 01 AUDIO
TITLE "You Burn "
PERFORMER "Alexisonfire"
FLAGS DCP
INDEX 01 00:00:00
FILE "02 - We Are The Sound.wav" WAVE
TRACK 02 AUDIO
TITLE "We Are The Sound "
PERFORMER "Alexisonfire"
FLAGS DCP
INDEX 01 00:00:00
FILE "03 - Pulmonary Archery.wav" WAVE
TRACK 03 AUDIO
TITLE "Pulmonary Archery"
PERFORMER "Alexisonfire"
FLAGS DCP
INDEX 01 00:00:00
FILE "04 - No Transitory.wav" WAVE
TRACK 04 AUDIO
TITLE "No Transitory"
PERFORMER "Alexisonfire"
FLAGS DCP
INDEX 01 00:00:00
FILE "05 - We Are The End.wav" WAVE
TRACK 05 AUDIO
TITLE "We Are The End"
PERFORMER "Alexisonfire"
FLAGS DCP
INDEX 01 00:00:00
FILE "06 - This Could Be Anywhere.wav" WAVE
TRACK 06 AUDIO
TITLE "This Could Be Anywhere"
PERFORMER "Alexisonfire"
FLAGS DCP
INDEX 01 00:00:00
FILE "07 - Mailbox.wav" WAVE
TRACK 07 AUDIO
TITLE "Mailbox"
PERFORMER "Alexisonfire"
FLAGS DCP
INDEX 01 00:00:00
FILE "08 - Get Fighted.wav" WAVE
TRACK 08 AUDIO
TITLE "Get Fighted"
PERFORMER "Alexisonfire"
FLAGS DCP
INDEX 01 00:00:00
Код:
Код: Выделить всё
Exact Audio Copy V0.99 prebeta 4 from 23. January 2008
EAC extraction logfile from 22. January 2009, 17:54
Alexisonfire / Live At The Manchester Academy - Nov 14 2007
Used drive : MATSHITADVD-RAM UJ-852 Adapter: 1 ID: 0
Read mode : Secure
Utilize accurate stream : Yes
Defeat audio cache : Yes
Make use of C2 pointers : No
Read offset correction : 102
Overread into Lead-In and Lead-Out : No
Fill up missing offset samples with silence : Yes
Delete leading and trailing silent blocks : No
Null samples used in CRC calculations : Yes
Used interface : Native Win32 interface for Win NT & 2000
Gap handling : Appended to previous track
Used output format : User Defined Encoder
Selected bitrate : 128 kBit/s
Quality : High
Add ID3 tag : No
Command line compressor : C:\Program Files\FLAC\flac.exe
Additional command line options : -V -8 -T "artist=%a" -T "title=%t" -T "album=%g" -T "date=%y" -T "tracknumber=%n" -T "genre=%m" %s
TOC of the extracted CD
Track | Start | Length | Start sector | End sector
---------------------------------------------------------
1 | 0:00.00 | 4:59.22 | 0 | 22446
2 | 4:59.22 | 3:51.67 | 22447 | 39838
3 | 8:51.14 | 4:18.09 | 39839 | 59197
4 | 13:09.23 | 4:02.47 | 59198 | 77394
5 | 17:11.70 | 6:13.37 | 77395 | 105406
6 | 23:25.32 | 3:58.17 | 105407 | 123273
7 | 27:23.49 | 8:16.08 | 123274 | 160481
Track 1
Filename C:\Documents and Settings\STELLUT_NICH\Desktop\Alexisonfire\Live At The Manchester Academy - Nov 14 2007\01 - Rough Hands.wav
Pre-gap length 0:00:02.00
Peak level 97.1 %
Track quality 100.0 %
Test CRC A0E2B3DC
Copy CRC A0E2B3DC
Copy OK
Track 2
Filename C:\Documents and Settings\STELLUT_NICH\Desktop\Alexisonfire\Live At The Manchester Academy - Nov 14 2007\02 - Keep It On Wax.wav
Peak level 97.4 %
Track quality 100.0 %
Test CRC 5C2D82B9
Copy CRC 5C2D82B9
Copy OK
Track 3
Filename C:\Documents and Settings\STELLUT_NICH\Desktop\Alexisonfire\Live At The Manchester Academy - Nov 14 2007\03 - Drunks.wav
Peak level 97.5 %
Track quality 100.0 %
Test CRC 291B3AF9
Copy CRC 291B3AF9
Copy OK
Track 4
Filename C:\Documents and Settings\STELLUT_NICH\Desktop\Alexisonfire\Live At The Manchester Academy - Nov 14 2007\04 - Boiled Frogs.wav
Peak level 97.3 %
Track quality 100.0 %
Test CRC 8F51C8DA
Copy CRC 8F51C8DA
Copy OK
Track 5
Filename C:\Documents and Settings\STELLUT_NICH\Desktop\Alexisonfire\Live At The Manchester Academy - Nov 14 2007\05 - Accidents.wav
Peak level 97.6 %
Track quality 100.0 %
Test CRC 64300206
Copy CRC 64300206
Copy OK
Track 6
Filename C:\Documents and Settings\STELLUT_NICH\Desktop\Alexisonfire\Live At The Manchester Academy - Nov 14 2007\06 - Water Wings.wav
Peak level 97.4 %
Track quality 100.0 %
Test CRC D5CF43C1
Copy CRC D5CF43C1
Copy OK
Track 7
Filename C:\Documents and Settings\STELLUT_NICH\Desktop\Alexisonfire\Live At The Manchester Academy - Nov 14 2007\07 - Happiness.wav
Peak level 98.5 %
Track quality 99.9 %
Test CRC E5F01CB7
Copy CRC E5F01CB7
Copy OK
No errors occurred
End of status report
Код:
Код: Выделить всё
-----------------------

DON'T MODIFY THIS FILE

-----------------------

PERFORMER: auCDtect Task Manager, ver. 1.6.0 RC1 build 1.6.0.1
Copyright (c) 2008-2010 y-soft. All rights reserved
http:/y-soft.org

ANALYZER: auCDtect: CD records authenticity detector, version 0.8.2
Copyright (c) 2004 Oleg Berngardt. All rights reserved.
Copyright (c) 2004 Alexander Djourik. All rights reserved.

FILE: 03 - Drunks.flac
  Size: 30635992 Hash: E93E563B166AEF843665B693E8F65CB8 Accuracy: -m0
  Conclusion: CDDA 100%
  Signature: 147A2C180AAD44227A264FA44E75E85E342AE0B7
FILE: 02 - Keep It On Wax.flac
  Size: 27956908 Hash: E40591C5C47DC9004863B298A58D2524 Accuracy: -m0
  Conclusion: CDDA 99%
  Signature: CA89CB6CF45B2B62B65196EBA6AA125CA5C5FC41
FILE: 01 - Rough Hands.flac
  Size: 33054042 Hash: EE06EA941358ADBAD95102CBE9005A93 Accuracy: -m0
  Conclusion: CDDA 100%
  Signature: 3D553B75C4498816533177AD123C91620750DC99
FILE: 07 - Happiness.flac
  Size: 58452248 Hash: 86B60E13034273007857F952F57402F7 Accuracy: -m0
  Conclusion: CDDA 100%
  Signature: EF9E06AC037B923094C27A9902EBD67833FBBD21
FILE: 06 - Water Wings.flac
  Size: 27203418 Hash: D95C68808B369B406408A2624F595A72 Accuracy: -m0
  Conclusion: CDDA 100%
  Signature: FDD7B3676632B277E3E69EE2AC95D62A5806D7BD
FILE: 05 - Accidents.flac
  Size: 43465193 Hash: 716DDF06EF60316BDF04CBE723A98E97 Accuracy: -m0
  Conclusion: CDDA 100%
  Signature: 6ED16F6FB690398C2909947DC8EFC08A3680CBC6
FILE: 04 - Boiled Frogs.flac
  Size: 29647424 Hash: A17773BC9132E553AA7293C1BC098079 Accuracy: -m0
  Conclusion: CDDA 100%
  Signature: 64BA0DB05325CB746665707AA7AD67421B4562C1
Код:
Код: Выделить всё
REM GENRE Alternative
REM DATE 2007
REM DISCID 45085B07
REM COMMENT "ExactAudioCopy v0.99pb4"
PERFORMER "Alexisonfire"
TITLE "Live At The Manchester Academy - Nov 14 2007"
FILE "01 - Rough Hands.wav" WAVE
TRACK 01 AUDIO
TITLE "Rough Hands"
PERFORMER "Alexisonfire"
FLAGS DCP
INDEX 01 00:00:00
FILE "02 - Keep It On Wax.wav" WAVE
TRACK 02 AUDIO
TITLE "Keep It On Wax"
PERFORMER "Alexisonfire"
FLAGS DCP
INDEX 01 00:00:00
FILE "03 - Drunks.wav" WAVE
TRACK 03 AUDIO
TITLE "Drunks"
PERFORMER "Alexisonfire"
FLAGS DCP
INDEX 01 00:00:00
FILE "04 - Boiled Frogs.wav" WAVE
TRACK 04 AUDIO
TITLE "Boiled Frogs"
PERFORMER "Alexisonfire"
FLAGS DCP
INDEX 01 00:00:00
FILE "05 - Accidents.wav" WAVE
TRACK 05 AUDIO
TITLE "Accidents"
PERFORMER "Alexisonfire"
FLAGS DCP
INDEX 01 00:00:00
FILE "06 - Water Wings.wav" WAVE
TRACK 06 AUDIO
TITLE "Water Wings"
PERFORMER "Alexisonfire"
FLAGS DCP
INDEX 01 00:00:00
FILE "07 - Happiness.wav" WAVE
TRACK 07 AUDIO
TITLE "Happiness"
PERFORMER "Alexisonfire"
FLAGS DCP
INDEX 01 00:00:00
#777Треклист:

01 - Old Crows (4:17)
02 - Young Cardinals (3:37)
03 - Sons Of Privilege (3:21)
04 - Born And Raised (4:01)
05 - No Rest (3:37)
06 - The Northern (4:28)
07 - Midnight Regulations (4:11)
08 - Emerald Street (3:15)
09 - Heading For The Sun (3:45)
10 - Accept Crime (3:14)
11 - Burial (4:18)
12 - Wayfarer Youth (3:40)
Продолжительность: 00:42:58
Издатель: Vagrant Records
№ по каталогу: B0028YW3IS
Код:
Код: Выделить всё
Exact Audio Copy V0.99 prebeta 4 from 23. January 2008
EAC extraction logfile from 3. October 2009, 1:37
Alexisonfire / Old Crows/Young Cardinals
Used drive : HL-DT-STDVDRAM GH20NS15 Adapter: 2 ID: 1
Read mode : Secure
Utilize accurate stream : Yes
Defeat audio cache : Yes
Make use of C2 pointers : No
Read offset correction : 667
Overread into Lead-In and Lead-Out : No
Fill up missing offset samples with silence : Yes
Delete leading and trailing silent blocks : No
Null samples used in CRC calculations : Yes
Used interface : Native Win32 interface for Win NT & 2000
Gap handling : Appended to previous track
Used output format : User Defined Encoder
Selected bitrate : 320 kBit/s
Quality : High
Add ID3 tag : No
Command line compressor : C:\Program Files\Exact Audio Copy\Flac\flac.exe
Additional command line options : -V -8 -T "artist=%a" -T "title=%t" -T "album=%g" -T "date=%y" -T "tracknumber=%n" -T "genre=%m" %s
TOC of the extracted CD
Track | Start | Length | Start sector | End sector
---------------------------------------------------------
1 | 0:00.00 | 4:17.08 | 0 | 19282
2 | 4:17.08 | 3:37.62 | 19283 | 35619
3 | 7:54.70 | 3:21.28 | 35620 | 50722
4 | 11:16.23 | 4:00.72 | 50723 | 68794
5 | 15:17.20 | 3:37.03 | 68795 | 85072
6 | 18:54.23 | 4:28.00 | 85073 | 105172
7 | 23:22.23 | 4:11.09 | 105173 | 124006
8 | 27:33.32 | 3:15.62 | 124007 | 138693
9 | 30:49.19 | 3:45.30 | 138694 | 155598
10 | 34:34.49 | 3:13.74 | 155599 | 170147
11 | 37:48.48 | 4:21.16 | 170148 | 189738
12 | 42:09.64 | 3:42.10 | 189739 | 206398
Track 1
Filename E:\Torrents\what cd\FLAC\Alexisonfire\Alexisonfire - Old Crows,Young Cardinals - 2009 - (FLAC)\01 - Old Crows.wav
Pre-gap length 0:00:02.00
Peak level 98.9 %
Track quality 100.0 %
Test CRC EAFDD610
Copy CRC EAFDD610
Accurately ripped (confidence 1) [53D4692E]
Copy OK
Track 2
Filename E:\Torrents\what cd\FLAC\Alexisonfire\Alexisonfire - Old Crows,Young Cardinals - 2009 - (FLAC)\02 - Young Cardinals.wav
Peak level 98.9 %
Track quality 99.9 %
Test CRC B7CDE5B5
Copy CRC B7CDE5B5
Accurately ripped (confidence 1) [9B906729]
Copy OK
Track 3
Filename E:\Torrents\what cd\FLAC\Alexisonfire\Alexisonfire - Old Crows,Young Cardinals - 2009 - (FLAC)\03 - Sons Of Privilege.wav
Peak level 100.0 %
Track quality 100.0 %
Test CRC 4C1F22A4
Copy CRC 4C1F22A4
Accurately ripped (confidence 1) [9DDF0005]
Copy OK
Track 4
Filename E:\Torrents\what cd\FLAC\Alexisonfire\Alexisonfire - Old Crows,Young Cardinals - 2009 - (FLAC)\04 - Born And Raised.wav
Peak level 100.0 %
Track quality 100.0 %
Test CRC 1C674FA7
Copy CRC 1C674FA7
Accurately ripped (confidence 1) [000EA7DF]
Copy OK
Track 5
Filename E:\Torrents\what cd\FLAC\Alexisonfire\Alexisonfire - Old Crows,Young Cardinals - 2009 - (FLAC)\05 - No Rest.wav
Peak level 98.9 %
Track quality 100.0 %
Test CRC F6479396
Copy CRC F6479396
Accurately ripped (confidence 1) [DEE31324]
Copy OK
Track 6
Filename E:\Torrents\what cd\FLAC\Alexisonfire\Alexisonfire - Old Crows,Young Cardinals - 2009 - (FLAC)\06 - The Northern.wav
Peak level 98.9 %
Track quality 100.0 %
Test CRC 99C84A10
Copy CRC 99C84A10
Accurately ripped (confidence 1) [583B02A3]
Copy OK
Track 7
Filename E:\Torrents\what cd\FLAC\Alexisonfire\Alexisonfire - Old Crows,Young Cardinals - 2009 - (FLAC)\07 - Midnight Regulations.wav
Peak level 99.2 %
Track quality 100.0 %
Test CRC F091E6B9
Copy CRC F091E6B9
Accurately ripped (confidence 1) [CA0CD61B]
Copy OK
Track 8
Filename E:\Torrents\what cd\FLAC\Alexisonfire\Alexisonfire - Old Crows,Young Cardinals - 2009 - (FLAC)\08 - Emerald Street.wav
Peak level 100.0 %
Track quality 100.0 %
Test CRC 7B8B0044
Copy CRC 7B8B0044
Accurately ripped (confidence 1) [FF1D8130]
Copy OK
Track 9
Filename E:\Torrents\what cd\FLAC\Alexisonfire\Alexisonfire - Old Crows,Young Cardinals - 2009 - (FLAC)\09 - Heading For The Sun.wav
Peak level 98.9 %
Track quality 100.0 %
Test CRC 67336F62
Copy CRC 67336F62
Accurately ripped (confidence 1) [0A3BC73B]
Copy OK
Track 10
Filename E:\Torrents\what cd\FLAC\Alexisonfire\Alexisonfire - Old Crows,Young Cardinals - 2009 - (FLAC)\10 - Accept Crime.wav
Peak level 98.9 %
Track quality 100.0 %
Test CRC 5E4F288D
Copy CRC 5E4F288D
Accurately ripped (confidence 1) [E004AC5B]
Copy OK
Track 11
Filename E:\Torrents\what cd\FLAC\Alexisonfire\Alexisonfire - Old Crows,Young Cardinals - 2009 - (FLAC)\11 - Burial.wav
Peak level 98.9 %
Track quality 100.0 %
Test CRC A1E0F881
Copy CRC A1E0F881
Accurately ripped (confidence 1) [45BB705E]
Copy OK
Track 12
Filename E:\Torrents\what cd\FLAC\Alexisonfire\Alexisonfire - Old Crows,Young Cardinals - 2009 - (FLAC)\12 - Wayfarer Youth.wav
Pre-gap length 0:00:02.76
Peak level 98.9 %
Track quality 100.0 %
Test CRC DE39B91C
Copy CRC DE39B91C
Accurately ripped (confidence 1) [B40F2E7D]
Copy OK
All tracks accurately ripped
No errors occurred
End of status report
Код:
Код: Выделить всё
-----------------------

DON'T MODIFY THIS FILE

-----------------------

PERFORMER: auCDtect Task Manager, ver. 1.6.0 RC1 build 1.6.0.1
Copyright (c) 2008-2010 y-soft. All rights reserved
http:/y-soft.org

ANALYZER: auCDtect: CD records authenticity detector, version 0.8.2
Copyright (c) 2004 Oleg Berngardt. All rights reserved.
Copyright (c) 2004 Alexander Djourik. All rights reserved.

FILE: 05 - No Rest.flac
  Size: 29365337 Hash: 93907099C845BB814278C2E95934D42B Accuracy: -m0
  Conclusion: CDDA 100%
  Signature: 860F4519B4E1E1463B0F05A95940160377C54369
FILE: 04 - Born And Raised.flac
  Size: 33461352 Hash: E9A734A594486241E2E61F0FDF343037 Accuracy: -m0
  Conclusion: CDDA 100%
  Signature: 6236ECC9B1A6766C983858D269C38A7795C5ADC5
FILE: 03 - Sons Of Privilege.flac
  Size: 27746701 Hash: C26356394B4AEA1FC552FC348BF1FD64 Accuracy: -m0
  Conclusion: CDDA 100%
  Signature: 0E1DE9CF7CE3D0066065306B54A4563C738B98EC
FILE: 02 - Young Cardinals.flac
  Size: 29877558 Hash: 59F4D433FFF9342F5FEF6783A7067634 Accuracy: -m0
  Conclusion: CDDA 100%
  Signature: 0EB986BB46F4DBBF249E8981F3E631738596808A
FILE: 01 - Old Crows.flac
  Size: 35789922 Hash: F3829E112567493B56D24592EBD1D51D Accuracy: -m0
  Conclusion: CDDA 100%
  Signature: 6E72EA860F0959F6DFA22585A537C9CE08FF92F4
FILE: 12 - Wayfarer Youth.flac
  Size: 28319462 Hash: 89BA0AC5C3FF94D009BC1DBB623D55CE Accuracy: -m0
  Conclusion: CDDA 99%
  Signature: F4EC6D2B05B893C973C32D573529FD96B8E61FFF
FILE: 11 - Burial.flac
  Size: 31304091 Hash: DC5B103ACBAD5883EB32E794FE3D20F7 Accuracy: -m0
  Conclusion: CDDA 100%
  Signature: A544D59E105C7F5918E142D5F4FDAEE33E854306
FILE: 10 - Accept Crime.flac
  Size: 27288807 Hash: C102287555952D29F6326E70C9B80AAB Accuracy: -m0
  Conclusion: CDDA 99%
  Signature: FC1723AB2F893CA6254D7199E863B28100114759
FILE: 09 - Heading For The Sun.flac
  Size: 31327212 Hash: 6A6FFB0EDA07566BB224A45E0274B7BB Accuracy: -m0
  Conclusion: CDDA 100%
  Signature: 13BF2B9D7683054867E568412F61885FA8D74F2B
FILE: 08 - Emerald Street.flac
  Size: 26431766 Hash: A372D401F35F73220AE1D23FC4260A42 Accuracy: -m0
  Conclusion: CDDA 100%
  Signature: 5D6391BEA641AE1699391B39C940678C0CAF340D
FILE: 07 - Midnight Regulations.flac
  Size: 35478614 Hash: 508B2248289D45C39ABEB0A95F01EA1A Accuracy: -m0
  Conclusion: CDDA 100%
  Signature: 18BC11E2FFC69DC53FD006BCB3A908E84B5BBA28
FILE: 06 - The Northern.flac
  Size: 35994096 Hash: C8D94ACCC02404FB93681ED01A195938 Accuracy: -m0
  Conclusion: CDDA 99%
  Signature: F57A0E9DBE03E001F88D3C5BC3CE6ACE1433A305
Код:
Код: Выделить всё
REM GENRE Hardcore
REM DATE 2009
REM DISCID A40ABF0C
REM COMMENT "ExactAudioCopy v0.99pb4"
FILE "01 - Old Crows.wav" WAVE
TRACK 01 AUDIO
TITLE "Old Crows"
PERFORMER "Alexisonfire"
FLAGS DCP
INDEX 01 00:00:00
FILE "02 - Young Cardinals.wav" WAVE
TRACK 02 AUDIO
TITLE "Young Cardinals"
PERFORMER "Alexisonfire"
FLAGS DCP
INDEX 01 00:00:00
FILE "03 - Sons Of Privilege.wav" WAVE
TRACK 03 AUDIO
TITLE "Sons Of Privilege"
PERFORMER "Alexisonfire"
FLAGS DCP
INDEX 01 00:00:00
FILE "04 - Born And Raised.wav" WAVE
TRACK 04 AUDIO
TITLE "Born And Raised"
PERFORMER "Alexisonfire"
FLAGS DCP
INDEX 01 00:00:00
FILE "05 - No Rest.wav" WAVE
TRACK 05 AUDIO
TITLE "No Rest"
PERFORMER "Alexisonfire"
FLAGS DCP
INDEX 01 00:00:00
FILE "06 - The Northern.wav" WAVE
TRACK 06 AUDIO
TITLE "The Northern"
PERFORMER "Alexisonfire"
FLAGS DCP
INDEX 01 00:00:00
FILE "07 - Midnight Regulations.wav" WAVE
TRACK 07 AUDIO
TITLE "Midnight Regulations"
PERFORMER "Alexisonfire"
FLAGS DCP
INDEX 01 00:00:00
FILE "08 - Emerald Street.wav" WAVE
TRACK 08 AUDIO
TITLE "Emerald Street"
PERFORMER "Alexisonfire"
FLAGS DCP
INDEX 01 00:00:00
FILE "09 - Heading For The Sun.wav" WAVE
TRACK 09 AUDIO
TITLE "Heading For The Sun"
PERFORMER "Alexisonfire"
FLAGS DCP
INDEX 01 00:00:00
FILE "10 - Accept Crime.wav" WAVE
TRACK 10 AUDIO
TITLE "Accept Crime"
PERFORMER "Alexisonfire"
FLAGS DCP
INDEX 01 00:00:00
FILE "11 - Burial.wav" WAVE
TRACK 11 AUDIO
TITLE "Burial"
PERFORMER "Alexisonfire"
FLAGS DCP
INDEX 01 00:00:00
TRACK 12 AUDIO
TITLE "Wayfarer Youth"
PERFORMER "Alexisonfire"
FLAGS DCP
INDEX 00 04:18:34
FILE "12 - Wayfarer Youth.wav" WAVE
INDEX 01 00:00:00
Правила, инструкции, FAQ!!!
Торрент  Добавлен [16 мар 2014, 00:41] Скачать торрент Магнет ссылка
Скачать торрент
31.29 КБ

Статус
Проверен 
 
Размер  1.91 ГБ
Приватный: Нет (DHT включён)
.torrent скачан  1
Как залить торрент? | Как скачать Torrent? | Как смотреть и слушать онлайн?  
Гость
 



Вернуться в Дискографии (Зарубежные)

Кто сейчас на конференции

Сейчас этот форум просматривают: нет зарегистрированных пользователей и гости: 0