Алеся Джиоева | Манчестер Юнайтед как феномен глобальной культуры, менеджмента и бизнеса (2015) WEBRip [H.264/1080p]


Статистика раздачи
Размер: 1001.78 МБ | Добавлен: 28 дек 2015, 22:49 | Скачали: 0
Сидеров: 1  [0 байт/сек]    Личеров: 1  [0 байт/сек]

Сообщение Гость » 28 дек 2015, 22:49

Алеся Джиоева | Манчестер Юнайтед как феномен глобальной культуры, менеджмента и бизнеса (2015) WEBRip [H.264/1080p]

Автор: Алеся Джиоева / МГУ
Производство: Россия, МГУ.
Жанр: Лекция

Описание:
10 октября в Московском государственном университете состоялась лекция профессора факультета глобальных процессов, автора многочисленных исследований в области культурологии Англии и английского языка Алеси А. Джиоевой, посвященная «Манчестер Юнайтед».

Продолжительность: 00:53:17
Качество видео: WEBRip

Видео: AVC/H.264, 1920x1080, ~2496 Кбит/сек
Аудио: AAC, 2 ch, 126 Кбит/сек, CBR
Код:
Код: Выделить всё
бщее
Полное имя                               : X:\Films\“Манчестер Юнайтед как феномен глобальной культуры, менеджмента и бизнеса“. Алеся Джиоева׃ ФН 2015.mp4
Формат                                   : MPEG-4
Профиль формата                          : Base Media
Идентификатор кодека                     : isom
Размер файла                             : 1002 Мбайт
Продолжительность                        : 53 м.
Общий поток                              : 2628 Кбит/сек
Программа кодирования                    : Lavf57.2.100

Видео
Идентификатор                            : 1
Формат                                   : AVC
Формат/Информация                        : Advanced Video Codec
Профиль формата                          : High@L4
Параметр CABAC формата                   : Да
Параметр ReFrames формата                : 2 кадра
Идентификатор кодека                     : avc1
Идентификатор кодека/Информация          : Advanced Video Coding
Продолжительность                        : 53 м.
Битрейт                                  : 2496 Кбит/сек
Ширина                                   : 1920 пикселей
Высота                                   : 1080 пикселей
Соотношение сторон                       : 16:9
Режим частоты кадров                     : Постоянный
Частота кадров                           : 25,000 кадров/сек
Цветовое пространство                    : YUV
Субдискретизация насыщенности            : 4:2:0
Битовая глубина                          : 8 бит
Тип развёртки                            : Прогрессивная
Бит/(Пиксели*Кадры)                      : 0.048
Размер потока                            : 952 Мбайт (95%)

Аудио
Идентификатор                            : 2
Формат                                   : AAC
Формат/Информация                        : Advanced Audio Codec
Профиль формата                          : LC
Идентификатор кодека                     : 40
Продолжительность                        : 53 м.
Вид битрейта                             : Постоянный
Битрейт                                  : 126 Кбит/сек
Каналы                                   : 2 канала
Расположение каналов                     : Front: L R
Частота                                  : 44,1 КГц
Метод сжатия                             : С потерями
Размер потока                            : 47,9 Мбайт (5%)

Скриншоты:



Время раздачи: До пяти скачавших.
Правила, инструкции, FAQ!!!
Торрент  Добавлен [28 дек 2015, 22:49] Скачать торрент Магнет ссылка
Скачать торрент
20.61 КБ

Статус
Проверен 
 
Размер  1001.78 МБ
Приватный: Нет (DHT включён)
.torrent скачан  0
Как залить торрент? | Как скачать Torrent? | Как смотреть и слушать онлайн?  
Гость
 



Вернуться в Интерактивные обучающие и развивающие материалы

Кто сейчас на конференции

Сейчас этот форум просматривают: нет зарегистрированных пользователей и гости: 0