Aerosmith - Discography (1973-2006) [FLAC, APE|~1000Kbps]<Rock>


Статистика раздачи
Размер: 10.77 ГБ | Добавлен: 10 фев 2016, 22:15 | Скачали: 6
Сидеров: 38  [0 байт/сек]    Личеров: 140  [0 байт/сек]

Сообщение Гость » 21 июл 2014, 09:41

Aerosmith - Discography
(1973-2006)


Год: 1973-2006
Жанр: Rock
Кодек: FLAC | APE
Битрейт: ~1000Kbps
Продолжительность: 26:54:07


Биография

...Началось все в конце 60-х в Сьюнапи, Нью-Хэмпшир. Стивен Тайлер, которого ещё звали Стивеном Талларико, приехал туда на каникулы. До этого он без особого успеха пробовал себя в роли барабанщика и вокалиста ряда нью-йоркских групп. Стивен встретил Джо Перри, который играл вместе с басистом Томом Хэмилтоном и барабанщиком Дэвидом Скоттом в группе The Jam Band, и одновременно подрабатывал посудомойкой в портовом кафе. По легенде Стивену очень понравилась еда и он захотел похвалить повара, но нарвался на хмурый взгляд Перри. Фактически эта встреча привела к образованию Aerosmith.

...В сентябре 1970 Перри и Хэмилтон переехали в Бостон, где познакомились с Джоем Крамером, барабанщиком из Yonkers. Оказалось, что он тоже знает Стивена и был бы рад играть с ним в одной группе. Крамер бросает учёбу в музыкальном колледже Беркли и присоединяется к коллективу. В октябре 1970 троица снова встречает Стивена Тайлера, который на этот раз отказывается играть на барабанах, но предлагает себя в качестве вокалиста и фронтмена. Все соглашаются, Тайлер приводит своего школьного друга Рея Табано, который берётся за ритм-гитару, и группа начинает играть на местных концертах. В 1971 Рея заменил Брэд Уитфорд, образованный и более-менее профессиональный гитарист, недавно окончивший колледж Беркли и даже успевший сформировать свою группу Earth Inc. Состав Тайлер, Перри, Хэмилтон, Крамер и Уитфорд меняется только в промежуток с июля 1979 по апрель 1984.

Дискография
Продолжительность: 00:35:51
Кодек: FLAC
Битрейт: ~1000 кбит/с VBR
Трек лист:
01 - Make It
02 - Somebody
03 - Dream On
04 - One Way Street
05 - Mama Kin
06 - Write Me A Letter
07 - Movin' Out
08 - Walkin' The Dog
EAC extraction logfile from 27. March 2006, 23:52 for CD
Aerosmith / Aerosmith

Used drive : SAMSUNG DVD-ROM SD-616F Adapter: 0 ID: 0
Read mode : Secure with NO C2, accurate stream, disable cache
Read offset correction : 1182
Overread into Lead-In and Lead-Out : No

Used output format : Internal WAV Routines
44.100 Hz; 16 Bit; Stereo

Other options :
Fill up missing offset samples with silence : Yes
Delete leading and trailing silent blocks : No
Installed external ASPI interface

Track 1
Filename C:\Documents and Settings\New Account\Desktop\Aerosmith - Aerosmith (1973) [FLAC] (Remastered)\01 - Make It.wav

Pre-gap length 0:00:02.00

Peak level 98.5 %
Track quality 100.0 %
Test CRC 2D34F9F0
Copy CRC 2D34F9F0
Copy OK

Track 2
Filename C:\Documents and Settings\New Account\Desktop\Aerosmith - Aerosmith (1973) [FLAC] (Remastered)\02 - Somebody.wav

Pre-gap length 0:00:02.00

Peak level 91.9 %
Track quality 100.0 %
Test CRC 89636D8D
Copy CRC 89636D8D
Copy OK

Track 3
Filename C:\Documents and Settings\New Account\Desktop\Aerosmith - Aerosmith (1973) [FLAC] (Remastered)\03 - Dream On.wav

Pre-gap length 0:00:02.00

Peak level 100.0 %
Track quality 99.9 %
Test CRC 780F6280
Copy CRC 780F6280
Copy OK

Track 4
Filename C:\Documents and Settings\New Account\Desktop\Aerosmith - Aerosmith (1973) [FLAC] (Remastered)\04 - One Way Street.wav

Pre-gap length 0:00:02.00

Peak level 100.0 %
Track quality 100.0 %
Test CRC 6DE57C6A
Copy CRC 6DE57C6A

Copy OK

Track 5
Filename C:\Documents and Settings\New Account\Desktop\Aerosmith - Aerosmith (1973) [FLAC] (Remastered)\05 - Mama Kin.wav

Pre-gap length 0:00:02.00

Peak level 97.0 %
Track quality 100.0 %
Test CRC 09CC4656
Copy CRC 09CC4656
Copy OK

Track 6
Filename C:\Documents and Settings\New Account\Desktop\Aerosmith - Aerosmith (1973) [FLAC] (Remastered)\06 - Write Me A Letter.wav

Pre-gap length 0:00:02.00

Peak level 98.2 %
Track quality 99.9 %
Test CRC 066EBB12
Copy CRC 066EBB12
Copy OK

Track 7
Filename C:\Documents and Settings\New Account\Desktop\Aerosmith - Aerosmith (1973) [FLAC] (Remastered)\07 - Movin' Out.wav

Pre-gap length 0:00:02.00

Peak level 97.4 %
Track quality 100.0 %
Test CRC 97665A3D
Copy CRC 97665A3D
Copy OK

Track 8
Filename C:\Documents and Settings\New Account\Desktop\Aerosmith - Aerosmith (1973) [FLAC] (Remastered)\08 - Walkin' The Dog.wav

Pre-gap length 0:00:02.00

Peak level 94.8 %
Track quality 99.9 %
Test CRC C3CA2FDA
Copy CRC C3CA2FDA
Copy OK

No errors occured

End of status report
#777Продолжительность: 00:38:06
Кодек: FLAC
Битрейт: ~1000 кбит/с VBR
Трек лист:
01 - Same Old Song and Dance
02 - Lord of the Thighs
03 - Spaced
04 - Woman of the World
05 - S.O.S. (Too Bad)
06 - Train Kept a Rollin'
07 - Seasons of Wither
08 - Pandora's Box
EAC extraction logfile from 28. March 2006, 19:52 for CD
Aerosmith / Get Your Wings

Used drive : SAMSUNG DVD-ROM SD-616F Adapter: 0 ID: 0
Read mode : Secure with NO C2, accurate stream, disable cache
Read offset correction : 1182
Overread into Lead-In and Lead-Out : No

Used output format : Internal WAV Routines
44.100 Hz; 16 Bit; Stereo

Other options :
Fill up missing offset samples with silence : Yes
Delete leading and trailing silent blocks : No
Installed external ASPI interface

Track 1
Filename C:\Documents and Settings\New Account\Desktop\Aerosmith - Get Your Wings (1974) [FLAC] (Remastered)\01 - Same Old Song and Dance.wav

Pre-gap length 0:00:02.00

Peak level 100.0 %
Track quality 100.0 %
Test CRC 230CB3D8
Copy CRC 230CB3D8
Copy OK

Track 2
Filename C:\Documents and Settings\New Account\Desktop\Aerosmith - Get Your Wings (1974) [FLAC] (Remastered)\02 - Lord of the Thighs.wav

Pre-gap length 0:00:02.00

Peak level 100.0 %
Track quality 100.0 %
Test CRC 812BEEB8
Copy CRC 812BEEB8
Copy OK

Track 3
Filename C:\Documents and Settings\New Account\Desktop\Aerosmith - Get Your Wings (1974) [FLAC] (Remastered)\03 - Spaced.wav

Pre-gap length 0:00:02.00

Peak level 100.0 %
Track quality 99.9 %
Test CRC 9483B28E
Copy CRC 9483B28E
Copy OK

Track 4
Filename C:\Documents and Settings\New Account\Desktop\Aerosmith - Get Your Wings (1974) [FLAC] (Remastered)\04 - Woman of the World.wav

Pre-gap length 0:00:02.00

Peak level 100.0 %
Track quality 100.0 %
Test CRC C5F6D6BD
Copy CRC C5F6D6BD
Copy OK

Track 5
Filename C:\Documents and Settings\New Account\Desktop\Aerosmith - Get Your Wings (1974) [FLAC] (Remastered)\05 - S.O.S. (Too Bad).wav

Pre-gap length 0:00:02.00

Peak level 94.4 %
Track quality 100.0 %
Test CRC 40DF4485
Copy CRC 40DF4485
Copy OK

Track 6
Filename C:\Documents and Settings\New Account\Desktop\Aerosmith - Get Your Wings (1974) [FLAC] (Remastered)\06 - Train Kept a Rollin'.wav

Pre-gap length 0:00:02.00

Peak level 99.0 %
Track quality 99.9 %
Test CRC 12EC8A48
Copy CRC 12EC8A48
Copy OK

Track 7
Filename C:\Documents and Settings\New Account\Desktop\Aerosmith - Get Your Wings (1974) [FLAC] (Remastered)\07 - Seasons of Wither.wav

Pre-gap length 0:00:02.00

Peak level 100.0 %

Track quality 99.9 %
Test CRC C9B8B3F5
Copy CRC C9B8B3F5
Copy OK

Track 8
Filename C:\Documents and Settings\New Account\Desktop\Aerosmith - Get Your Wings (1974) [FLAC] (Remastered)\08 - Pandora's Box.wav

Pre-gap length 0:00:02.00

Peak level 100.0 %
Track quality 100.0 %
Test CRC D1B737F1
Copy CRC D1B737F1
Copy OK

No errors occured

End of status report
#777Продолжительность: 00:37:12
Кодек: FLAC
Битрейт: ~1000 кбит/с VBR
Трек лист:
01 - Toys In The Attic
02 - Uncle Salty
03 - Adam's Apple
04 - Walk This Way
05 - Big Ten Inch Record
06 - Sweet Emotion
07 - No More No More
08 - Round And Round
09 - You See Me Crying

Лога нет
.
.
.
.
.
.
.
.
#777Продолжительность: 00:34:34
Кодек: FLAC
Битрейт: ~1000 кбит/с VBR
Трек лист:
01 - Back in the saddle
02 - last child
03 - rats in the cellar
04 - Combination
05 - sick as a dog
06 - nobodys fault
07 - get the lead.out
08 - lick and a promise
09 - home tonight
EAC extraction logfile from 11. October 2006, 23:32 for CD
Aerosmith / Rocks

Used drive : SONY DVD RW DW-D56A Adapter: 1 ID: 0
Read mode : Secure with C2, accurate stream, disable cache
Combined read/write offset correction : 0
Overread into Lead-In and Lead-Out : No

Used output format : D:\flac\flac.exe (User Defined Encoder)
192 kBit/s
Additional command line options : -V -8 -T "artist=%a" -T "title=%t" -T "album=%g" -T "date=%y" -T "tracknumber=%n" -T "genre=%m" -T "comment=EAC Secure, Lossless" %s

Other options :
Fill up missing offset samples with silence : Yes

Delete leading and trailing silent blocks : No
Native Win32 interface for Win NT & 2000

Track 1
Filename D:\Desktop\aerosmith - rock\Back In The Saddle.wav

Peak level 100.0 %
Track quality 100.0 %
Copy CRC 71043851
Copy OK

Track 2
Filename D:\Desktop\aerosmith - rock\Last Child.wav

Peak level 100.0 %
Track quality 100.0 %
Copy CRC D72910C4
Copy OK

Track 3
Filename D:\Desktop\aerosmith - rock\Rats In The Cellar.wav

Peak level 95.9 %
Track quality 100.0 %
Copy CRC F6A7F8E1
Copy OK

Track 4
Filename D:\Desktop\aerosmith - rock\Combination.wav

Peak level 98.8 %
Track quality 100.0 %
Copy CRC A71F2839
Copy OK

Track 5
Filename D:\Desktop\aerosmith - rock\Sick As A Dog.wav

Peak level 97.9 %
Track quality 100.0 %
Copy CRC 285E2C41
Copy OK

Track 6
Filename D:\Desktop\aerosmith - rock\Nobody's Fault.wav

Peak level 96.8 %
Track quality 100.0 %
Copy CRC 830CC1D2
Copy OK

Track 7
Filename D:\Desktop\aerosmith - rock\Get The Lead Out.wav

Peak level 100.0 %
Track quality 100.0 %
Copy CRC 07CF0989
Copy OK

Track 8
Filename D:\Desktop\aerosmith - rock\Lick And A Promise.wav

Peak level 98.5 %
Track quality 100.0 %
Copy CRC AC53153B
Copy OK

Track 9
Filename D:\Desktop\aerosmith - rock\Home Tonight.wav

Peak level 98.1 %
Track quality 99.8 %
Copy CRC E67598FA
Copy OK

No errors occured

End of status report
#777Продолжительность: 00:35:17
Кодек: FLAC
Битрейт: ~1000 кбит/с VBR
Трек лист:
01 - Draw The Line
02 - I Wanna Know Why
03 - Critical Mass
04 - Get It Up
05 - Bright Light Fright
06 - Kings And Queens
07 - The Hand That Feeds
08 - Sight For Sore Eyes
09 - Milk Cow Blues
EAC extraction logfile from 30. March 2006, 20:21 for CD
Aerosmith / Draw The Line

Used drive : SAMSUNG DVD-ROM SD-616F Adapter: 0 ID: 0
Read mode : Secure with NO C2, accurate stream, disable cache
Read offset correction : 1182
Overread into Lead-In and Lead-Out : No

Used output format : Internal WAV Routines
44.100 Hz; 16 Bit; Stereo

Other options :
Fill up missing offset samples with silence : Yes
Delete leading and trailing silent blocks : No
Installed external ASPI interface

Track 1
Filename C:\Documents and Settings\New Account\Desktop\Aerosmith - Draw The Line (1977) [FLAC] (Remastered)\01 - Draw The Line.wav

Pre-gap length 0:00:02.00

Peak level 100.0 %
Track quality 100.0 %
Test CRC D641FC67
Copy CRC D641FC67
Copy OK

Track 2
Filename C:\Documents and Settings\New Account\Desktop\Aerosmith - Draw The Line (1977) [FLAC] (Remastered)\02 - I Wanna Know Why.wav

Pre-gap length 0:00:02.00

Peak level 99.0 %
Track quality 100.0 %
Test CRC 5E760FB2
Copy CRC 5E760FB2
Copy OK

Track 3
Filename C:\Documents and Settings\New Account\Desktop\Aerosmith - Draw The Line (1977) [FLAC] (Remastered)\03 - Critical Mass.wav

Pre-gap length 0:00:02.00

Peak level 100.0 %
Track quality 100.0 %
Test CRC F3BF67B4
Copy CRC F3BF67B4
Copy OK

Track 4
Filename C:\Documents and Settings\New Account\Desktop\Aerosmith - Draw The Line (1977) [FLAC] (Remastered)\04 - Get It Up.wav

Pre-gap length 0:00:02.00

Peak level 95.5 %
Track quality 100.0 %
Test CRC 7FB42D09
Copy CRC 7FB42D09
Copy OK

Track 5
Filename C:\Documents and Settings\New Account\Desktop\Aerosmith - Draw The Line (1977) [FLAC] (Remastered)\05 - Bright Light Fright.wav

Pre-gap length 0:00:02.00

Peak level 92.8 %
Track quality 100.0 %
Test CRC 788637D1
Copy CRC 788637D1
Copy OK

Track 6
Filename C:\Documents and Settings\New Account\Desktop\Aerosmith - Draw The Line (1977) [FLAC] (Remastered)\06 - Kings And Queens.wav

Pre-gap length 0:00:02.00

Peak level 94.6 %
Track quality 99.9 %
Test CRC D9B80F9B
Copy CRC D9B80F9B
Copy OK

Track 7
Filename C:\Documents and Settings\New Account\Desktop\Aerosmith - Draw The Line (1977) [FLAC] (Remastered)\07 - The Hand That Feeds.wav

Pre-gap length 0:00:02.00

Peak level 95.9 %
Track quality 100.0 %
Test CRC 11FE75F1
Copy CRC 11FE75F1
Copy OK

Track 8
Filename C:\Documents and Settings\New Account\Desktop\Aerosmith - Draw The Line (1977) [FLAC] (Remastered)\08 - Sight For Sore Eyes.wav

Pre-gap length 0:00:02.00

Peak level 100.0 %
Track quality 100.0 %
Test CRC 60065688
Copy CRC 60065688
Copy OK

Track 9
Filename C:\Documents and Settings\New Account\Desktop\Aerosmith - Draw The Line (1977) [FLAC] (Remastered)\09 - Milk Cow Blues.wav

Pre-gap length 0:00:02.00

Peak level 94.7 %
Track quality 100.0 %
Test CRC 38F3052A
Copy CRC 38F3052A
Copy OK

No errors occured

End of status report
#777Продолжительность: 00:35:42
Кодек: FLAC
Битрейт: ~1000 кбит/с VBR
Трек лист:
01 - No Surprize
02 - Chiquita
03 - Remember (Walking In The Sand)
04 - Cheese Cake
05 - Three Mile Smile
06 - Reefer Head Woman
07 - Bone To Bone (Coney Island White Fish Boy)
08 - Think About It
09 - Mia

Лога нет
.
.
.
.
.
.
#777Продолжительность: 00:40:20
Кодек: FLAC
Битрейт: ~1000 кбит/с VBR
Трек лист:
01 - Jailbait
02 - Lightning Strikes
03 - Bitch's Brew
04 - Boilivian Ragamuffin
05 - Cry Me A River
06 - Prelude To Joanie
07 - Joanie's Butterfly
08 - Rock In A Hard Place (Cheshire Cat)
09 - Jig Is Up
10 - Push Comes To Shove
EAC extraction logfile from 10. November 2006, 22:45 for CD
Aerosmith / Rock In A Hard Place

Used drive : TDK CDRW4800B Adapter: 2 ID: 0
Read mode : Secure with NO C2, accurate stream, disable cache
Read offset correction : 6
Overread into Lead-In and Lead-Out : No

Used output format : Internal WAV Routines
44.100 Hz; 16 Bit; Stereo

Other options :
Fill up missing offset samples with silence : Yes
Delete leading and trailing silent blocks : No
Native Win32 interface for Win NT & 2000

Track 1
Filename D:\Uploads\Aerosmith - Rock In A Hard Place (1982) [FLAC]\01 - Jailbait.wav

Pre-gap length 0:00:02.00

Peak level 91.1 %
Track quality 100.0 %
Test CRC 7B9CA983
Copy CRC 7B9CA983
Copy OK

Track 2
Filename D:\Uploads\Aerosmith - Rock In A Hard Place (1982) [FLAC]\02 - Lightning Strikes.wav

Pre-gap length 0:00:00.46

Peak level 91.5 %
Track quality 100.0 %
Test CRC 4B60A46E
Copy CRC 4B60A46E
Copy OK

Track 3
Filename D:\Uploads\Aerosmith - Rock In A Hard Place (1982) [FLAC]\03 - Bitch's Brew.wav

Peak level 99.9 %
Track quality 100.0 %
Test CRC F625296B
Copy CRC F625296B
Copy OK

Track 4
Filename D:\Uploads\Aerosmith - Rock In A Hard Place (1982) [FLAC]\04 - Boilivian Ragamuffin.wav

Pre-gap length 0:00:00.42

Peak level 98.4 %
Track quality 100.0 %
Test CRC BF07FEC6
Copy CRC BF07FEC6
Copy OK

Track 5
Filename D:\Uploads\Aerosmith - Rock In A Hard Place (1982) [FLAC]\05 - Cry Me A River.wav

Peak level 96.5 %
Track quality 100.0 %
Test CRC FD3C1265
Copy CRC FD3C1265
Copy OK

Track 6
Filename D:\Uploads\Aerosmith - Rock In A Hard Place (1982) [FLAC]\06 - Prelude To Joanie.wav

Peak level 23.4 %
Track quality 100.0 %
Test CRC 69726FAC
Copy CRC 69726FAC
Copy OK

Track 7
Filename D:\Uploads\Aerosmith - Rock In A Hard Place (1982) [FLAC]\07 - Joanie's Butterfly.wav

Peak level 93.1 %
Track quality 99.9 %

Test CRC ED70DEDD
Copy CRC ED70DEDD
Copy OK

Track 8
Filename D:\Uploads\Aerosmith - Rock In A Hard Place (1982) [FLAC]\08 - Rock In A Hard Place (Cheshire Cat).wav

Peak level 97.9 %
Track quality 100.0 %
Test CRC C49AAFA8
Copy CRC C49AAFA8
Copy OK

Track 9
Filename D:\Uploads\Aerosmith - Rock In A Hard Place (1982) [FLAC]\09 - Jig Is Up.wav

Pre-gap length 0:00:00.09

Peak level 100.0 %
Track quality 100.0 %
Test CRC 77BA4D07
Copy CRC 77BA4D07
Copy OK

Track 10
Filename D:\Uploads\Aerosmith - Rock In A Hard Place (1982) [FLAC]\10 - Push Comes To Shove.wav

Peak level 95.8 %
Track quality 100.0 %
Test CRC 544C42AC
Copy CRC 544C42AC
Copy OK

No errors occured

End of status report
#777Продолжительность: 00:35:47
Кодек: FLAC
Битрейт: ~1000 кбит/с VBR
Трек лист:
01. Let The Music Do The Talking
02. My Fist Your Face
03. Shame On You
04. The Reason A Dog
05. Shela
06. Gypsy Boots
07. She's On Fire
08. The Hop
09. Darkness
Exact Audio Copy V0.99 prebeta 4 from 23. January 2008
EAC extraction logfile from 4. July 2008, 19:48
Aerosmith / Done With Mirrors
Used drive : PBDS DVD+-RW DH-16W1S Adapter: 1 ID: 0
Read mode : Secure
Utilize accurate stream : Yes
Defeat audio cache : Yes
Make use of C2 pointers : No
Read offset correction : 6
Overread into Lead-In and Lead-Out : No
Fill up missing offset samples with silence : Yes
Delete leading and trailing silent blocks : No
Null samples used in CRC calculations : Yes
Used interface : Installed external ASPI interface
Gap handling : Appended to previous track
Used output format : User Defined Encoder
Selected bitrate : 128 kBit/s
Quality : High
Add ID3 tag : No
Command line compressor : E:\Program Files\FLAC\flac.exe
Additional command line options : -8 -V -T "ARTIST=%a" -T "TITLE=%t" -T "ALBUM=%g" -T "DATE=%y" -T "TRACKNUMBER=%n" -T "GENRE=%m" -T "COMMENT=EAC 0.99pb4, FLAC 1.7.1" %s
TOC of the extracted CD
Track | Start | Length | Start sector | End sector
---------------------------------------------------------
1 | 0:00.00 | 3:48.60 | 0 | 17159
2 | 3:48.60 | 4:23.12 | 17160 | 36896

3 | 8:11.72 | 3:22.05 | 36897 | 52051
4 | 11:34.02 | 4:13.53 | 52052 | 71079
5 | 15:47.55 | 4:25.50 | 71080 | 91004
6 | 20:13.30 | 4:16.65 | 91005 | 110269
7 | 24:30.20 | 3:47.52 | 110270 | 127346
8 | 28:17.72 | 3:45.28 | 127347 | 144249
9 | 32:03.25 | 3:43.37 | 144250 | 161011
Track 1
Filename F:\RIPS\Aerosmith - Done With Mirrors (1985) [FLAC] {2005, UICY-9520}\01 - Let The Music Do The Talking.wav
Pre-gap length 0:00:02.00
Peak level 99.9 %
Track quality 99.9 %
Test CRC 6A4A61E5
Copy CRC 6A4A61E5
Track not present in AccurateRip database
Copy OK
Track 2
Filename F:\RIPS\Aerosmith - Done With Mirrors (1985) [FLAC] {2005, UICY-9520}\02 - My Fist Your Face.wav
Pre-gap length 0:00:02.77
Peak level 99.9 %
Track quality 100.0 %
Test CRC B6F9FE49
Copy CRC B6F9FE49
Track not present in AccurateRip database
Copy OK
Track 3
Filename F:\RIPS\Aerosmith - Done With Mirrors (1985) [FLAC] {2005, UICY-9520}\03 - Shame On You.wav
Pre-gap length 0:00:01.69

Peak level 99.9 %
Track quality 100.0 %
Test CRC D93B9302
Copy CRC D93B9302
Track not present in AccurateRip database
Copy OK
Track 4
Filename F:\RIPS\Aerosmith - Done With Mirrors (1985) [FLAC] {2005, UICY-9520}\04 - The Reason A Dog.wav
Pre-gap length 0:00:02.06
Peak level 99.9 %
Track quality 99.9 %
Test CRC 8273AC28

Copy CRC 8273AC28
Track not present in AccurateRip database
Copy OK
Track 5
Filename F:\RIPS\Aerosmith - Done With Mirrors (1985) [FLAC] {2005, UICY-9520}\05 - Shela.wav
Pre-gap length 0:00:01.26
Peak level 99.9 %
Track quality 100.0 %
Test CRC 077D889B
Copy CRC 077D889B
Track not present in AccurateRip database
Copy OK
Track 6
Filename F:\RIPS\Aerosmith - Done With Mirrors (1985) [FLAC] {2005, UICY-9520}\06 - Gypsy Boots.wav
Pre-gap length 0:00:01.30
Peak level 99.9 %
Track quality 100.0 %
Test CRC 3D023144

Copy CRC 3D023144
Track not present in AccurateRip database
Copy OK
Track 7
Filename F:\RIPS\Aerosmith - Done With Mirrors (1985) [FLAC] {2005, UICY-9520}\07 - She's On Fire.wav
Pre-gap length 0:00:01.44
Peak level 99.9 %
Track quality 100.0 %
Test CRC FB408B7A
Copy CRC FB408B7A
Track not present in AccurateRip database
Copy OK
Track 8
Filename F:\RIPS\Aerosmith - Done With Mirrors (1985) [FLAC] {2005, UICY-9520}\08 - The Hop.wav
Pre-gap length 0:00:02.29
Peak level 99.9 %
Track quality 100.0 %
Test CRC 372E7FF3
Copy CRC 372E7FF3
Track not present in AccurateRip database
Copy OK
Track 9
Filename F:\RIPS\Aerosmith - Done With Mirrors (1985) [FLAC] {2005, UICY-9520}\09 - Darkness.wav
Pre-gap length 0:00:04.57
Peak level 99.9 %
Track quality 99.9 %
Test CRC B58951BB
Copy CRC B58951BB
Track not present in AccurateRip database
Copy OK
None of the tracks are present in the AccurateRip database
No errors occurred
End of status report
#777Продолжительность: 00:51:54
Кодек: FLAC
Битрейт: ~1000 кбит/с VBR
Трек лист:
01 - Heart's Done Time
02 - Magic Touch
03 - Rag Doll
04 - Simoriah
05 - Dude (Looks Like a Lady)
06 - St. John
07 - Hangman Jury
08 - Girl Keeps Coming Apart
09 - Angel
10 - Permanent Vacation
11 - I'm Down
12 -The Movie [Instrumental]
EAC extraction logfile from 6. January 2007, 10:35 for CD
Aerosmith / Permanent Vacation

Used drive : _NEC DVD_RW ND-3550A Adapter: 1 ID: 1
Read mode : Secure with NO C2, accurate stream, NO disable cache
Read offset correction : 48
Overread into Lead-In and Lead-Out : No

Used output format : C:\Program Files\Exact Audio Copy\flac.exe (User Defined Encoder)
320 kBit/s

Additional command line options : -V -8 -T "artist=%a" -T "title=%t" -T "album=%g" -T "date=%y" -T "tracknumber=%n" -T "genre=%m" %s

Other options :
Fill up missing offset samples with silence : Yes
Delete leading and trailing silent blocks : No
Installed external ASPI interface

Track 1
Filename D:\michael\My Documents\My Music\Rock\Aerosmith\Aerosmith - Permanent Vacation (1987) [Flac]\Permanent Vacation-01-Heart's Done Time.wav

Peak level 98.5 %

Track quality 100.0 %
Test CRC B48867C3
Copy CRC B48867C3
Copy OK

Track 2
Filename D:\michael\My Documents\My Music\Rock\Aerosmith\Aerosmith - Permanent Vacation (1987) [Flac]\Permanent Vacation-02-Magic Touch.wav

Peak level 98.7 %
Track quality 100.0 %
Test CRC 572029F0
Copy CRC 572029F0
Copy OK

Track 3
Filename D:\michael\My Documents\My Music\Rock\Aerosmith\Aerosmith - Permanent Vacation (1987) [Flac]\Permanent Vacation-03-Rag Doll.wav

Peak level 98.0 %
Track quality 100.0 %
Test CRC 48FF51BA
Copy CRC 48FF51BA
Copy OK

Track 4
Filename D:\michael\My Documents\My Music\Rock\Aerosmith\Aerosmith - Permanent Vacation (1987) [Flac]\Permanent Vacation-04-Simoriah.wav

Peak level 98.2 %
Track quality 100.0 %
Test CRC 7766E901
Copy CRC 7766E901
Copy OK

Track 5
Filename D:\michael\My Documents\My Music\Rock\Aerosmith\Aerosmith - Permanent Vacation (1987) [Flac]\Permanent Vacation-05-Dude (Looks Like a Lady).wav

Peak level 97.7 %
Track quality 99.9 %
Test CRC 76639601
Copy CRC 76639601
Copy OK

Track 6
Filename D:\michael\My Documents\My Music\Rock\Aerosmith\Aerosmith - Permanent Vacation (1987) [Flac]\Permanent Vacation-06-St. John.wav

Peak level 98.9 %
Track quality 100.0 %
Test CRC 0DF64D3A
Copy CRC 0DF64D3A
Copy OK

Track 7
Filename D:\michael\My Documents\My Music\Rock\Aerosmith\Aerosmith - Permanent Vacation (1987) [Flac]\Permanent Vacation-07-Hangman Jury.wav

Peak level 99.5 %
Track quality 99.9 %
Test CRC E157551B
Copy CRC E157551B
Copy OK

Track 8
Filename D:\michael\My Documents\My Music\Rock\Aerosmith\Aerosmith - Permanent Vacation (1987) [Flac]\Permanent Vacation-08-Girl Keeps Coming Apart.wav

Peak level 97.6 %
Track quality 100.0 %
Test CRC 63CFEE4C
Copy CRC 63CFEE4C
Copy OK

Track 9
Filename D:\michael\My Documents\My Music\Rock\Aerosmith\Aerosmith - Permanent Vacation (1987) [Flac]\Permanent Vacation-09-Angel.wav

Peak level 97.9 %
Track quality 99.9 %
Test CRC 898CCF4F
Copy CRC 898CCF4F
Copy OK

Track 10
Filename D:\michael\My Documents\My Music\Rock\Aerosmith\Aerosmith - Permanent Vacation (1987) [Flac]\Permanent Vacation-10-Permanent Vacation.wav

Peak level 98.2 %
Track quality 100.0 %
Test CRC 5EF56C17

Copy CRC 5EF56C17
Copy OK

Track 11
Filename D:\michael\My Documents\My Music\Rock\Aerosmith\Aerosmith - Permanent Vacation (1987) [Flac]\Permanent Vacation-11-I'm Down.wav

Peak level 97.4 %
Track quality 100.0 %
Test CRC 76C72385
Copy CRC 76C72385
Copy OK

Track 12
Filename D:\michael\My Documents\My Music\Rock\Aerosmith\Aerosmith - Permanent Vacation (1987) [Flac]\Permanent Vacation-12-The Movie [Instrumental].wav

Peak level 98.1 %
Track quality 100.0 %
Test CRC D09DAEB6
Copy CRC D09DAEB6
Copy OK

No errors occured

End of status report
#777Продолжительность: 00:47:43
Кодек: FLAC
Битрейт: ~1000 кбит/с VBR
Трек лист:
01 Young Lust
02 F.I.N.E.
03 Love In An Elevator
04 Monkey On My Back
05 Janie's Got A Gun
06 The Other Side
07 My Girl
08 Don't Get Mad, Get Even
09 Voodoo Medicine Man
10 What It Takes
EAC extraction logfile from 2. December 2006, 20:56 for CD
Aerosmith / Pump

Used drive : HL-DT-STDVDRAM GSA-4163B Adapter: 3 ID: 0
Read mode : Secure with NO C2, accurate stream, disable cache
Read offset correction : 667
Overread into Lead-In and Lead-Out : No

Used output format : Internal WAV Routines
44.100 Hz; 16 Bit; Stereo

Other options :
Fill up missing offset samples with silence : Yes
Delete leading and trailing silent blocks : No
Native Win32 interface for Win NT & 2000

Track 1
Filename E:\Aerosmith\Aerosmith - 1989 - Pump\01 - Young Lust.wav

Pre-gap length 0:00:02.32

Peak level 100.0 %
Track quality 100.0 %
Test CRC F0EE1049
Copy CRC F0EE1049
Copy OK

Track 2
Filename E:\Aerosmith\Aerosmith - 1989 - Pump\02 - F.I.N.E..wav

Peak level 100.0 %
Track quality 100.0 %
Test CRC 5BEE3C14
Copy CRC 5BEE3C14
Copy OK

Track 3
Filename E:\Aerosmith\Aerosmith - 1989 - Pump\03 - Love In An Elevator.wav

Peak level 100.0 %
Track quality 100.0 %
Test CRC 300DEA5B
Copy CRC 300DEA5B
Copy OK

Track 4
Filename E:\Aerosmith\Aerosmith - 1989 - Pump\04 - Monkey On My Back.wav

Peak level 100.0 %
Track quality 100.0 %
Test CRC 2D23C103
Copy CRC 2D23C103
Copy OK

Track 5
Filename E:\Aerosmith\Aerosmith - 1989 - Pump\05 - Janie's Got A Gun.wav

Peak level 96.0 %
Track quality 100.0 %
Test CRC 34666CD4
Copy CRC 34666CD4
Copy OK

Track 6
Filename E:\Aerosmith\Aerosmith - 1989 - Pump\06 - The Other Side.wav

Peak level 100.0 %
Track quality 99.9 %
Test CRC C1CFA18F
Copy CRC C1CFA18F
Copy OK

Track 7
Filename E:\Aerosmith\Aerosmith - 1989 - Pump\07 - My Girl.wav

Peak level 100.0 %
Track quality 100.0 %
Test CRC 28E11B23
Copy CRC 28E11B23
Copy OK

Track 8
Filename E:\Aerosmith\Aerosmith - 1989 - Pump\08 - Don't Get Mad, Get Even.wav

Peak level 100.0 %
Track quality 99.9 %
Test CRC 36E5397B
Copy CRC 36E5397B
Copy OK

Track 9
Filename E:\Aerosmith\Aerosmith - 1989 - Pump\09 - Voodoo Medicine Man.wav

Peak level 100.0 %
Track quality 100.0 %
Test CRC CB5520DE
Copy CRC CB5520DE
Copy OK

Track 10
Filename E:\Aerosmith\Aerosmith - 1989 - Pump\10 - What It Takes.wav

Peak level 100.0 %
Track quality 100.0 %
Test CRC 4AF7D897
Copy CRC 4AF7D897
Copy OK

No errors occured

End of status report
#777Продолжительность: 01:02:05
Кодек: FLAC
Битрейт: ~1000 кбит/с VBR
Трек лист:
01 - Intro
02 - Eat The Rich
03 - Get A Grip
04 - Fever
05 - Livin' On The Edge
06 - Flesh
07 - Walk On Down
08 - Shut Up And Dance
09 - Cryin'
10 - Gotta Love It
11 - Crazy
12 - Line Up
13 - Amazing
14 - Boogie Man
Лога нет
.
.
.
.
#777Продолжительность: 01:05:57
Кодек: FLAC
Битрейт: ~1000 кбит/с VBR
Трек лист:
01. Nine Lives
02. Falling in Love (Is Hard on the Knees)
03. Hole in My Soul
04. Taste of India
05. Full Circle
06. Something's Gotta Give
07. Ain't That a Bitch
08. The Farm
09. Crash
10. Kiss Your Past Good-bye
11. Pink
12. Falling Off
13. Attitude Adjustment
14. Fallen Angels
Exact Audio Copy V0.99 prebeta 4 from 23. January 2008
EAC extraction logfile from 17. August 2008, 4:10
Aerosmith / Nine Lives
Used drive : PLEXTOR CD-R PX-W5224A Adapter: 1 ID: 1
Read mode : Secure
Utilize accurate stream : Yes
Defeat audio cache : Yes
Make use of C2 pointers : No
Read offset correction : 30
Overread into Lead-In and Lead-Out : No
Fill up missing offset samples with silence : Yes
Delete leading and trailing silent blocks : No
Null samples used in CRC calculations : Yes
Used interface : Installed external ASPI interface
Used output format : Internal WAV Routines
Sample format : 44.100 Hz; 16 Bit; Stereo
TOC of the extracted CD
Track | Start | Length | Start sector | End sector
---------------------------------------------------------

1 | 0:00.00 | 4:01.37 | 0 | 18111
2 | 4:01.37 | 3:25.65 | 18112 | 33551
3 | 7:27.27 | 6:09.55 | 33552 | 61281
4 | 13:37.07 | 5:53.50 | 61282 | 87806
5 | 19:30.57 | 5:00.33 | 87807 | 110339
6 | 24:31.15 | 3:36.42 | 110340 | 126581
7 | 28:07.57 | 5:25.33 | 126582 | 150989
8 | 33:33.15 | 4:27.57 | 150990 | 171071
9 | 38:00.72 | 4:25.53 | 171072 | 190999
10 | 42:26.50 | 4:31.52 | 191000 | 211376
11 | 46:58.27 | 3:55.30 | 211377 | 229031
12 | 50:53.57 | 3:02.55 | 229032 | 242736
13 | 53:56.37 | 3:44.13 | 242737 | 259549
14 | 57:40.50 | 8:16.40 | 259550 | 296789
Range status and errors
Selected range
Filename E:\Aerosmith - Nine Lives.wav
Peak level 100.0 %
Range quality 99.9 %
Copy CRC 87264C21
Copy OK
No errors occurred
End of status report
--------------------------------------------------------------------------------------------------
Aerosmith - Nine Lives.cue:
Checking AccurateRip database
Track Ripping Status [Disc ID: 00216b8f-c10f750e]
1 Accurately Ripped (confidence 22) [fe05629c]
2 Accurately Ripped (confidence 23) [513a5b71]
3 Accurately Ripped (confidence 22) [2de61552]
4 Accurately Ripped (confidence 22) [64feb2ac]
5 Accurately Ripped (confidence 23) [1d3b2198]
6 Accurately Ripped (confidence 22) [309c554a]
7 Accurately Ripped (confidence 23) [5afdaf6b]
8 Accurately Ripped (confidence 22) [cf3026ce]
9 Accurately Ripped (confidence 22) [73a6f44d]
10 Accurately Ripped (confidence 22) [36edb51b]
11 Accurately Ripped (confidence 23) [e6249ce3]
12 Accurately Ripped (confidence 22) [16e199cf]
13 Accurately Ripped (confidence 22) [2f9c3dd8]
14 Accurately Ripped (confidence 22) [2d2d00be]
_______________________
All Tracks Accurately Ripped.
--------------------------------------------------------------------------------------------------
auCDtect: CD records authenticity detector, version 0.8.2
Copyright (c) 2004 Oleg Berngardt. All rights reserved.
Copyright (c) 2004 Alexander Djourik. All rights reserved.
------------------------------------------------------------
Processing file: [Aerosmith - Nine Lives.wav]
Detected average hi-boundary frequency: 2.031188e+004 Hz
Detected average lo-boundary frequency: 1.318872e+004 Hz
Detected average hi-cut frequency: 2.133470e+004 Hz
Detected average lo-cut frequency: 1.155711e+004 Hz
Maximum probablis boundary frequency: 2.189100e+004 Hz

Coefficient of nonlinearity of a phase: 2.578841e-001
First order smothness: 3.372159e-001
Second order smothness: 5.719485e-001
------------------------------------------------------------
This track looks like CDDA with probability 99%
#777Продолжительность: 00:53:44
Кодек: APE
Битрейт: ~1000 кбит/с VBR
Трек лист:
01. Beyond Beautiful
02. Just Push Play
03. Jaded
04. Fly Away From Here
05. Trip Hoppin'
06. Sunshine
07. Under My Skin
08. Luv Lies
09. Outta Your Head
10. Drop Dead Gorgeous
11. Light Inside
12. Avant Garden
13. Face
Отчёт EAC об извлечении, выполненном 4. февраля 2008, 20:58 для диска:
Aerosmith / Just Push Play
Дисковод: _NEC DVD_RW ND-3540A Adapter: 4 ID: 0
Режим чтения: Точный (C2: нет, Точный поток: да, Отключение кэша: да)
Коррекция смещения при чтении: 48
Экстрачтение областей Lead-in и Lead-out : Нет
Выходной формат: Внутренние WAV-операции
44.100 Гц; 16 бит; стерео
Другие параметры:
Заполнение пропущенных сэмплов тишиной : Да
Удаление блоков с тишиной в начале и конце : Нет
Установленный внешний ASPI-интерфейс
Статус диапазона и ошибки
Выбранный диапазон
Имя файла F:\Music\Aerosmith\2001 - Just Push Play\Aerosmith - Just Push Play.wav
Пиковый уровень 100.0 %
Качество диапазона 100.0 %
CRC 911B5B30
Копирование... OK
Ошибок не произошло
Конец отчёта
#777Продолжительность: 00:43:55
Кодек: APE
Битрейт: ~1000 кбит/с VBR
Трек лист:
01-Road Runner
02-Shame, Shame, Shame
03-Eyesight To The Blind
04-Baby, Please Don't Go
05-Never Loved A Girl
06-Back Back Train
07-You Gotta Move
08-The Grind
09-I'm Ready
10-Temperature
11-Stop Messin' Around
12-Jesus Is On The Mainline
.
.

Joey Kramer - drums, backing vocals
Joe Perry - guitar, vocals, slide guitar, dobro, hurdygurdy
Steven Tyler - lead vocals, harmonica, piano
Brad Whitford - guitar
Tom Hamilton - bass
+
Tracy Bonham - vocals
Johnnie Johnson - piano
The Memphis Horns - brass
Paul Santo - piano, Hammond organ, pump organ, Wurlitzer
Producers: Jack Douglas, Marti Frederiksen, Joe Perry, Steven Tyler
Engineers: Paul Caruso, Marti Frederiksen, Jay Messina, Brian Paturalski, Paul Santo
Никогда прежде крутые рокеры не фигурировали в «Джаз-Квадрате».
Но это тот самый случай, когда о рокерах говорят: «Yeah, they did the BLUES». Бостонские монстры записали потрясающий альбом, сделав каверы очень известных блюзов. Их 11 и одна – собственная , аэросмитовская – The Grind.
Конечно, альбом сделан в “аэростиле”, это переиначенный тяжелый белый блюз с корневыми традициями: фирменные риффы, традиционные басовые линии, барабанные изыски и роковый вокал – залог успеха команды Стивена Тайлера.
Я никогда не был их поклонником, (хотя, надо отдать им должное – ребята очень талантливые).
Но, послушав I’m Ready У. Диксона и Road Runner Бо Диддли, понял, что они талантливы вдвойне. А как изумителен вокал и гармоника С. Тайлера на Never Loved a Man А. Франклин. Эта классическая баллада, правда, здесь изменена на Never Loved a Girl.
«Чтобы записать этот альбом, – говорит Джо Перри, – мы прослушали оригиналы многих блюзовых вещей, а также их исполнение «Стоунами» и «Флитвуд Мэк». Далее он признает, что на них огромное влияние оказали британские «белые» блюзовики Yardbirds в целом и Э. Клэптон, Дж. Бэк и Дж. Пейдж, в частности.
Что касается названия альбома, Перри полагает, что это ничего не значащее старое блюзовое или джазовое выражение. Мои попытки расшифровать его привели к «ямайским корням»: слово hobo – содержится в названии растафарианской организации на Ямайке, а английское honk – связано с криком, шумом, сигналом и так далее. При желании и развитом воображении можно что-нибудь сварганить.
#777Продолжительность: 01:15:57
Кодек: APE
Битрейт: ~1000 кбит/с VBR
Трек лист:
01 - Back In The Saddle
02 - Sweet Emotion
03 - Lord Of The Thighs
04 - Toys In The Attic
05 - Last Child
06 - Come Together
07 - Walk This Way
08 - Sick As A Dog
09 - Dream On
10 - Chip Away The Stone
11 - Sight For Sore Eyes
12 - Mama Kin
13 - S.O.S
14 - I Ain't Got You
15 - Mother Popcorn _ Draw The Line
16 - Train Kept A Rollin'
EAC extraction logfile from 22. June 2004, 10:03 for CD
Aerosmith / Live Bootleg

Used drive : LG DVD-ROM DRD8160B Adapter: 0 ID: 1
Read mode : Secure with C2, accurate stream, NO disable cache
Read offset correction : 0
Overread into Lead-In and Lead-Out : No

Used output format : C:\Archivos de programa\EAC\Monkey audio Ape\MAC.exe (Monkey's Audio Lossless Encoder)
Fast Lossless Compression

Other options :
Fill up missing offset samples with silence : No
Delete leading and trailing silent blocks : No
Installed external ASPI interface

Range status and errors
Selected range
Filename C:\Documents and Settings\javier\Mis documentos\Mi mъsica\eMule EXCLUSIVO SUBIDAS\Solo 1\Aerosmith - Live Bootleg\CDImage.wav

Peak level 99.9 %
Range quality 100.0 %
CRC BBCA7D78
Copy OK

No errors occured

End of status report
#777Продолжительность: 00:37:54
Кодек: APE
Битрейт: ~1000 кбит/с VBR
Трек лист:
01 - Train Kept A-Rollin
02 - Kings and Queens
03 - Sweet Emotion
04 - Dream On
05 - Mama Kin
06 - Three Mile Smile / Reefer Head Woman
07 - Lord of the Thighs
08 - Major Barbara
#777Продолжительность: 00:38:47
Кодек: FLAC
Битрейт: ~1000 кбит/с VBR
Трек лист:
01 - Back In The Saddle
02 - Walk This Way
03 - Movin' Out
04 - Draw The Line
05 - Same Old Song And Dance
06 - Last Child
07 - Let The Music Do The Talking
08 - Toys In The Attic
EAC extraction logfile from 26. November 2006, 15:48 for CD
Aerosmith / Classics Live! II

Used drive : HL-DT-STDVDRAM GSA-4163B Adapter: 3 ID: 0
Read mode : Secure with NO C2, accurate stream, disable cache
Read offset correction : 667
Overread into Lead-In and Lead-Out : No

Used output format : Internal WAV Routines
44.100 Hz; 16 Bit; Stereo

Other options :
Fill up missing offset samples with silence : Yes
Delete leading and trailing silent blocks : No
Native Win32 interface for Win NT & 2000

Track 1
Filename E:\Aerosmith\Aerosmith - 1987 - Classics Live! II\01 - Back In The Saddle.wav

Pre-gap length 0:00:02.00

Peak level 96.0 %
Track quality 100.0 %
Test CRC E220386F
Copy CRC E220386F
Copy OK

Track 2
Filename E:\Aerosmith\Aerosmith - 1987 - Classics Live! II\02 - Walk This Way.wav

Peak level 93.5 %
Track quality 100.0 %
Test CRC 76127001
Copy CRC 76127001
Copy OK

Track 3
Filename E:\Aerosmith\Aerosmith - 1987 - Classics Live! II\03 - Movin' Out.wav

Peak level 97.4 %
Track quality 100.0 %
Test CRC 2882C93D
Copy CRC 2882C93D
Copy OK

Track 4
Filename E:\Aerosmith\Aerosmith - 1987 - Classics Live! II\04 - Draw The Line.wav

Peak level 96.8 %
Track quality 99.9 %
Test CRC 25B81999
Copy CRC 25B81999
Copy OK

Track 5
Filename E:\Aerosmith\Aerosmith - 1987 - Classics Live! II\05 - Same Old Song And Dance.wav

Peak level 100.0 %
Track quality 100.0 %
Test CRC 97CA1602
Copy CRC 97CA1602
Copy OK

Track 6
Filename E:\Aerosmith\Aerosmith - 1987 - Classics Live! II\06 - Last Child.wav

Peak level 100.0 %
Track quality 100.0 %
Test CRC CC881D38
Copy CRC CC881D38
Copy OK

Track 7
Filename E:\Aerosmith\Aerosmith - 1987 - Classics Live! II\07 - Let The Music Do The Talking.wav

Peak level 100.0 %
Track quality 100.0 %
Test CRC D4B4C88C
Copy CRC D4B4C88C
Copy OK

Track 8
Filename E:\Aerosmith\Aerosmith - 1987 - Classics Live! II\08 - Toys In The Attic.wav

Peak level 100.0 %
Track quality 100.0 %
Test CRC 4BD5A7FD
Copy CRC 4BD5A7FD
Copy OK

No errors occured

End of status report
#777Продолжительность: 01:01:31
Кодек: FLAC
Битрейт: ~1000 кбит/с VBR
Трек лист:
01 - Eat The Rich
02 - Love In An Elevator
03 - Falling In Love (Is Hard On The Knees)
04 - Same Old Song And Dance
05 - Hole In My Soul
06 - Monkey On My Back
07 - Livin' On The Edge
08 - Cryin'
09 - Rag Doll
10 - Angel
11 - Janie's Got A Gun
12 - Amazing
EAC extraction logfile from 15. January 2007, 21:02 for CD
Aerosmith / A Little South Of Sanity {Explicit} (Disc 1)

Used drive : IOMEGA CDDVD482416E23-C Adapter: 5 ID: 0
Read mode : Secure with NO C2, accurate stream, disable cache
Read offset correction : 6
Overread into Lead-In and Lead-Out : No

Used output format : C:\Program Files\FLAC\flac.exe (User Defined Encoder)
128 kBit/s
Additional command line options : -V -8 -T "artist=%a" -T "title=%t" -T "album=%g" -T "date=%y" -T "tracknumber=%n" -T "genre=%m" %s

Other options :
Fill up missing offset samples with silence : Yes
Delete leading and trailing silent blocks : No
Native Win32 interface for Win NT & 2000

Track 1
Filename P:\Working Dir\AeroSmith - A Little South of Sanity\Disc 1\01 - Eat The Rich.wav

Pre-gap length 0:00:02.00

Peak level 99.9 %
Track quality 100.0 %
Test CRC D597ABE9
Copy CRC D597ABE9
Copy OK

Track 2
Filename P:\Working Dir\AeroSmith - A Little South of Sanity\Disc 1\02 - Love In An Elevator.wav

Peak level 99.9 %
Track quality 100.0 %
Test CRC E627A2D1
Copy CRC E627A2D1
Copy OK

Track 3
Filename P:\Working Dir\AeroSmith - A Little South of Sanity\Disc 1\03 - Falling In Love (Is Hard On The Knees).wav

Peak level 99.9 %
Track quality 100.0 %
Test CRC 99687BDF
Copy CRC 99687BDF
Copy OK

Track 4
Filename P:\Working Dir\AeroSmith - A Little South of Sanity\Disc 1\04 - Same Old Song And Dance.wav

Pre-gap length 0:00:14.06

Peak level 99.9 %
Track quality 100.0 %
Test CRC E24FD2E5
Copy CRC E24FD2E5
Copy OK

Track 5
Filename P:\Working Dir\AeroSmith - A Little South of Sanity\Disc 1\05 - Hole In My Soul.wav

Peak level 97.8 %
Track quality 100.0 %
Test CRC FDC2AF4E
Copy CRC FDC2AF4E
Copy OK

Track 6
Filename P:\Working Dir\AeroSmith - A Little South of Sanity\Disc 1\06 - Monkey On My Back.wav

Peak level 99.8 %
Track quality 100.0 %
Test CRC 778B2E51
Copy CRC 778B2E51
Copy OK

Track 7
Filename P:\Working Dir\AeroSmith - A Little South of Sanity\Disc 1\07 - Livin' On The Edge.wav

Peak level 99.9 %
Track quality 99.9 %
Test CRC BB85682E
Copy CRC BB85682E
Copy OK

Track 8
Filename P:\Working Dir\AeroSmith - A Little South of Sanity\Disc 1\08 - Cryin'.wav

Peak level 99.8 %
Track quality 100.0 %
Test CRC 2658759E
Copy CRC 2658759E
Copy OK

Track 9
Filename P:\Working Dir\AeroSmith - A Little South of Sanity\Disc 1\09 - Rag Doll.wav

Peak level 99.0 %
Track quality 100.0 %
Test CRC 50282E0E
Copy CRC 50282E0E
Copy OK

Track 10
Filename P:\Working Dir\AeroSmith - A Little South of Sanity\Disc 1\10 - Angel.wav

Peak level 98.0 %
Track quality 99.9 %
Test CRC B7478FCB
Copy CRC B7478FCB
Copy OK

Track 11
Filename P:\Working Dir\AeroSmith - A Little South of Sanity\Disc 1\11 - Janie's Got A Gun.wav

Peak level 97.8 %
Track quality 99.9 %
Test CRC AF64180D
Copy CRC AF64180D
Copy OK

Track 12
Filename P:\Working Dir\AeroSmith - A Little South of Sanity\Disc 1\12 - Amazing.wav

Pre-gap length 0:00:07.10

Peak level 98.0 %
Track quality 99.9 %
Test CRC 7AA8D422
Copy CRC 7AA8D422
Copy OK

No errors occured

End of status report
#777Продолжительность: 00:54:10
Кодек: FLAC
Битрейт: ~1000 кбит/с VBR
Трек лист:
01 - Back In The Saddle
02 - Last Child
03 - The Other Side
04 - Walk On Down
05 - Dream On
06 - Crazy
07 - Mama Kin
08 - Walk This Way
09 - Dude (Looks Like A Lady)
10 - What It Takes
11 - Sweet Emotion
EAC extraction logfile from 15. January 2007, 21:36 for CD
Aerosmith / A Little South Of Sanity {Explicit} (Disc 2)

Used drive : IOMEGA CDDVD482416E23-C Adapter: 5 ID: 0
Read mode : Secure with NO C2, accurate stream, disable cache
Read offset correction : 6

Overread into Lead-In and Lead-Out : No

Used output format : C:\Program Files\FLAC\flac.exe (User Defined Encoder)
128 kBit/s
Additional command line options : -V -8 -T "artist=%a" -T "title=%t" -T "album=%g" -T "date=%y" -T "tracknumber=%n" -T "genre=%m" %s

Other options :
Fill up missing offset samples with silence : Yes
Delete leading and trailing silent blocks : No
Native Win32 interface for Win NT & 2000

Track 1
Filename P:\Working Dir\AeroSmith - A Little South of Sanity\Disc 2\01 - Back In The Saddle.wav

Pre-gap length 0:00:02.00

Peak level 99.8 %
Track quality 100.0 %
Test CRC 567499AC
Copy CRC 567499AC
Copy OK

Track 2
Filename P:\Working Dir\AeroSmith - A Little South of Sanity\Disc 2\02 - Last Child.wav

Peak level 99.9 %
Track quality 100.0 %
Test CRC EA3356B0
Copy CRC EA3356B0
Copy OK

Track 3
Filename P:\Working Dir\AeroSmith - A Little South of Sanity\Disc 2\03 - The Other Side.wav

Peak level 99.9 %
Track quality 100.0 %
Test CRC 626665CE
Copy CRC 626665CE
Copy OK

Track 4
Filename P:\Working Dir\AeroSmith - A Little South of Sanity\Disc 2\04 - Walk On Down.wav

Peak level 99.9 %
Track quality 100.0 %
Test CRC 8AC98791
Copy CRC 8AC98791
Copy OK

Track 5
Filename P:\Working Dir\AeroSmith - A Little South of Sanity\Disc 2\05 - Dream On.wav

Peak level 99.9 %
Track quality 99.9 %
Test CRC 13DCAE17
Copy CRC 13DCAE17
Copy OK

Track 6
Filename P:\Working Dir\AeroSmith - A Little South of Sanity\Disc 2\06 - Crazy.wav

Peak level 99.5 %
Track quality 100.0 %
Test CRC F88FD1CB
Copy CRC F88FD1CB
Copy OK

Track 7
Filename P:\Working Dir\AeroSmith - A Little South of Sanity\Disc 2\07 - Mama Kin.wav

Peak level 99.9 %
Track quality 99.9 %
Test CRC FAB35254
Copy CRC FAB35254
Copy OK

Track 8
Filename P:\Working Dir\AeroSmith - A Little South of Sanity\Disc 2\08 - Walk This Way.wav

Peak level 99.9 %
Track quality 100.0 %
Test CRC D88D0249
Copy CRC D88D0249
Copy OK

Track 9
Filename P:\Working Dir\AeroSmith - A Little South of Sanity\Disc 2\09 - Dude (Looks Like A Lady).wav

Pre-gap length 0:00:04.06

Peak level 99.9 %
Track quality 100.0 %
Test CRC C8D9C41F
Copy CRC C8D9C41F
Copy OK

Track 10
Filename P:\Working Dir\AeroSmith - A Little South of Sanity\Disc 2\10 - What It Takes.wav

Peak level 99.9 %
Track quality 100.0 %
Test CRC F26125E6
Copy CRC F26125E6
Copy OK

Track 11
Filename P:\Working Dir\AeroSmith - A Little South of Sanity\Disc 2\11 - Sweet Emotion.wav

Peak level 99.9 %
Track quality 100.0 %
Test CRC 3A207296
Copy CRC 3A207296
Copy OK

No errors occured

End of status report
#777Продолжительность: 00:58:27
Кодек: FLAC
Битрейт: ~1000 кбит/с VBR
Трек лист:
01. Good Evening Las Vegas
02. Beyond Beautiful
03. Same Old Song and Dance
04. No More No More
05. Seasons of Wither
06. Light Inside
07. Draw The Line
08. I Don't Want To Miss A Thing
09. Big Ten Inch Record
10. Rattlesnake Shake
11. Walk This Way
12. Train Kept A Rollin'
Exact Audio Copy V0.99 prebeta 4 from 23. January 2008
EAC extraction logfile from 11. September 2008, 19:28
Aerosmith / Rockin' The Joint
Used drive : _NEC DVD_RW ND-4550A Adapter: 3 ID: 0
Read mode : Secure
Utilize accurate stream : Yes
Defeat audio cache : Yes
Make use of C2 pointers : No
Read offset correction : 48
Overread into Lead-In and Lead-Out : No
Fill up missing offset samples with silence : Yes
Delete leading and trailing silent blocks : No
Null samples used in CRC calculations : Yes
Used interface : Native Win32 interface for Win NT & 2000
Gap handling : Appended to previous track
Used output format : User Defined Encoder
Selected bitrate : 1024 kBit/s
Quality : High
Add ID3 tag : No
Command line compressor : C:\Program Files\Exact Audio Copy\Flac\flac.exe
Additional command line options : -V -8 -T "artist=%a" -T "title=%t" -T "album=%g" -T "date=%y" -T "tracknumber=%n" -T "genre=%m" %s
TOC of the extracted CD
Track | Start | Length | Start sector | End sector
---------------------------------------------------------
1 | 0:00.00 | 0:21.41 | 0 | 1615
2 | 0:21.41 | 4:51.62 | 1616 | 23502
3 | 5:13.28 | 5:50.26 | 23503 | 49778
4 | 11:03.54 | 4:40.03 | 49779 | 70781
5 | 15:43.57 | 5:05.02 | 70782 | 93658
6 | 20:48.59 | 3:35.23 | 93659 | 109806
7 | 24:24.07 | 7:22.58 | 109807 | 143014
8 | 31:46.65 | 4:33.28 | 143015 | 163517
9 | 36:20.18 | 4:17.04 | 163518 | 182796
10 | 40:37.22 | 8:24.33 | 182797 | 220629
11 | 49:01.55 | 4:12.48 | 220630 | 239577
12 | 53:14.28 | 5:13.23 | 239578 | 263075
Track 1
Filename E:\My Music\EAC. flac\Aerosmith - Rockin' The Joint (2005) [FLAC]\01 - Good Evening Las Vegas.wav
Pre-gap length 0:00:02.00
Peak level 92.5 %
Track quality 99.5 %
Test CRC BC8B1CE4
Copy CRC BC8B1CE4
Cannot be verified as accurate (confidence 13) [D62293A4], AccurateRip returned [43478D95]
Copy OK
Track 2
Filename E:\My Music\EAC. flac\Aerosmith - Rockin' The Joint (2005) [FLAC]\02 - Beyond Beautiful.wav
Pre-gap length 0:00:00.10
Peak level 97.6 %
Track quality 100.0 %
Test CRC 42023436
Copy CRC 42023436
Cannot be verified as accurate (confidence 13) [9CCF64DB], AccurateRip returned [0738075A]
Copy OK
Track 3
Filename E:\My Music\EAC. flac\Aerosmith - Rockin' The Joint (2005) [FLAC]\03 - Same Old Song and Dance.wav
Peak level 97.6 %
Track quality 100.0 %
Test CRC DF7CEBE6
Copy CRC DF7CEBE6
Cannot be verified as accurate (confidence 13) [E6346847], AccurateRip returned [AEA084BD]
Copy OK
Track 4
Filename E:\My Music\EAC. flac\Aerosmith - Rockin' The Joint (2005) [FLAC]\04 - No More No More.wav
Peak level 97.6 %
Track quality 100.0 %
Test CRC 6D7F997B
Copy CRC 6D7F997B
Cannot be verified as accurate (confidence 14) [FDE307AD], AccurateRip returned [DA803F67]
Copy OK
Track 5
Filename E:\My Music\EAC. flac\Aerosmith - Rockin' The Joint (2005) [FLAC]\05 - Seasons of Wither.wav
Peak level 97.6 %
Track quality 100.0 %
Test CRC 27519E85
Copy CRC 27519E85
Cannot be verified as accurate (confidence 14) [D8968854], AccurateRip returned [7BD61ECB]
Copy OK
Track 6
Filename E:\My Music\EAC. flac\Aerosmith - Rockin' The Joint (2005) [FLAC]\06 - Light Inside.wav
Peak level 97.6 %
Track quality 100.0 %
Test CRC F40C4288
Copy CRC F40C4288
Cannot be verified as accurate (confidence 13) [69139968], AccurateRip returned [4D256F06]
Copy OK
Track 7
Filename E:\My Music\EAC. flac\Aerosmith - Rockin' The Joint (2005) [FLAC]\07 - Draw The Line.wav
Peak level 97.6 %
Track quality 100.0 %
Test CRC 7531818A
Copy CRC 7531818A
Cannot be verified as accurate (confidence 13) [E2FEF618], AccurateRip returned [58EC16D7]
Copy OK
Track 8
Filename E:\My Music\EAC. flac\Aerosmith - Rockin' The Joint (2005) [FLAC]\08 - I Don't Want To Miss A Thing.wav
Peak level 97.6 %
Track quality 100.0 %
Test CRC EE70E8BC
Copy CRC EE70E8BC
Cannot be verified as accurate (confidence 13) [59B6B5A9], AccurateRip returned [04F9CBCC]
Copy OK
Track 9
Filename E:\My Music\EAC. flac\Aerosmith - Rockin' The Joint (2005) [FLAC]\09 - Big Ten Inch Record.wav
Pre-gap length 0:00:00.05
Peak level 97.6 %
Track quality 100.0 %
Test CRC F117A316
Copy CRC F117A316
Cannot be verified as accurate (confidence 13) [04A89ED5], AccurateRip returned [254ABF8B]
Copy OK
Track 10
Filename E:\My Music\EAC. flac\Aerosmith - Rockin' The Joint (2005) [FLAC]\10 - Rattlesnake Shake.wav
Peak level 97.6 %
Track quality 100.0 %
Test CRC 98047496
Copy CRC 98047496
Cannot be verified as accurate (confidence 13) [BB0867F9], AccurateRip returned [F487EAE2]
Copy OK
Track 11
Filename E:\My Music\EAC. flac\Aerosmith - Rockin' The Joint (2005) [FLAC]\11 - Walk This Way.wav
Pre-gap length 0:00:00.09
Peak level 97.6 %
Track quality 100.0 %
Test CRC 7D8A62DD
Copy CRC 7D8A62DD
Cannot be verified as accurate (confidence 13) [2A840DF8], AccurateRip returned [B30DDA1F]
Copy OK
Track 12
Filename E:\My Music\EAC. flac\Aerosmith - Rockin' The Joint (2005) [FLAC]\12 - Train Kept A Rollin'.wav
Pre-gap length 0:03:08.46
Peak level 97.6 %
Track quality 100.0 %
Test CRC B02E5343
Copy CRC B02E5343
Cannot be verified as accurate (confidence 13) [7630805C], AccurateRip returned [CD93AA6D]
Copy OK
No tracks could be verified as accurate
You may have a different pressing from the one(s) in the database
No errors occurred
End of status report
#777Продолжительность: 00:37:20
Кодек: APE
Битрейт: ~1000 кбит/с VBR
Трек лист:
01 - Dream On", from Aerosmith
02 - Same Old Song and Dance" (Single Version), from Get Your Wings
03 - Sweet Emotion" (Single Version), from Toys in the Attic
04 - Walk This Way", from Toys in the Attic
05 - Last Child", from Rocks
06 - Back in the Saddle", from Rocks
07 - Draw the Line", from Draw the Line
08 - Kings and Queens", from Draw the Line
09 - Come Together", from Sgt. Pepper's Lonely Hearts Club Band
10 - Remember (Walking in the Sand)", from Night in the Ruts
EAC extraction logfile from 16. September 2008, 10:45 for CD
Aerosmith / Greatest Hits (Remaster)

Used drive : LITE-ON DVDRW LH-20A1H Adapter: 0 ID: 0
Read mode : Secure with NO C2, accurate stream, disable cache

Read offset correction : 6
Overread into Lead-In and Lead-Out : No

Used output format : Internal WAV Routines
44.100 Hz; 16 Bit; Stereo

Other options :
Fill up missing offset samples with silence : Yes
Delete leading and trailing silent blocks : No
Native Win32 interface for Win NT & 2000

Range status and errors
Selected range
Filename C:\Downloads\Aerosmith.-.Greatest.Hits.(1980)\Aerosmith - Greatest Hits (Remaster).wav

Peak level 100.0 %
Range quality 100.0 %
CRC 27229F20
Copy OK

No errors occured

End of status report
#777Продолжительность: 00:53:45
Кодек: FLAC
Битрейт: ~1000 кбит/с VBR
Трек лист:
01 Rats In The Cellar
02 Lick And A Promise
03 Chip Away The Stone
04 No Surprize
05 Mama Kin
06 Adam's Apple
07 Nobody's Fault
08 Round And Round
09 Critical Mass
10 Lord Of The Thighs
11 Jailbait
12 Train Kept A Rollin'
EAC extraction logfile from 30. November 2006, 21:05 for CD
Aerosmith / Gems

Used drive : HL-DT-STDVDRAM GSA-4163B Adapter: 3 ID: 0
Read mode : Secure with NO C2, accurate stream, disable cache
Read offset correction : 667
Overread into Lead-In and Lead-Out : No

Used output format : Internal WAV Routines
44.100 Hz; 16 Bit; Stereo

Other options :
Fill up missing offset samples with silence : Yes
Delete leading and trailing silent blocks : No
Native Win32 interface for Win NT & 2000

Track 1
Filename E:\Aerosmith\Aerosmith - 1988 - Gems\01 - Rats In The Cellar.wav

Pre-gap length 0:00:02.00

Peak level 98.0 %
Track quality 100.0 %
Test CRC 6F12ECA6
Copy CRC 6F12ECA6
Copy OK

Track 2
Filename E:\Aerosmith\Aerosmith - 1988 - Gems\02 - Lick And A Promise.wav

Pre-gap length 0:00:00.17

Peak level 94.4 %
Track quality 99.9 %
Test CRC 6C8D09F8
Copy CRC 6C8D09F8
Copy OK

Track 3
Filename E:\Aerosmith\Aerosmith - 1988 - Gems\03 - Chip Away The Stone.wav

Pre-gap length 0:00:00.39

Peak level 100.0 %
Track quality 100.0 %
Test CRC 54A21D60

Copy CRC 54A21D60
Copy OK

Track 4
Filename E:\Aerosmith\Aerosmith - 1988 - Gems\04 - No Surprize.wav

Pre-gap length 0:00:00.64

Peak level 88.7 %
Track quality 100.0 %
Test CRC 4931BE21
Copy CRC 4931BE21
Copy OK

Track 5
Filename E:\Aerosmith\Aerosmith - 1988 - Gems\05 - Mama Kin.wav

Pre-gap length 0:00:01.65

Peak level 97.0 %
Track quality 100.0 %
Test CRC DD6A2526
Copy CRC DD6A2526
Copy OK

Track 6
Filename E:\Aerosmith\Aerosmith - 1988 - Gems\06 - Adam's Apple.wav

Pre-gap length 0:00:00.67

Peak level 100.0 %
Track quality 99.9 %
Test CRC 5C21EE73
Copy CRC 5C21EE73
Copy OK

Track 7
Filename E:\Aerosmith\Aerosmith - 1988 - Gems\07 - Nobody's Fault.wav

Pre-gap length 0:00:00.70

Peak level 97.7 %
Track quality 100.0 %
Test CRC 209E6DAA
Copy CRC 209E6DAA
Copy OK

Track 8
Filename E:\Aerosmith\Aerosmith - 1988 - Gems\08 - Round And Round.wav

Pre-gap length 0:00:02.63

Peak level 97.7 %
Track quality 100.0 %
Test CRC B14E78E0
Copy CRC B14E78E0
Copy OK

Track 9
Filename E:\Aerosmith\Aerosmith - 1988 - Gems\09 - Critical Mass.wav

Pre-gap length 0:00:02.51

Peak level 100.0 %
Track quality 100.0 %
Test CRC 32FA0F6C
Copy CRC 32FA0F6C
Copy OK

Track 10
Filename E:\Aerosmith\Aerosmith - 1988 - Gems\10 - Lord Of The Thighs.wav

Pre-gap length 0:00:00.41

Peak level 100.0 %
Track quality 99.9 %
Test CRC C4C83AA3
Copy CRC C4C83AA3
Copy OK

Track 11
Filename E:\Aerosmith\Aerosmith - 1988 - Gems\11 - Jailbait.wav

Pre-gap length 0:00:01.40

Peak level 99.9 %
Track quality 100.0 %

Test CRC CAA9B53D
Copy CRC CAA9B53D
Copy OK

Track 12
Filename E:\Aerosmith\Aerosmith - 1988 - Gems\12 - Train Kept A Rollin'.wav

Pre-gap length 0:00:02.07

Peak level 98.8 %
Track quality 100.0 %
Test CRC 3C157CFE
Copy CRC 3C157CFE
Copy OK

No errors occured

End of status report
#777Продолжительность: 1:03:13
Кодек: APE
Битрейт: ~1000 кбит/с VBR
Трек лист:
01 - Hangman Jury
02 - Monkey On My Back
03 - Love Me Two Times
04 - Seasons Of Wither
05 - Big Ten Inch Record
06 - One Way Street
07 - Smokestack Lightning
08 - Dream On
09 - Milk Cow Blues
10 - Toys In The Attic
11 - Walkin' The Dog
12 - Train Kept A Rollin' (Part 1)
13 - Train Kept A Rollin' (Part 2)
14 - Last Child
Steven Tyler - lead vocals, harmonica, tack piano, talking drum, tambourine
Joe Perry - guitar, vocals
Brad Whitford - guitar
Tom Hamilton - bass, vocals
Joey Kramer - drums
Tom Gimble - saxophone, piano, flute
Susan Eberenz - flute
Exact Audio Copy V0.99 prebeta 4 from 23. January 2008

Отчёт EAC об извлечении, выполненном 20. сентября 2008, 23:53

Aerosmith / Complete Unplugged - Live at Ed Sullivan Studios, New York City, New York, USA, August 11, 1990 for MTV Unplugged

Дисковод: HL-DT-STDVDRAM GSA-T20L Adapter: 1 ID: 0

Режим чтения : Достоверность
Использование точного потока : Да
Отключение кэша аудио : Да
Использование указателей C2 : Нет

Коррекция смещения при чтении : 667
Способность читать области Lead-in и Lead-out : Нет
Заполнение пропущенных сэмплов тишиной : Да
Удаление блоков с тишиной в начале и конце : Нет
При вычислениях CRC использовались нулевые сэмплы : Нет
Интерфейс : Встроенный Win32-интерфейс для Win NT/2000

Выходной формат : Внутренние WAV-операции
Формат сэмплов : 44.100 Гц; 16 бит; стерео

TOC извлечённого CD

Трек | Старт | Длительность | Начальный сектор | Конечный сектор
---------------------------------------------------------------------
1 | 0:00.00 | 6:31.10 | 0 | 29334
2 | 6:31.10 | 4:47.08 | 29335 | 50867
3 | 11:18.18 | 3:28.02 | 50868 | 66469
4 | 14:46.20 | 5:14.41 | 66470 | 90060
5 | 20:00.61 | 3:55.50 | 90061 | 107735
6 | 23:56.36 | 5:32.39 | 107736 | 132674
7 | 29:29.00 | 3:12.30 | 132675 | 147104
8 | 32:41.30 | 4:41.46 | 147105 | 168225
9 | 37:23.01 | 5:41.59 | 168226 | 193859
10 | 43:04.60 | 4:09.22 | 193860 | 212556
11 | 47:14.07 | 4:07.06 | 212557 | 231087
12 | 51:21.13 | 3:55.69 | 231088 | 248781
13 | 55:17.07 | 3:09.29 | 248782 | 262985
14 | 58:26.36 | 4:47.28 | 262986 | 284538

Характеристики диапазона извлечения и сообщения об ошибках

Выбранный диапазон

Имя файла C:\Users\Leonid\Downloads\Aerosmith.-.MTV.Unplugged.(1990)\Aerosmith - Complete Unplugged - Live at Ed Sullivan Studios, New York City, New York, USA, August 11, 1990 for MTV Unplugged.wav

Пиковый уровень 100.0 %
Качество диапазона 99.9 %
CRC копии 3D08F2E2
Копирование... OK

Ошибок не произошло

Конец отчёта
#777Продолжительность: 01:17:51
Кодек: APE
Битрейт: ~1000 кбит/с VBR
Трек лист:
01-When I Need You
02-Make It
03-Movin' Out
04-One Way Street
05-On The Road Again
06-Mama Kin
07-Same Old Song And Dance
08-Train Kept A Rollin'
09-Seasons Of Wither
10-Write Me A Letter
11-Dream On
12-Pandora's Box
13-Rattkesnake Shake
14-Walkin' The Dog
15-Lord Of The Thighs
EAC extraction logfile from 27. September 2004, 0:46 for CD
Aerosmith / Pandora's Box Disc 1

Used drive : PLEXTOR CD-R PX-W5224A Adapter: 1 ID: 0
Read mode : Secure with NO C2, accurate stream, disable cache
Read offset correction : 0
Overread into Lead-In and Lead-Out : No

Used output format : Internal WAV Routines
44.100 Hz; 16 Bit; Stereo

Other options :
Fill up missing offset samples with silence : Yes
Delete leading and trailing silent blocks : No
Native Win32 interface for Win NT & 2000

Range status and errors
Selected range
Filename C:\Documents and Settings\EnAt\Escritorio\Cd1\CDImage.wav

Peak level 100.0 %
Range quality 100.0 %
CRC 71B4C407
Copy OK

No errors occured

End of status report
#777Продолжительность: 01:12:42
Кодек: APE
Битрейт: ~1000 кбит/с VBR
Трек лист:
01-Toys In The Attic
02-Round And Round
03-Krawhitham
04-You See Me Crying
05-Swee Emotion
06-No More No More
07-Walk This Way
08-I Wanna Know Why
09-Big Ten Inch Record
10-Rats In The Cellar
11-Last Child
12-All Your Love
13-Soul Saver
14-Nobody's Fault
15-Lick And A Promise
16-Adam's Apple
17-Draw The Line
18-Critical Mass
EAC extraction logfile from 27. September 2004, 0:58 for CD
Aerosmith / Pandora's Box Disc 2

Used drive : PLEXTOR CD-R PX-W5224A Adapter: 1 ID: 0
Read mode : Secure with NO C2, accurate stream, disable cache
Read offset correction : 0
Overread into Lead-In and Lead-Out : No

Used output format : Internal WAV Routines
44.100 Hz; 16 Bit; Stereo

Other options :
Fill up missing offset samples with silence : Yes
Delete leading and trailing silent blocks : No
Native Win32 interface for Win NT & 2000

Range status and errors
Selected range
Filename C:\Documents and Settings\EnAt\Escritorio\Cd2\CDImage.wav

Peak level 94.1 %
Range quality 100.0 %
CRC 58980897
Copy OK

No errors occured

End of status report
#777Продолжительность: 01:14:56
Кодек: APE
Битрейт: ~1000 кбит/с VBR
Трек лист:
01-Kings And Queens
02-Milkcow Blues
03-I Live In Connecticut
04-Three Mile Smile
05-Let It Slide
06-Cheese Cake
07-Bone To Bone (Coney Island White Fish Boy)
08-No Surprize
09-Come Together
10-Downtown Charlie
11-Sharpshooter
12-Shit House Shuffle
13-South Station Blues
14-Riff & Roll
15-Jailbait
16-Major Barbara
17-Chip Away The Stone
18-Helter Skelter
19-Back In The Saddle
20-Instrumental
EAC extraction logfile from 27. September 2004, 1:16 for CD
Aerosmith / Pandora's Box Disc 3

Used drive : PLEXTOR CD-R PX-W5224A Adapter: 1 ID: 0
Read mode : Secure with NO C2, accurate stream, disable cache
Read offset correction : 0
Overread into Lead-In and Lead-Out : No

Used output format : Internal WAV Routines
44.100 Hz; 16 Bit; Stereo

Other options :
Fill up missing offset samples with silence : Yes
Delete leading and trailing silent blocks : No
Native Win32 interface for Win NT & 2000

Range status and errors
Selected range
Filename C:\Documents and Settings\EnAt\Escritorio\Aerosmith - Pandora's Box Cd3\CDImage.wav

Peak level 97.7 %
Range quality 100.0 %
CRC 26D7AD13
Copy OK

No errors occured

End of status report
#777Продолжительность: 01:18:40
Кодек: APE
Битрейт: ~1000 кбит/с VBR
Трек лист:
01 Walk On Water
02 Love In An Elevator
03 Rag Doll
04 What It Takes
05 Dude (Looks Like A Lady)
06 Janie's Got A Gun
07 Cryin'
08 Amazing
09 Blind Man
10 Deuces Are Wild
11 The Other Side
12 Crazy
13 Eat The Rich
14 Angel
15 Livin' On The Edge
16 Dude (Looks Like A Lady) - Live
Отчёт EAC об извлечении, выполненном 10. ноября 2006, 20:11 для диска:
Aerosmith / Big Ones
Дисковод: DVD-ROM Adapter: 0 ID: 1
Режим чтения: Достоверный (C2: нет, Точный поток: да, Отключение кэша: да)
Комбинированное смещение чтения/записи: 0
Способность читать области Lead-in и Lead-out : Нет
Выходной формат: Внутренние WAV-операции
44.100 Гц; 16 бит; стерео
Другие параметры:
Заполнение пропущенных сэмплов тишиной : Да
Удаление блоков с тишиной в начале и конце : Нет

Установленный внешний ASPI-интерфейс
Характеристики диапазона извлечения и сообщения об ошибках
Выбранный диапазон
Имя файла D:\Audio_Temp\Aerosmith - Big Ones\Aerosmith - Big Ones.wav
Пиковый уровень 97.6 %
Качество диапазона 100.0 %
CRC 6536CB56
Копирование... OK
Ошибок не произошло
Конец отчёта
#777Продолжительность: 01:10:25
Кодек: FLAC
Битрейт: ~1000 кбит/с VBR
Трек лист:
01 - Mama Kin
02 - Dream On
03 - Same Old Song & Dance
04 - Seasons Of Wither
05 - Walk This Way
06 - Big Ten Inch Record
07 - Sweet Emotion
08 - Last Child
09 - Back In The Saddle
10 - Draw The Line
11 - Dude Looks Like A Lady
12 - Angel
13 - Rag Doll
14 - Janie's Got A Gun
15 - Love In An Elevator
16 - What It Takes
EAC extraction logfile from 14. March 2007, 18:54 for CD
Aerosmith / O, Yeah! - Ultimate Aerosmith Hits (Disc-1)
Used drive : TSSTcorpDVD+-RW TS-L532B Adapter: 1 ID: 0
Read mode : Secure with NO C2, accurate stream, disable cache
Read offset correction : 704
Overread into Lead-In and Lead-Out : No
Used output format : C:\Program Files\Exact Audio Copy\flac.exe (User Defined Encoder)
192 kBit/s
Additional command line options : -8 -A tukey(0.25) -A gauss(0.1875) -b 4096 -V -T "artist=%a" -T "title=%t" -T "album=%g" -T "date=%y" -T "tracknumber=%n" -T "genre=%m" %s --sector-align

Other options :
Fill up missing offset samples with silence : Yes
Delete leading and trailing silent blocks : No
Installed external ASPI interface
Track 1
Filename C:\Documents and Settings\Jordan\My Documents\Downloads\FLAC Aerosmith - O, Yeah! - Ultimate Aerosmith Hits (Disc 1)\01 Mama Kin.wav
Pre-gap length 0:00:02.00
Peak level 97.7 %
Track quality 100.0 %
Test CRC B72A601E
Copy CRC B72A601E
Copy OK
Track 2
Filename C:\Documents and Settings\Jordan\My Documents\Downloads\FLAC Aerosmith - O, Yeah! - Ultimate Aerosmith Hits (Disc 1)\02 Dream On.wav
Peak level 97.7 %
Track quality 100.0 %
Test CRC 4EDCD478
Copy CRC 4EDCD478
Copy OK
Track 3
Filename C:\Documents and Settings\Jordan\My Documents\Downloads\FLAC Aerosmith - O, Yeah! - Ultimate Aerosmith Hits (Disc 1)\03 Same Old Song And Dance.wav
Peak level 97.7 %
Track quality 100.0 %
Test CRC E96ED385
Copy CRC E96ED385

Copy OK
Track 4
Filename C:\Documents and Settings\Jordan\My Documents\Downloads\FLAC Aerosmith - O, Yeah! - Ultimate Aerosmith Hits (Disc 1)\04 Seasons Of Wither.wav
Peak level 97.7 %
Track quality 100.0 %
Test CRC 45573DCB
Copy CRC 45573DCB
Copy OK
Track 5
Filename C:\Documents and Settings\Jordan\My Documents\Downloads\FLAC Aerosmith - O, Yeah! - Ultimate Aerosmith Hits (Disc 1)\05 Walk This Way.wav
Peak level 92.3 %
Track quality 100.0 %
Test CRC D410C5DB
Copy CRC D410C5DB
Copy OK
Track 6
Filename C:\Documents and Settings\Jordan\My Documents\Downloads\FLAC Aerosmith - O, Yeah! - Ultimate Aerosmith Hits (Disc 1)\06 Big Ten Inch Record.wav
Peak level 97.7 %
Track quality 100.0 %
Test CRC ECCA5A6C
Copy CRC ECCA5A6C
Copy OK
Track 7
Filename C:\Documents and Settings\Jordan\My Documents\Downloads\FLAC Aerosmith - O, Yeah! - Ultimate Aerosmith Hits (Disc 1)\07 Sweet Emotion.wav
Pre-gap length 0:00:01.40
Peak level 97.7 %
Track quality 100.0 %
Test CRC 98CA7260
Copy CRC 98CA7260
Copy OK
Track 8
Filename C:\Documents and Settings\Jordan\My Documents\Downloads\FLAC Aerosmith - O, Yeah! - Ultimate Aerosmith Hits (Disc 1)\08 Last Child.wav
Pre-gap length 0:00:01.06
Peak level 97.7 %
Track quality 100.0 %
Test CRC 92F8AB95
Copy CRC 92F8AB95
Copy OK
Track 9
Filename C:\Documents and Settings\Jordan\My Documents\Downloads\FLAC Aerosmith - O, Yeah! - Ultimate Aerosmith Hits (Disc 1)\09 Back In The Saddle.wav
Pre-gap length 0:00:01.13
Peak level 97.7 %
Track quality 100.0 %
Test CRC 3A264A94
Copy CRC 3A264A94
Copy OK
Track 10
Filename C:\Documents and Settings\Jordan\My Documents\Downloads\FLAC Aerosmith - O, Yeah! - Ultimate Aerosmith Hits (Disc 1)\10 Draw The Line.wav
Peak level 97.7 %
Track quality 100.0 %
Test CRC F1295156
Copy CRC F1295156
Copy OK
Track 11
Filename C:\Documents and Settings\Jordan\My Documents\Downloads\FLAC Aerosmith - O, Yeah! - Ultimate Aerosmith Hits (Disc 1)\11 Dude (Looks Like A Lady).wav
Peak level 97.7 %
Track quality 100.0 %
Test CRC 72BF61D6
Copy CRC 72BF61D6
Copy OK
Track 12
Filename C:\Documents and Settings\Jordan\My Documents\Downloads\FLAC Aerosmith - O, Yeah! - Ultimate Aerosmith Hits (Disc 1)\12 Angel.wav
Peak level 97.7 %
Track quality 100.0 %
Test CRC BE875BE7
Copy CRC BE875BE7
Copy OK
Track 13
Filename C:\Documents and Settings\Jordan\My Documents\Downloads\FLAC Aerosmith - O, Yeah! - Ultimate Aerosmith Hits (Disc 1)\13 Rag Doll.wav
Peak level 97.7 %
Track quality 99.9 %
Test CRC 1E5E2017
Copy CRC 1E5E2017
Copy OK
Track 14
Filename C:\Documents and Settings\Jordan\My Documents\Downloads\FLAC Aerosmith - O, Yeah! - Ultimate Aerosmith Hits (Disc 1)\14 Janie's Got A Gun.wav
Peak level 97.7 %
Track quality 99.9 %
Test CRC 798A5EF5
Copy CRC 798A5EF5
Copy OK
Track 15
Filename C:\Documents and Settings\Jordan\My Documents\Downloads\FLAC Aerosmith - O, Yeah! - Ultimate Aerosmith Hits (Disc 1)\15 Love In An Elevator.wav
Peak level 97.7 %
Track quality 100.0 %
Test CRC 55471EBD
Copy CRC 55471EBD
Copy OK
Track 16
Filename C:\Documents and Settings\Jordan\My Documents\Downloads\FLAC Aerosmith - O, Yeah! - Ultimate Aerosmith Hits (Disc 1)\16 What It Takes.wav
Pre-gap length 0:00:01.20
Peak level 97.7 %
Track quality 100.0 %
Test CRC 07A49F48
Copy CRC 07A49F48
Copy OK
No errors occured
End of status report
#777Продолжительность: 01:01:51
Кодек: FLAC
Битрейт: ~1000 кбит/с VBR
Трек лист:
01 - The Other Side
02 - Livin' On The Edge
03 - Cryin'
04 - Amazing
05 - Deuces Are Wild
06 - Crazy
07 - Falling In Love (Is Hard On your knees)
08 - Pink (South Beach Mix)
09 - I Don't Want To Miss A Thing
10 - Jaded
11 - Just Push Play (Radio Remix)
12 - Walk This Way (Run DMC & Aerosmith)
13 - Girls Of Summer
14 - Lay It Down
15 - Come Together (Bonus Track)
16 - Theme From Spiderman (Bonus Track)
17 - Toys In The Attic (Bonus Track)
EAC extraction logfile from 14. March 2007, 19:42 for CD
Aerosmith / O, Yeah! Ultimate Aerosmith Hits (Disc 2)
Used drive : TSSTcorpDVD+-RW TS-L532B Adapter: 1 ID: 0
Read mode : Secure with NO C2, accurate stream, disable cache
Read offset correction : 704
Overread into Lead-In and Lead-Out : No
Used output format : C:\Program Files\Exact Audio Copy\flac.exe (User Defined Encoder)
192 kBit/s
Additional command line options : -8 -A tukey(0.25) -A gauss(0.1875) -b 4096 -V -T "artist=%a" -T "title=%t" -T "album=%g" -T "date=%y" -T "tracknumber=%n" -T "genre=%m" %s --sector-align
Other options :
Fill up missing offset samples with silence : Yes
Delete leading and trailing silent blocks : No
Installed external ASPI interface
Track 1
Filename C:\Documents and Settings\Jordan\My Documents\Downloads\FLAC Aerosmith - O, Yeah! - Ultimate Aerosmith Hits (Disc 2)\01 The Other Side.wav
Pre-gap length 0:00:02.00
Peak level 97.7 %
Track quality 100.0 %
Test CRC DB0D7E79
Copy CRC DB0D7E79
Copy OK
Track 2
Filename C:\Documents and Settings\Jordan\My Documents\Downloads\FLAC Aerosmith - O, Yeah! - Ultimate Aerosmith Hits (Disc 2)\02 Livin' On The Edge.wav
Pre-gap length 0:00:01.10
Peak level 97.7 %
Track quality 100.0 %
Test CRC 88ACB914
Copy CRC 88ACB914
Copy OK
Track 3
Filename C:\Documents and Settings\Jordan\My Documents\Downloads\FLAC Aerosmith - O, Yeah! - Ultimate Aerosmith Hits (Disc 2)\03 Cryin'.wav
Peak level 97.7 %
Track quality 100.0 %
Test CRC 9BBDEE01
Copy CRC 9BBDEE01
Copy OK
Track 4
Filename C:\Documents and Settings\Jordan\My Documents\Downloads\FLAC Aerosmith - O, Yeah! - Ultimate Aerosmith Hits (Disc 2)\04 Amazing.wav
Peak level 97.7 %
Track quality 99.9 %
Test CRC 74C9C0CE
Copy CRC 74C9C0CE
Copy OK
Track 5
Filename C:\Documents and Settings\Jordan\My Documents\Downloads\FLAC Aerosmith - O, Yeah! - Ultimate Aerosmith Hits (Disc 2)\05 Deuces Are Wild.wav
Peak level 97.7 %
Track quality 100.0 %
Test CRC 5483DA82
Copy CRC 5483DA82
Copy OK
Track 6
Filename C:\Documents and Settings\Jordan\My Documents\Downloads\FLAC Aerosmith - O, Yeah! - Ultimate Aerosmith Hits (Disc 2)\06 Crazy.wav
Peak level 97.7 %
Track quality 100.0 %
Test CRC 3BDF632E
Copy CRC 3BDF632E
Copy OK
Track 7
Filename C:\Documents and Settings\Jordan\My Documents\Downloads\FLAC Aerosmith - O, Yeah! - Ultimate Aerosmith Hits (Disc 2)\07 Falling In Love (Is Hard On The Knees).wav
Peak level 97.7 %
Track quality 99.9 %
Test CRC A93A0527
Copy CRC A93A0527
Copy OK
Track 8
Filename C:\Documents and Settings\Jordan\My Documents\Downloads\FLAC Aerosmith - O, Yeah! - Ultimate Aerosmith Hits (Disc 2)\08 Pink (The South Beach Mix).wav
Pre-gap length 0:00:01.66
Peak level 97.7 %
Track quality 100.0 %
Test CRC BE14BBF8
Copy CRC BE14BBF8
Copy OK
Track 9
Filename C:\Documents and Settings\Jordan\My Documents\Downloads\FLAC Aerosmith - O, Yeah! - Ultimate Aerosmith Hits (Disc 2)\09 I Don't Want To Miss A Thing.wav
Peak level 97.7 %
Track quality 100.0 %
Test CRC CDAF10A8
Copy CRC CDAF10A8
Copy OK
Track 10
Filename C:\Documents and Settings\Jordan\My Documents\Downloads\FLAC Aerosmith - O, Yeah! - Ultimate Aerosmith Hits (Disc 2)\10 Jaded.wav
Pre-gap length 0:00:01.26
Peak level 98.8 %
Track quality 100.0 %
Test CRC A5A0FCD3
Copy CRC A5A0FCD3
Copy OK
Track 11
Filename C:\Documents and Settings\Jordan\My Documents\Downloads\FLAC Aerosmith - O, Yeah! - Ultimate Aerosmith Hits (Disc 2)\11 Just Push Play (Radio Remix).wav
Pre-gap length 0:00:01.00
Peak level 97.7 %
Track quality 99.9 %
Test CRC 72005B90
Copy CRC 72005B90
Copy OK
Track 12
Filename C:\Documents and Settings\Jordan\My Documents\Downloads\FLAC Aerosmith - O, Yeah! - Ultimate Aerosmith Hits (Disc 2)\12 Walk This Way (Performed By Run-D.M.C.).wav
Pre-gap length 0:00:01.24
Peak level 97.7 %
Track quality 100.0 %
Test CRC 8D2D3537
Copy CRC 8D2D3537
Copy OK
Track 13
Filename C:\Documents and Settings\Jordan\My Documents\Downloads\FLAC Aerosmith - O, Yeah! - Ultimate Aerosmith Hits (Disc 2)\13 Girls Of Summer.wav
Pre-gap length 0:00:01.50
Peak level 98.8 %
Track quality 100.0 %
Test CRC 138B4E31
Copy CRC 138B4E31
Copy OK
Track 14
Filename C:\Documents and Settings\Jordan\My Documents\Downloads\FLAC Aerosmith - O, Yeah! - Ultimate Aerosmith Hits (Disc 2)\14 Lay It Down.wav
Pre-gap length 0:00:01.44
Peak level 97.7 %
Track quality 100.0 %
Test CRC 8F83A20C
Copy CRC 8F83A20C
Copy OK
No errors occured
End of status report
#777Продолжительность: 01:19:30
Кодек: FLAC
Битрейт: ~1000 кбит/с VBR
Трек лист:
1. Amazing
2. Angel
3. Crazy [LP Edit]
4. Cryin'
5. Devil's Got A New Disguise
6. Dream On
7. Looks Like A Lady - Dude
8. Is Hard On The Knees - Falling In Love
9. I Don't Want To Miss A Thing
10. Jaded
11. Janie's Got A Gun [CHR Remix]
12. Livin' On The Edge [AOR Video]
13. Love In An Elevator
14. Pink
15. Sedona Sunrise
16. Sweet Emotion
17. The Other Side
18. This Way [Run - D.M.C. with Tyler,Perry]

    Слово Aerosmith ничего не значит, просто ни у кого из участников не нашлось аргументов против такого нейтрального названия. Несмотря на созвучие к книге Синклера Льюиса «Эроусмит» оно не имеет никакого отношения. Согласно книге «Walk This Way», Aerosmith было школьным прозовищем Джоя Крамера. Приставку aero он выбрал потому, что альбом Гарри Нильсона назывался Aeriel Ballet.
    Первый концерт группы состоялся в Нипмикской региональной старшей школе. После него Стивен Виктор Талларико сменил имя на Стивена Тайлера, а название Aerosmith окончательно утвердилось за коллективом (был ещё один вариант — The Hookers, «Вербовщики провокаторов»).
    Гитарист Рэй Табано из первого состава Aerosmith впоследствии стал организатором фан-клуба группы.
    Джо Перри записал музыкальную тему для «Человека-паука».
    Персонажи, изображающие участников Aerosmith, появлялись в компьютерных играх «Revolution X» и «Quest for Fame», песни группы включены в саундтреки.
    Сингл «Nine Lives» был главной музыкальной темой для «Dead or Alive 3», а «Dream On» — для «Dead or Alive Ultimate».
    Когда Aerosmith наконец открыли свой официальный веб-сайт, он зафиксировал 550.000 посещений в первые же сутки.
    В 1994 Aerosmith выложили свою песню «Head First» для скачивания через Интернет. Этот сингл считается первым коммерческим продуктом, полностью реализованным в он-лайн.
    Вокалист Стивен Тайлер и гитарист Джо Перри получили прозовище «Ядовитые Близнецы» («The Toxic Twins») за некоторое внешнее сходство и общее пристрастие к наркотикам, алкоголю и погромам.
    Участников группы по самым скромным подсчётам 45 раз арестовывала полиция.
    Aerosmith стали героями 19-го комикса из серии «Человек-тень» («Shadowman»).
    Для записи «I Don’t Want to Miss a Thing» и съёмок в клипе пригласили симфонический оркестр в составе 52 человек. Обычный шаг, но его группе оказалось мало: оркестр нарядили в скафандры по цене 2 с половиной тысячи долларов каждый — в сумме самые дорогие костюмы, когда-либо созданные для видеоклипа.
    Классический хит «Dream On» играет в видеоролике NASA, призывающем людей идти работать в космическую отрасль (в ролике снялись Тайлер и Перри). В 2003 рэппер Eminem использовал отрывок из «Dream On» в своей песне «Sing for the Moment».
    В январе 2001 Aerosmith стали обладателями специальной награды «International Artist Award» от MTV, которая до этого вручалась всего четыре раза за 28 лет существования церемонии. До этого её получили такие монстры шоу-бизнеса, как Led Zeppelin, Род Стюарт, Майкл Джексон и Bee Gees.


Торрент-файл обновлен 10.02.2016г., перекачайте заново
Правила, инструкции, FAQ!!!
Торрент  Добавлен [10 фев 2016, 22:15] Скачать торрент Магнет ссылка
Скачать торрент
104.42 КБ

Статус
Проверен 
 
Размер  10.77 ГБ
Приватный: Нет (DHT включён)
.torrent скачан  6
Как залить торрент? | Как скачать Torrent? | Как смотреть и слушать онлайн?  
Гость
 



Вернуться в Дискографии (Зарубежные)

Кто сейчас на конференции

Сейчас этот форум просматривают: нет зарегистрированных пользователей и гости: 0