A Day To Remember - Дискография (2005-2010) [FLAC|Lossless]<Melodic Hardcore, Pop-punk>


Статистика раздачи
Размер: 2.05 ГБ | Добавлен: 16 мар 2014, 01:03 | Скачали: 0
Сидеров: 0  [0 байт/сек]    Личеров: 3  [0 байт/сек]

Сообщение Гость » 16 мар 2014, 01:03

A Day To Remember - 7 Albums (2005-2010)



Год:
2005-2010
Жанр: Melodic Hardcore, Pop-punk
Страна: США
Продолжительность: 04:41:18

Кодек: FLAC
Битрейт: Lossless

Albums:
Продолжительность:00:30:51

Треклист:
01. Intro (0:42)
02. Heartless (2:46)
03. Your Way With Words Is Through Silence (3:54)
04. A Second Glance (2:53)
05. Casablanca Sucked Anyways (2:57)
06. You Should Have Killed Me When You Had the Chance (3:34)
07. If Looks Could Kill (3:18)
08. You Had Me At Hello (4:29)
09. 1958 (4:29)
10. Sound the Alarm (1:49)
Код:
Код: Выделить всё
Exact Audio Copy V0.99 prebeta 5 from 4. May 2009

Отчёт EAC об извлечении, выполненном 3. августа 2009, 16:08

A Day To Remember / And Their Name Was Treason

Дисковод: Optiarc DVD RW AD-7170A   Adapter: 0  ID: 0

Режим чтения                 : Достоверность
Использование точного потока : Да
Отключение кэша аудио        : Да
Использование указателей C2  : Нет

Коррекция смещения при чтении                     : 48
Способность читать области Lead-in и Lead-out     : Нет
Заполнение пропущенных сэмплов тишиной            : Да
Удаление блоков с тишиной в начале и конце        : Нет
При вычислениях CRC использовались нулевые сэмплы : Да
Интерфейс                                         : Установленный внешний ASPI-интерфейс
Обработка зазоров                                 : Добавлено к предыдущему треку

Выходной формат          : Пользовательский кодировщик
Выбранный битрейт        : 320 kBit/s
Качество                 : Высокий
Добавление ID3-тэга      : Нет
Утилита сжатия           : C:\Program Files\Exact Audio Copy\Flac\flac.exe
Дополнительные параметры : -V -8 -T "artist=%a" -T "title=%t" -T "album=%g" -T "date=%y" -T "tracknumber=%n" -T "genre=%m" %s

TOC извлечённого CD

     Трек |   Старт  | Длительность | Начальный сектор | Конечный сектор
    ---------------------------------------------------------------------
       1  |  0:00.00 |    0:42.37   |           0      |       3186
       2  |  0:42.37 |    2:45.52   |        3187      |      15613
       3  |  3:28.14 |    3:53.69   |       15614      |      33157
       4  |  7:22.08 |    2:53.16   |       33158      |      46148
       5  | 10:15.24 |    2:57.06   |       46149      |      59429
       6  | 13:12.30 |    3:34.05   |       59430      |      75484
       7  | 16:46.35 |    3:18.06   |       75485      |      90340
       8  | 20:04.41 |    4:29.10   |       90341      |     110525
       9  | 24:33.51 |    4:29.02   |      110526      |     130702
      10  | 29:02.53 |    1:49.12   |      130703      |     138889

Трек  1

     Имя файла E:\muSIC\EmoCore\A Day To Remember\A Day To Remember [Lossless]\[2005] And Their Name Was Treason [FLAC]\01 - Intro.wav

     Длина предзазора  0:00:02.00

     Пиковый уровень 58.8 %
     Качество трека 99.7 %
     CRC теста F145594A
     CRC копии F145594A
     Копирование... OK

Трек  2

     Имя файла E:\muSIC\EmoCore\A Day To Remember\A Day To Remember [Lossless]\[2005] And Their Name Was Treason [FLAC]\02 - Heartless.wav

     Пиковый уровень 100.0 %
     Качество трека 99.9 %
     CRC теста F88A2119
     CRC копии F88A2119
     Копирование... OK

Трек  3

     Имя файла E:\muSIC\EmoCore\A Day To Remember\A Day To Remember [Lossless]\[2005] And Their Name Was Treason [FLAC]\03 - Your Way With Words Is Through Silence.wav

     Пиковый уровень 100.0 %
     Качество трека 100.0 %
     CRC теста 294D329F
     CRC копии 294D329F
     Копирование... OK

Трек  4

     Имя файла E:\muSIC\EmoCore\A Day To Remember\A Day To Remember [Lossless]\[2005] And Their Name Was Treason [FLAC]\04 - A Second Glance.wav

     Пиковый уровень 100.0 %
     Качество трека 100.0 %
     CRC теста 6DAE2C11
     CRC копии 6DAE2C11
     Копирование... OK

Трек  5

     Имя файла E:\muSIC\EmoCore\A Day To Remember\A Day To Remember [Lossless]\[2005] And Their Name Was Treason [FLAC]\05 - Casablanca Sucked Anyways.wav

     Пиковый уровень 100.0 %
     Качество трека 100.0 %
     CRC теста A9816265
     CRC копии A9816265
     Копирование... OK

Трек  6

     Имя файла E:\muSIC\EmoCore\A Day To Remember\A Day To Remember [Lossless]\[2005] And Their Name Was Treason [FLAC]\06 - You Should Have Killed Me When You Had the Chance.wav

     Пиковый уровень 100.0 %
     Качество трека 100.0 %
     CRC теста D07C564A
     CRC копии D07C564A
     Копирование... OK

Трек  7

     Имя файла E:\muSIC\EmoCore\A Day To Remember\A Day To Remember [Lossless]\[2005] And Their Name Was Treason [FLAC]\07 - If Looks Could Kill.wav

     Пиковый уровень 100.0 %
     Качество трека 100.0 %
     CRC теста EBEC8FA4
     CRC копии EBEC8FA4
     Копирование... OK

Трек  8

     Имя файла E:\muSIC\EmoCore\A Day To Remember\A Day To Remember [Lossless]\[2005] And Their Name Was Treason [FLAC]\08 - You Had Me At Hello.wav

     Пиковый уровень 100.0 %
     Качество трека 100.0 %
     CRC теста 92332EC1
     CRC копии 92332EC1
     Копирование... OK

Трек  9

     Имя файла E:\muSIC\EmoCore\A Day To Remember\A Day To Remember [Lossless]\[2005] And Their Name Was Treason [FLAC]\09 - 1958.wav

     Пиковый уровень 100.0 %
     Качество трека 100.0 %
     CRC теста C8F79E5B
     CRC копии C8F79E5B
     Копирование... OK

Трек 10

     Имя файла E:\muSIC\EmoCore\A Day To Remember\A Day To Remember [Lossless]\[2005] And Their Name Was Treason [FLAC]\10 - Sound the Alarm.wav

     Пиковый уровень 100.0 %
     Качество трека 100.0 %
     CRC теста C9B6B7BA
     CRC копии C9B6B7BA
     Копирование... OK

Ошибок не произошло

Конец отчёта

Код:
Код: Выделить всё
-----------------------

DON'T MODIFY THIS FILE

-----------------------

PERFORMER: auCDtect Task Manager, ver. 1.5.1RC4 build 1.5.1.5
Copyright (c) 2008-2010 y-soft. All rights reserved
http:/y-soft.org

ANALYZER: auCDtect: CD records authenticity detector, version 0.8.2
Copyright (c) 2004 Oleg Berngardt. All rights reserved.
Copyright (c) 2004 Alexander Djourik. All rights reserved.

FILE: 10 - Sound the Alarm.flac
  Size: 11883035 Hash: CE9684177ABE21CF7C3660D45A7C1EC1 Accuracy: -m0
  Conclusion: CDDA 100%
  Signature: 837C16986B46C9309D423DAB3549DF3FF18173A7
FILE: 09 - 1958.flac
  Size: 36466962 Hash: 0CF7F3C9168A4D196256318AF856E573 Accuracy: -m0
  Conclusion: CDDA 100%
  Signature: 58507C4E691E03C3275F37FDF4C09D4B837B8FA4
FILE: 08 - You Had Me At Hello.flac
  Size: 34682710 Hash: E8BD52B43067EAC5DA481C46CD92F304 Accuracy: -m0
  Conclusion: CDDA 100%
  Signature: 86FA9A27A2E1667A4909E442808017389607B50E
FILE: 07 - If Looks Could Kill.flac
  Size: 25980164 Hash: 0D575F0A98631DA22B7D0D602FD78980 Accuracy: -m0
  Conclusion: CDDA 100%
  Signature: AF857355004E97387B48C5B9314E8630A5D9307F
FILE: 06 - You Should Have Killed Me When You Had the Chance.flac
  Size: 28854661 Hash: 13490402C44E1267AEE55B3A0B4023F5 Accuracy: -m0
  Conclusion: CDDA 100%
  Signature: 99AB03BAE35664117B41AE9D939A206A8F58D7E4
FILE: 05 - Casablanca Sucked Anyways.flac
  Size: 23802834 Hash: 2CD29ECE980ED48F56CA835F4329E54E Accuracy: -m0
  Conclusion: CDDA 100%
  Signature: 551653DBA28BEE7AECE841CB85B873BE90573275
FILE: 04 - A Second Glance.flac
  Size: 23719544 Hash: 28FED54818D362D7D9244BAE95AC9DA6 Accuracy: -m0
  Conclusion: CDDA 100%
  Signature: E581382BA1BAFF9327BFEA01C6A09DAC37540465
FILE: 03 - Your Way With Words Is Through Silence.flac
  Size: 31962262 Hash: F2B4FE74045216E15A37C97A847040FF Accuracy: -m0
  Conclusion: CDDA 100%
  Signature: 53661DA750C2E0648AB0FE96CF27C70C755A1311
FILE: 02 - Heartless.flac
  Size: 22695921 Hash: CBD74004678107C25217D90F87B59761 Accuracy: -m0
  Conclusion: CDDA 100%
  Signature: 7C14D9596D4543C766562923D4AF79D56E671EEF
FILE: 01 - Intro.flac
  Size: 3133508 Hash: 902BDF72A94ED74C09954C04BF24E4D4 Accuracy: -m0
  Conclusion: CDDA 100%
  Signature: 0DAEA0C31F0210F5EAFE0A0590BCDA3241A7C68E
#777Продолжительность:00:42:43

Треклист:
01. Fast Forward To 2012 (1:33)
02. Speak Of The Devil (3:24)
03. The Danger In Starting A Fire (3:03)
04. The Plot To Bomb The Panhandle (4:04)
05. Monument (3:48)
06. The Price We Pay (2:43)
07. Colder Than My Heart, If You Can Imagine (4:03)
08. Show 'Em The Hopes (3:23)
09. A Shot In The Dark (3:52)
10. Here's To The Past (3:59)
11. I Heard It's The Softest Thing Ever (4:06)
12. Start The Shooting (4:44)
Код:
Код: Выделить всё
Exact Audio Copy V0.99 prebeta 5 from 4. May 2009

Отчёт EAC об извлечении, выполненном 7. июля 2009, 22:43

A Day To Remember / For Those Who Have Heart

Дисковод: Optiarc DVD RW AD-7170A   Adapter: 0  ID: 0

Режим чтения                 : Достоверность
Использование точного потока : Да
Отключение кэша аудио        : Да
Использование указателей C2  : Нет

Коррекция смещения при чтении                     : 48
Способность читать области Lead-in и Lead-out     : Нет
Заполнение пропущенных сэмплов тишиной            : Да
Удаление блоков с тишиной в начале и конце        : Нет
При вычислениях CRC использовались нулевые сэмплы : Да
Интерфейс                                         : Установленный внешний ASPI-интерфейс
Обработка зазоров                                 : Добавлено к предыдущему треку

Выходной формат          : Пользовательский кодировщик
Выбранный битрейт        : 320 kBit/s
Качество                 : Высокий
Добавление ID3-тэга      : Нет
Утилита сжатия           : C:\Program Files\Exact Audio Copy\Flac\flac.exe
Дополнительные параметры : -V -8 -T "artist=%a" -T "title=%t" -T "album=%g" -T "date=%y" -T "tracknumber=%n" -T "genre=%m" %s

TOC извлечённого CD

     Трек |   Старт  | Длительность | Начальный сектор | Конечный сектор
    ---------------------------------------------------------------------
       1  |  0:00.00 |    1:33.40   |           0      |       7014
       2  |  1:33.40 |    3:23.62   |        7015      |      22301
       3  |  4:57.27 |    3:02.54   |       22302      |      36005
       4  |  8:00.06 |    4:04.04   |       36006      |      54309
       5  | 12:04.10 |    3:48.07   |       54310      |      71416
       6  | 15:52.17 |    2:43.25   |       71417      |      83666
       7  | 18:35.42 |    4:03.11   |       83667      |     101902
       8  | 22:38.53 |    3:23.11   |      101903      |     117138
       9  | 26:01.64 |    3:52.11   |      117139      |     134549
      10  | 29:54.00 |    3:59.25   |      134550      |     152499
      11  | 33:53.25 |    4:06.32   |      152500      |     170981
      12  | 37:59.57 |    4:44.35   |      170982      |     192316

Трек  1

     Имя файла E:\muSIC\EmoCore\A Day To Remember\A Day To Remember [Lossless]\[2007] For Those Who Have Heart [FLAC]\01 - Fast Forward To 2012.wav

     Длина предзазора  0:00:02.00

     Пиковый уровень 100.0 %
     Качество трека 100.0 %
     CRC теста D926176E
     CRC копии D926176E
     Копирование... OK

Трек  2

     Имя файла E:\muSIC\EmoCore\A Day To Remember\A Day To Remember [Lossless]\[2007] For Those Who Have Heart [FLAC]\02 - Speak Of The Devil.wav

     Пиковый уровень 100.0 %
     Качество трека 100.0 %
     CRC теста B17DE535
     CRC копии B17DE535
     Копирование... OK

Трек  3

     Имя файла E:\muSIC\EmoCore\A Day To Remember\A Day To Remember [Lossless]\[2007] For Those Who Have Heart [FLAC]\03 - The Danger In Starting A Fire.wav

     Пиковый уровень 100.0 %
     Качество трека 100.0 %
     CRC теста FEAB49F2
     CRC копии FEAB49F2
     Копирование... OK

Трек  4

     Имя файла E:\muSIC\EmoCore\A Day To Remember\A Day To Remember [Lossless]\[2007] For Those Who Have Heart [FLAC]\04 - The Plot To Bomb The Panhandle.wav

     Пиковый уровень 100.0 %
     Качество трека 99.9 %
     CRC теста B2686350
     CRC копии B2686350
     Копирование... OK

Трек  5

     Имя файла E:\muSIC\EmoCore\A Day To Remember\A Day To Remember [Lossless]\[2007] For Those Who Have Heart [FLAC]\05 - Monument.wav

     Пиковый уровень 100.0 %
     Качество трека 100.0 %
     CRC теста A8C28202
     CRC копии A8C28202
     Копирование... OK

Трек  6

     Имя файла E:\muSIC\EmoCore\A Day To Remember\A Day To Remember [Lossless]\[2007] For Those Who Have Heart [FLAC]\06 - The Price We Pay.wav

     Пиковый уровень 100.0 %
     Качество трека 100.0 %
     CRC теста 597D97CD
     CRC копии 597D97CD
     Копирование... OK

Трек  7

     Имя файла E:\muSIC\EmoCore\A Day To Remember\A Day To Remember [Lossless]\[2007] For Those Who Have Heart [FLAC]\07 - Colder Than My Heart, If You Can Imagine.wav

     Пиковый уровень 100.0 %
     Качество трека 100.0 %
     CRC теста C9E464B6
     CRC копии C9E464B6
     Копирование... OK

Трек  8

     Имя файла E:\muSIC\EmoCore\A Day To Remember\A Day To Remember [Lossless]\[2007] For Those Who Have Heart [FLAC]\08 - Show 'Em The Hopes.wav

     Пиковый уровень 100.0 %
     Качество трека 100.0 %
     CRC теста CA4D8E08
     CRC копии CA4D8E08
     Копирование... OK

Трек  9

     Имя файла E:\muSIC\EmoCore\A Day To Remember\A Day To Remember [Lossless]\[2007] For Those Who Have Heart [FLAC]\09 - A Shot In The Dark.wav

     Пиковый уровень 100.0 %
     Качество трека 100.0 %
     CRC теста 218A795A
     CRC копии 218A795A
     Копирование... OK

Трек 10

     Имя файла E:\muSIC\EmoCore\A Day To Remember\A Day To Remember [Lossless]\[2007] For Those Who Have Heart [FLAC]\10 - Here's To The Past.wav

     Пиковый уровень 100.0 %
     Качество трека 100.0 %
     CRC теста CFAD5970
     CRC копии CFAD5970
     Копирование... OK

Трек 11

     Имя файла E:\muSIC\EmoCore\A Day To Remember\A Day To Remember [Lossless]\[2007] For Those Who Have Heart [FLAC]\11 - I Heard It's The Softest Thing Ever.wav

     Пиковый уровень 100.0 %
     Качество трека 100.0 %
     CRC теста 9AF51FCF
     CRC копии 9AF51FCF
     Копирование... OK

Трек 12

     Имя файла E:\muSIC\EmoCore\A Day To Remember\A Day To Remember [Lossless]\[2007] For Those Who Have Heart [FLAC]\12 - Start The Shooting.wav

     Пиковый уровень 100.0 %
     Качество трека 100.0 %
     CRC теста CB0BDA85
     CRC копии CB0BDA85
     Копирование... OK

Ошибок не произошло

Конец отчёта

Код:
Код: Выделить всё
-----------------------

DON'T MODIFY THIS FILE

-----------------------

PERFORMER: auCDtect Task Manager, ver. 1.5.1RC4 build 1.5.1.5
Copyright (c) 2008-2010 y-soft. All rights reserved
http:/y-soft.org

ANALYZER: auCDtect: CD records authenticity detector, version 0.8.2
Copyright (c) 2004 Oleg Berngardt. All rights reserved.
Copyright (c) 2004 Alexander Djourik. All rights reserved.

FILE: 12 - Start The Shooting.flac
  Size: 37797694 Hash: 5E0DA64989C32B981D80D6B25F10091E Accuracy: -m0
  Conclusion: CDDA 100%
  Signature: 92CFB046BEAAE212E7832AD9607833397B7D2D84
FILE: 11 - I Heard It's The Softest Thing Ever.flac
  Size: 30050305 Hash: 967F1084891E4F8F7F1077A70FB30243 Accuracy: -m0
  Conclusion: CDDA 100%
  Signature: EB864C4BBBBC7121C618670E8609A81A5BCBE267
FILE: 10 - Here's To The Past.flac
  Size: 31204928 Hash: CE1599CA8B8E589E95CB31A910645B0E Accuracy: -m0
  Conclusion: CDDA 100%
  Signature: FBD07C3FA4021327A75CE6DEEF3FDCCEC972FDC4
FILE: 09 - A Shot In The Dark.flac
  Size: 31173373 Hash: D516245407497FDEFC90A8C4C97C8DC6 Accuracy: -m0
  Conclusion: CDDA 100%
  Signature: E19B41BDC170480A37BEF3195FA3FBAFCA95B84B
FILE: 08 - Show 'Em The Hopes.flac
  Size: 26768256 Hash: DEB8BB0584D02760D942E2815E0FD8C9 Accuracy: -m0
  Conclusion: CDDA 100%
  Signature: 00FC25FBEEB455A56D5DC232977B81A191418940
FILE: 07 - Colder Than My Heart, If You Can Imagine.flac
  Size: 30077781 Hash: C8BD5A36799F08DC1B4F2D33F7B29500 Accuracy: -m0
  Conclusion: CDDA 100%
  Signature: 4ADA044D57D8837FC318DF1C8BC2820450B4CE70
FILE: 06 - The Price We Pay.flac
  Size: 15647481 Hash: 88D8C28167B2C03316314A47C3B0EDC3 Accuracy: -m0
  Conclusion: CDDA 100%
  Signature: 20C1146996965B99B2CC3B121960E1C8D0146097
FILE: 05 - Monument.flac
  Size: 29444183 Hash: 8C0A172027DE23216509EF7A1383A126 Accuracy: -m0
  Conclusion: CDDA 100%
  Signature: 0A2CB6B821D42EA6A4D10FCA034163DD06D3F1CD
FILE: 04 - The Plot To Bomb The Panhandle.flac
  Size: 31877121 Hash: 42FB8806385E772EC315933EFF8A099D Accuracy: -m0
  Conclusion: CDDA 100%
  Signature: FD2F510667508C9E1917B4ABC662DECCFB6DD624
FILE: 03 - The Danger In Starting A Fire.flac
  Size: 23713632 Hash: 3E8FCDBF3DCA5FE9024CD027A26DEE88 Accuracy: -m0
  Conclusion: CDDA 100%
  Signature: 619A776E330285FB617B9AD254E545B60E6B02BF
FILE: 02 - Speak Of The Devil.flac
  Size: 27147488 Hash: F5FB2144115DE6FE4841D26095FEDBDD Accuracy: -m0
  Conclusion: CDDA 100%
  Signature: B5152959893B591AE4A5171F9AA4219CF4E7393E
FILE: 01 - Fast Forward To 2012.flac
  Size: 12732096 Hash: 721B37898C8049889CEBAF767FC5DD47 Accuracy: -m0
  Conclusion: CDDA 100%
  Signature: 07C97432F3218AF27BFBBAA96A84B0AD0D6C50DC
#777Продолжительность:00:54:36

Треклист:
01. Fast Forward To 2012 (1:34)
02. Speak Of The Devil (3:24)
03. The Danger In Starting A Fire (3:03)
04. The Plot To Bomb The Panhandle (4:04)
05. Monument (3:48)
06. The Price We Pay (2:43)
07. Colder Than My Heart. If You Can Imagine (4:03)
08. Show 'Em The Ropes (3:23)
09. A Shot In The Dark (3:52)
10. Here's To The Past (3:59)
11. I Heard Its The Softest Thing Ever (4:06)
12. Start The Shooting (4:44)
13. Heartless (Bonus) (3:00)
14. You Shouldve Killed Me When You Had The Chance (Bonus) (3:40)
15. Since U Been Gone (Bonus) (3:18)
16. Why Walk On Water When Weve Got Boats (Bonus) (1:54)
Код:
Код: Выделить всё
Exact Audio Copy V0.99 prebeta 5 from 4. May 2009

Отчёт EAC об извлечении, выполненном 12. июня 2009, 10:30

A Day To Remember / For Those Who Have Heart [Reissue]

Дисковод: Optiarc DVD RW AD-7170A   Adapter: 0  ID: 0

Режим чтения                 : Достоверность
Использование точного потока : Да
Отключение кэша аудио        : Да
Использование указателей C2  : Нет

Коррекция смещения при чтении                     : 48
Способность читать области Lead-in и Lead-out     : Нет
Заполнение пропущенных сэмплов тишиной            : Да
Удаление блоков с тишиной в начале и конце        : Нет
При вычислениях CRC использовались нулевые сэмплы : Да
Интерфейс                                         : Установленный внешний ASPI-интерфейс
Обработка зазоров                                 : Добавлено к предыдущему треку

Выходной формат          : Пользовательский кодировщик
Выбранный битрейт        : 320 kBit/s
Качество                 : Высокий
Добавление ID3-тэга      : Нет
Утилита сжатия           : C:\Program Files\Exact Audio Copy\Flac\flac.exe
Дополнительные параметры : -V -8 -T "artist=%a" -T "title=%t" -T "album=%g" -T "date=%y" -T "tracknumber=%n" -T "genre=%m" %s

TOC извлечённого CD

     Трек |   Старт  | Длительность | Начальный сектор | Конечный сектор
    ---------------------------------------------------------------------
       1  |  0:00.00 |    1:33.44   |           0      |       7018
       2  |  1:33.44 |    3:23.62   |        7019      |      22305
       3  |  4:57.31 |    3:02.54   |       22306      |      36009
       4  |  8:00.10 |    4:04.04   |       36010      |      54313
       5  | 12:04.14 |    3:48.05   |       54314      |      71418
       6  | 15:52.19 |    2:43.21   |       71419      |      83664
       7  | 18:35.40 |    4:03.16   |       83665      |     101905
       8  | 22:38.56 |    3:23.07   |      101906      |     117137
       9  | 26:01.63 |    3:52.11   |      117138      |     134548
      10  | 29:53.74 |    3:59.27   |      134549      |     152500
      11  | 33:53.26 |    4:06.34   |      152501      |     170984
      12  | 37:59.60 |    4:44.37   |      170985      |     192321
      13  | 42:44.22 |    3:00.16   |      192322      |     205837
      14  | 45:44.38 |    3:40.33   |      205838      |     222370
      15  | 49:24.71 |    3:18.30   |      222371      |     237250
      16  | 52:43.26 |    1:54.37   |      237251      |     245837

Трек  1

     Имя файла E:\muSIC\EmoCore\A Day To Remember\A Day To Remember [Lossless]\[2008] For Those Who Have Heart [Reissue] [FLAC]\01 - Fast Forward To 2012.wav

     Длина предзазора  0:00:02.00

     Пиковый уровень 100.0 %
     Качество трека 100.0 %
     CRC теста EFFF9F3D
     CRC копии EFFF9F3D
     Копирование... OK

Трек  2

     Имя файла E:\muSIC\EmoCore\A Day To Remember\A Day To Remember [Lossless]\[2008] For Those Who Have Heart [Reissue] [FLAC]\02 - Speak Of The Devil.wav

     Пиковый уровень 100.0 %
     Качество трека 100.0 %
     CRC теста EDD65D82
     CRC копии EDD65D82
     Копирование... OK

Трек  3

     Имя файла E:\muSIC\EmoCore\A Day To Remember\A Day To Remember [Lossless]\[2008] For Those Who Have Heart [Reissue] [FLAC]\03 - The Danger In Starting A Fire.wav

     Пиковый уровень 100.0 %
     Качество трека 100.0 %
     CRC теста CC9C2B77
     CRC копии CC9C2B77
     Копирование... OK

Трек  4

     Имя файла E:\muSIC\EmoCore\A Day To Remember\A Day To Remember [Lossless]\[2008] For Those Who Have Heart [Reissue] [FLAC]\04 - The Plot To Bomb The Panhandle.wav

     Пиковый уровень 100.0 %
     Качество трека 99.9 %
     CRC теста 4B81D48A
     CRC копии 4B81D48A
     Копирование... OK

Трек  5

     Имя файла E:\muSIC\EmoCore\A Day To Remember\A Day To Remember [Lossless]\[2008] For Those Who Have Heart [Reissue] [FLAC]\05 - Monument.wav

     Пиковый уровень 100.0 %
     Качество трека 100.0 %
     CRC теста 7FB1B3CF
     CRC копии 7FB1B3CF
     Копирование... OK

Трек  6

     Имя файла E:\muSIC\EmoCore\A Day To Remember\A Day To Remember [Lossless]\[2008] For Those Who Have Heart [Reissue] [FLAC]\06 - The Price We Pay.wav

     Пиковый уровень 100.0 %
     Качество трека 100.0 %
     CRC теста B9ABD0DD
     CRC копии B9ABD0DD
     Копирование... OK

Трек  7

     Имя файла E:\muSIC\EmoCore\A Day To Remember\A Day To Remember [Lossless]\[2008] For Those Who Have Heart [Reissue] [FLAC]\07 - Colder Than My Heart. If You Can Imagine.wav

     Пиковый уровень 100.0 %
     Качество трека 100.0 %
     CRC теста D47670E9
     CRC копии D47670E9
     Копирование... OK

Трек  8

     Имя файла E:\muSIC\EmoCore\A Day To Remember\A Day To Remember [Lossless]\[2008] For Those Who Have Heart [Reissue] [FLAC]\08 - Show 'Em The Ropes.wav

     Пиковый уровень 100.0 %
     Качество трека 100.0 %
     CRC теста 2F5553E3
     CRC копии 2F5553E3
     Копирование... OK

Трек  9

     Имя файла E:\muSIC\EmoCore\A Day To Remember\A Day To Remember [Lossless]\[2008] For Those Who Have Heart [Reissue] [FLAC]\09 - A Shot In The Dark.wav

     Пиковый уровень 100.0 %
     Качество трека 100.0 %
     CRC теста AA670658
     CRC копии AA670658
     Копирование... OK

Трек 10

     Имя файла E:\muSIC\EmoCore\A Day To Remember\A Day To Remember [Lossless]\[2008] For Those Who Have Heart [Reissue] [FLAC]\10 - Here's To The Past.wav

     Пиковый уровень 100.0 %
     Качество трека 100.0 %
     CRC теста 7ACACF53
     CRC копии 7ACACF53
     Копирование... OK

Трек 11

     Имя файла E:\muSIC\EmoCore\A Day To Remember\A Day To Remember [Lossless]\[2008] For Those Who Have Heart [Reissue] [FLAC]\11 - I Heard Its The Softest Thing Ever.wav

     Пиковый уровень 100.0 %
     Качество трека 100.0 %
     CRC теста FD74A8A6
     CRC копии FD74A8A6
     Копирование... OK

Трек 12

     Имя файла E:\muSIC\EmoCore\A Day To Remember\A Day To Remember [Lossless]\[2008] For Those Who Have Heart [Reissue] [FLAC]\12 - Start The Shooting.wav

     Пиковый уровень 100.0 %
     Качество трека 100.0 %
     CRC теста CC76D7A3
     CRC копии CC76D7A3
     Копирование... OK

Трек 13

     Имя файла E:\muSIC\EmoCore\A Day To Remember\A Day To Remember [Lossless]\[2008] For Those Who Have Heart [Reissue] [FLAC]\13 - Heartless (Bonus).wav

     Пиковый уровень 100.0 %
     Качество трека 100.0 %
     CRC теста E65AB3E9
     CRC копии E65AB3E9
     Копирование... OK

Трек 14

     Имя файла E:\muSIC\EmoCore\A Day To Remember\A Day To Remember [Lossless]\[2008] For Those Who Have Heart [Reissue] [FLAC]\14 - You Shouldve Killed Me When You Had The Chance (Bonus).wav

     Пиковый уровень 100.0 %
     Качество трека 99.9 %
     CRC теста BF5D6390
     CRC копии BF5D6390
     Копирование... OK

Трек 15

     Имя файла E:\muSIC\EmoCore\A Day To Remember\A Day To Remember [Lossless]\[2008] For Those Who Have Heart [Reissue] [FLAC]\15 - Since U Been Gone (Bonus).wav

     Пиковый уровень 100.0 %
     Качество трека 100.0 %
     CRC теста DDB7F168
     CRC копии DDB7F168
     Копирование... OK

Трек 16

     Имя файла E:\muSIC\EmoCore\A Day To Remember\A Day To Remember [Lossless]\[2008] For Those Who Have Heart [Reissue] [FLAC]\16 - Why Walk On Water When Weve Got Boats (Bonus).wav

     Пиковый уровень 100.0 %
     Качество трека 100.0 %
     CRC теста 6B43B6EE
     CRC копии 6B43B6EE
     Копирование... OK

Ошибок не произошло

Конец отчёта

Код:
Код: Выделить всё
-----------------------

DON'T MODIFY THIS FILE

-----------------------

PERFORMER: auCDtect Task Manager, ver. 1.5.1RC4 build 1.5.1.5
Copyright (c) 2008-2010 y-soft. All rights reserved
http:/y-soft.org

ANALYZER: auCDtect: CD records authenticity detector, version 0.8.2
Copyright (c) 2004 Oleg Berngardt. All rights reserved.
Copyright (c) 2004 Alexander Djourik. All rights reserved.

FILE: 16 - Why Walk On Water When Weve Got Boats (Bonus).flac
  Size: 14670685 Hash: E2B82022717540F4E881FCA99C283239 Accuracy: -m0
  Conclusion: CDDA 100%
  Signature: AC01D973BCFEDD8272F0806C66407F19D21A908D
FILE: 15 - Since U Been Gone (Bonus).flac
  Size: 25692879 Hash: 8BD7E22763ED94BE5754B465133B400B Accuracy: -m0
  Conclusion: CDDA 99%
  Signature: ACA19E586D773CDA639C6BB773D9E205EE3A1DBB
FILE: 14 - You Shouldve Killed Me When You Had The Chance (Bonus).flac
  Size: 29711129 Hash: 019D470F4A1709F36A4FE2731F1AE79F Accuracy: -m0
  Conclusion: CDDA 100%
  Signature: 911E0C6A538DBA9231BA2592D82588E4657800C3
FILE: 13 - Heartless (Bonus).flac
  Size: 23603889 Hash: BB20A342397F6B3D7CF8F89BB1F6E15A Accuracy: -m0
  Conclusion: CDDA 100%
  Signature: D43E70B1C6965B1020779BB0AECFA6E2859DC8B1
FILE: 12 - Start The Shooting.flac
  Size: 37748544 Hash: 2A257DDDDE6E14147B3B1205DF77FDA0 Accuracy: -m0
  Conclusion: CDDA 100%
  Signature: CC8698E1408728E7127ACD4BD58F8E6B52C48EA4
FILE: 11 - I Heard Its The Softest Thing Ever.flac
  Size: 29975298 Hash: F34B5511264D5965AFE66A543CB90239 Accuracy: -m0
  Conclusion: CDDA 99%
  Signature: EB2974EF5D81C96877CB58F3C9750DF644E08F44
FILE: 10 - Here's To The Past.flac
  Size: 31149829 Hash: 6D65A56F1D18A03B8F07DB90FD410132 Accuracy: -m0
  Conclusion: CDDA 100%
  Signature: 759D5BA2037D1558B3BF254CA0101F4FD2A5783E
FILE: 09 - A Shot In The Dark.flac
  Size: 31119467 Hash: BC7CCCCEC9D775AA73281052A70826A9 Accuracy: -m0
  Conclusion: CDDA 100%
  Signature: C2BEEA114750F5364D81136BAC890EBBD1042BD3
FILE: 08 - Show 'Em The Ropes.flac
  Size: 26717516 Hash: 997812E1FBFBD76D12104F562F3304B8 Accuracy: -m0
  Conclusion: CDDA 100%
  Signature: 4956FB46D8C278FB459120051927521E039A3D2B
FILE: 07 - Colder Than My Heart. If You Can Imagine.flac
  Size: 30027850 Hash: B95627943B31F47A101D4002C2460D37 Accuracy: -m0
  Conclusion: CDDA 100%
  Signature: 6B474B6AD940CD57A69FD0A5EC8195C1C8D49323
FILE: 06 - The Price We Pay.flac
  Size: 15570193 Hash: 80A7180A6A65F63CABB70CACAB264D1E Accuracy: -m0
  Conclusion: CDDA 100%
  Signature: 0D157CED3C5C0701C7E149351BE7410F98EA2B0F
FILE: 05 - Monument.flac
  Size: 29400559 Hash: 1A9C608B469A939C54E381EA88C9AA64 Accuracy: -m0
  Conclusion: CDDA 100%
  Signature: 87B0B2434FAFBD6668E88E9E468A38BA218EE41C
FILE: 04 - The Plot To Bomb The Panhandle.flac
  Size: 31819643 Hash: 08E499F2F5B4B403905B38B9241637E3 Accuracy: -m0
  Conclusion: CDDA 100%
  Signature: 0AE98DABB983BD4AD77AE455B407C4FF1A50D121
FILE: 03 - The Danger In Starting A Fire.flac
  Size: 23662960 Hash: BF56861B7FC42ACC39C7F0391B8C48FD Accuracy: -m0
  Conclusion: CDDA 100%
  Signature: 4FCA9C80EA94C6631A173BFEF6B5E3321ABA6654
FILE: 02 - Speak Of The Devil.flac
  Size: 27105246 Hash: E189DA243189000BFA80FF25D5AAE51E Accuracy: -m0
  Conclusion: CDDA 100%
  Signature: 3097E24BFFE5717D00B1551FA9DF8379DBD1A32B
FILE: 01 - Fast Forward To 2012.flac
  Size: 12704809 Hash: 34E50B9EA2A5D57E060BC8A1A239A236 Accuracy: -m0
  Conclusion: CDDA 100%
  Signature: 08F0CA952AFF19D394D640AA490700BB64D019F0
#777Продолжительность:00:31:07

Треклист:
01. Intro '05 (0:35)
02. Heart Less (2:53)
03. A 2nd Glance (2:54)
04. Nineteen Fifty Eight (4:38)
05. If Looks Could Kill... (3:18)
06. U Had Me @ Hello (4:35)
07. Casablanca Sucked Anyways. (2:57)
08. U Should Of Killed Me When You Had The Chance (3:34)
09. Your Way With Words Is Through Silence! (3:55)
10. Sound The Alarm V.2.0 (1:49)
Код:
Код: Выделить всё
Exact Audio Copy V0.99 prebeta 5 from 4. May 2009

Отчёт EAC об извлечении, выполненном 21. июня 2009, 17:22

A Day To Remember / Old Record

Дисковод: Optiarc DVD RW AD-7170A   Adapter: 1  ID: 0

Режим чтения                 : Достоверность
Использование точного потока : Да
Отключение кэша аудио        : Да
Использование указателей C2  : Нет

Коррекция смещения при чтении                     : 48
Способность читать области Lead-in и Lead-out     : Нет
Заполнение пропущенных сэмплов тишиной            : Да
Удаление блоков с тишиной в начале и конце        : Нет
При вычислениях CRC использовались нулевые сэмплы : Да
Интерфейс                                         : Установленный внешний ASPI-интерфейс
Обработка зазоров                                 : Исключено

Выходной формат          : Пользовательский кодировщик
Выбранный битрейт        : 1024 kBit/s
Качество                 : Высокий
Добавление ID3-тэга      : Нет
Утилита сжатия           : C:\Program Files\Exact Audio Copy\Flac\flac.exe
Дополнительные параметры : -V -8 -T "artist=%a" -T "title=%t" -T "album=%g" -T "date=%y" -T "tracknumber=%n" -T "genre=%m" %s

TOC извлечённого CD

     Трек |   Старт  | Длительность | Начальный сектор | Конечный сектор
    ---------------------------------------------------------------------
       1  |  0:00.00 |    0:37.08   |           0      |       2782
       2  |  0:37.08 |    2:55.08   |        2783      |      15915
       3  |  3:32.16 |    2:55.55   |       15916      |      29095
       4  |  6:27.71 |    4:39.51   |       29096      |      50071
       5  | 11:07.47 |    3:19.63   |       50072      |      65059
       6  | 14:27.35 |    4:36.70   |       65060      |      85829
       7  | 19:04.30 |    2:59.10   |       85830      |      99264
       8  | 22:03.40 |    3:35.41   |       99265      |     115430
       9  | 25:39.06 |    3:56.70   |      115431      |     133200
      10  | 29:36.01 |    1:48.67   |      133201      |     141367

Трек  1

     Имя файла E:\muSIC\EmoCore\A Day To Remember\[2008] Old Record [FLAC]\01 - Intro '05.wav

     Длина предзазора  0:00:02.00

     Пиковый уровень 94.9 %
     Качество трека 100.0 %
     CRC теста 2F5A5520
     CRC копии 2F5A5520
     Копирование... OK

Трек  2

     Имя файла E:\muSIC\EmoCore\A Day To Remember\[2008] Old Record [FLAC]\02 - Heart Less.wav

     Пиковый уровень 100.0 %
     Качество трека 100.0 %
     CRC теста 7A4F2DB8
     CRC копии 7A4F2DB8
     Копирование... OK

Трек  3

     Имя файла E:\muSIC\EmoCore\A Day To Remember\[2008] Old Record [FLAC]\03 - A 2nd Glance.wav

     Пиковый уровень 100.0 %
     Качество трека 100.0 %
     CRC теста 1972E3AD
     CRC копии 1972E3AD
     Копирование... OK

Трек  4

     Имя файла E:\muSIC\EmoCore\A Day To Remember\[2008] Old Record [FLAC]\04 - Nineteen Fifty Eight.wav

     Пиковый уровень 100.0 %
     Качество трека 100.0 %
     CRC теста C74BD0F9
     CRC копии C74BD0F9
     Копирование... OK

Трек  5

     Имя файла E:\muSIC\EmoCore\A Day To Remember\[2008] Old Record [FLAC]\05 - If Looks Could Kill....wav

     Пиковый уровень 100.0 %
     Качество трека 100.0 %
     CRC теста F972C1D6
     CRC копии F972C1D6
     Копирование... OK

Трек  6

     Имя файла E:\muSIC\EmoCore\A Day To Remember\[2008] Old Record [FLAC]\06 - You Had Me @ Hello.wav

     Пиковый уровень 100.0 %
     Качество трека 99.9 %
     CRC теста 91907910
     CRC копии 91907910
     Копирование... OK

Трек  7

     Имя файла E:\muSIC\EmoCore\A Day To Remember\[2008] Old Record [FLAC]\07 - Casablanca Sucked Anyways..wav

     Пиковый уровень 100.0 %
     Качество трека 100.0 %
     CRC теста 667260D0
     CRC копии 667260D0
     Копирование... OK

Трек  8

     Имя файла E:\muSIC\EmoCore\A Day To Remember\[2008] Old Record [FLAC]\08 - U Should Have Killed Me When U Had The Chance.wav

     Пиковый уровень 100.0 %
     Качество трека 100.0 %
     CRC теста 02154A7E
     CRC копии 02154A7E
     Копирование... OK

Трек  9

     Имя файла E:\muSIC\EmoCore\A Day To Remember\[2008] Old Record [FLAC]\09 - Your Way With Words Is Through Silence!.wav

     Пиковый уровень 100.0 %
     Качество трека 100.0 %
     CRC теста 8AF5C307
     CRC копии 8AF5C307
     Копирование... OK

Трек 10

     Имя файла E:\muSIC\EmoCore\A Day To Remember\[2008] Old Record [FLAC]\10 - Sound The Alarm v.2.0.wav

     Пиковый уровень 100.0 %
     Качество трека 100.0 %
     CRC теста 61AA2FB4
     CRC копии 61AA2FB4
     Копирование... OK

Ошибок не произошло

Конец отчёта

Код:
Код: Выделить всё
-----------------------

DON'T MODIFY THIS FILE

-----------------------

PERFORMER: auCDtect Task Manager, ver. 1.5.1RC4 build 1.5.1.5
Copyright (c) 2008-2010 y-soft. All rights reserved
http:/y-soft.org

ANALYZER: auCDtect: CD records authenticity detector, version 0.8.2
Copyright (c) 2004 Oleg Berngardt. All rights reserved.
Copyright (c) 2004 Alexander Djourik. All rights reserved.

FILE: 10 - Sound The Alarm V.2.0.FLAC
  Size: 11460524 Hash: FB331A6306AAFA4F0B8F67050E8DAB85 Accuracy: -m0
  Conclusion: CDDA 100%
  Signature: D9879C1AB64F226AB577CC1DE883E19DC4E23D5D
FILE: 09 - Your Way With Words Is Through Silence!.FLAC
  Size: 31031056 Hash: 2B4F3CE218DB256265B043084428A909 Accuracy: -m0
  Conclusion: CDDA 100%
  Signature: 4074E414B8BADA146A6653D75CF2175FEB022D5E
FILE: 08 - U Should Have Killed Me When U Had The Chance.FLAC
  Size: 27547132 Hash: 1757A9EC19DE8B4ADE43893B7FC0B5B6 Accuracy: -m0
  Conclusion: CDDA 100%
  Signature: 9B151158E0EA220AC01A612553841ED02C464F7C
FILE: 07 - Casablanca Sucked Anyways..FLAC
  Size: 22917113 Hash: 023B18E317F729F991883BF11B00BDB1 Accuracy: -m0
  Conclusion: CDDA 99%
  Signature: 245A6F4A335D06A9857B732DB453CD2F55BFF3EC
FILE: 06 - You Had Me @ Hello.FLAC
  Size: 33558677 Hash: A3D4067B497B02A9A885A43634D9BCC5 Accuracy: -m0
  Conclusion: CDDA 100%
  Signature: 266E2CB4CABF73B54C40A21D614D6AB21F44112B
FILE: 05 - If Looks Could Kill....FLAC
  Size: 25664021 Hash: 3B7C79584210D676C0AC1F3A5228819E Accuracy: -m0
  Conclusion: CDDA 100%
  Signature: BAE36D2CA8686D68834778F894CE3ED848F2D713
FILE: 04 - Nineteen Fifty Eight.FLAC
  Size: 35843349 Hash: 6096383674CAE6CD862A79CE498184C9 Accuracy: -m0
  Conclusion: CDDA 99%
  Signature: B77E5AE54C1CC992B589C2E5FB62BE723148761F
FILE: 03 - A 2nd Glance.FLAC
  Size: 22899843 Hash: C7BC29C848797B217573E16A6D606883 Accuracy: -m0
  Conclusion: CDDA 99%
  Signature: F66418B6449E4168F1C83A113A201AB5BFD866B4
FILE: 02 - Heart Less.FLAC
  Size: 23196391 Hash: 74E4EDDC72CC980363AB2F2A1C34B19A Accuracy: -m0
  Conclusion: CDDA 100%
  Signature: 486BD66A79817282D812EA382355AFFB2555A892
FILE: 01 - Intro '05.FLAC
  Size: 2901685 Hash: 6B2DD1FBB6AD0A65533FA462E236BD5B Accuracy: -m0
  Conclusion: CDDA 100%
  Signature: D23951BA0D43FCA874C884A85991931EB447C33E
#777Продолжительность:00:40:36

Треклист:
01. The Downfall Of Us All (3:29)
02. My Life For Hire (3:34)
03. I'm Made Of Wax, Larry, What Are You Made Of? (3:01)
04. NJ Legion Iced Tea (3:31)
05. Mr. Highway's Thinking About The End (4:16)
06. Have Faith In Me (3:09)
07. Welcome To The Family (3:00)
08. Homesick (3:57)
09. Holdin' It Down For The Underground (3:24)
10. You Already Know What You Are (1:28)
11. Another Song About The Weekend (3:46)
12. If It Means A Lot To You (4:03)
Код:
Код: Выделить всё
Exact Audio Copy V0.99 prebeta 5 from 4. May 2009

Отчёт EAC об извлечении, выполненном 14. июля 2009, 19:16

A Day To Remember / Homesick

Дисковод: Optiarc DVD RW AD-7170A   Adapter: 0  ID: 0

Режим чтения                 : Достоверность
Использование точного потока : Да
Отключение кэша аудио        : Да
Использование указателей C2  : Нет

Коррекция смещения при чтении                     : 48
Способность читать области Lead-in и Lead-out     : Нет
Заполнение пропущенных сэмплов тишиной            : Да
Удаление блоков с тишиной в начале и конце        : Нет
При вычислениях CRC использовались нулевые сэмплы : Да
Интерфейс                                         : Установленный внешний ASPI-интерфейс
Обработка зазоров                                 : Добавлено к предыдущему треку

Выходной формат          : Пользовательский кодировщик
Выбранный битрейт        : 320 kBit/s
Качество                 : Высокий
Добавление ID3-тэга      : Нет
Утилита сжатия           : C:\Program Files\Exact Audio Copy\Flac\flac.exe
Дополнительные параметры : -V -8 -T "artist=%a" -T "title=%t" -T "album=%g" -T "date=%y" -T "tracknumber=%n" -T "genre=%m" %s

TOC извлечённого CD

     Трек |   Старт  | Длительность | Начальный сектор | Конечный сектор
    ---------------------------------------------------------------------
       1  |  0:00.00 |    3:29.12   |           0      |      15686
       2  |  3:29.12 |    3:33.66   |       15687      |      31727
       3  |  7:03.03 |    3:00.69   |       31728      |      45296
       4  | 10:03.72 |    3:31.15   |       45297      |      61136
       5  | 13:35.12 |    4:15.67   |       61137      |      80328
       6  | 17:51.04 |    3:08.66   |       80329      |      94494
       7  | 20:59.70 |    3:00.00   |       94495      |     107994
       8  | 23:59.70 |    3:56.52   |      107995      |     125746
       9  | 27:56.47 |    3:23.72   |      125747      |     141043
      10  | 31:20.44 |    1:27.44   |      141044      |     147612
      11  | 32:48.13 |    3:45.54   |      147613      |     164541
      12  | 36:33.67 |    4:03.22   |      164542      |     182788

Трек  1

     Имя файла E:\muSIC\EmoCore\A Day To Remember\A Day To Remember [Lossless]\[2009] Homesick [FLAC]\01 - The Downfall Of Us All.wav

     Длина предзазора  0:00:02.00

     Пиковый уровень 100.0 %
     Качество трека 100.0 %
     CRC теста 81A44AEF
     CRC копии 81A44AEF
     Копирование... OK

Трек  2

     Имя файла E:\muSIC\EmoCore\A Day To Remember\A Day To Remember [Lossless]\[2009] Homesick [FLAC]\02 - My Life For Hire.wav

     Пиковый уровень 100.0 %
     Качество трека 100.0 %
     CRC теста 9873230E
     CRC копии 9873230E
     Копирование... OK

Трек  3

     Имя файла E:\muSIC\EmoCore\A Day To Remember\A Day To Remember [Lossless]\[2009] Homesick [FLAC]\03 - I'm Made Of Wax, Larry, What Are You Made Of.wav

     Пиковый уровень 100.0 %
     Качество трека 100.0 %
     CRC теста 2C08852E
     CRC копии 2C08852E
     Копирование... OK

Трек  4

     Имя файла E:\muSIC\EmoCore\A Day To Remember\A Day To Remember [Lossless]\[2009] Homesick [FLAC]\04 - NJ Legion Iced Tea.wav

     Пиковый уровень 100.0 %
     Качество трека 99.9 %
     CRC теста D2A60F77
     CRC копии D2A60F77
     Копирование... OK

Трек  5

     Имя файла E:\muSIC\EmoCore\A Day To Remember\A Day To Remember [Lossless]\[2009] Homesick [FLAC]\05 - Mr. Highway's Thinking About The End.wav

     Пиковый уровень 100.0 %
     Качество трека 100.0 %
     CRC теста EDE48BC6
     CRC копии EDE48BC6
     Копирование... OK

Трек  6

     Имя файла E:\muSIC\EmoCore\A Day To Remember\A Day To Remember [Lossless]\[2009] Homesick [FLAC]\06 - Have Faith In Me.wav

     Пиковый уровень 100.0 %
     Качество трека 100.0 %
     CRC теста EBCB809F
     CRC копии EBCB809F
     Копирование... OK

Трек  7

     Имя файла E:\muSIC\EmoCore\A Day To Remember\A Day To Remember [Lossless]\[2009] Homesick [FLAC]\07 - Welcome To The Family.wav

     Пиковый уровень 100.0 %
     Качество трека 99.9 %
     CRC теста FA29969C
     CRC копии FA29969C
     Копирование... OK

Трек  8

     Имя файла E:\muSIC\EmoCore\A Day To Remember\A Day To Remember [Lossless]\[2009] Homesick [FLAC]\08 - Homesick.wav

     Пиковый уровень 100.0 %
     Качество трека 100.0 %
     CRC теста 25574911
     CRC копии 25574911
     Копирование... OK

Трек  9

     Имя файла E:\muSIC\EmoCore\A Day To Remember\A Day To Remember [Lossless]\[2009] Homesick [FLAC]\09 - Holdin' It Down For The Underground.wav

     Пиковый уровень 100.0 %
     Качество трека 100.0 %
     CRC теста 3D76217E
     CRC копии 3D76217E
     Копирование... OK

Трек 10

     Имя файла E:\muSIC\EmoCore\A Day To Remember\A Day To Remember [Lossless]\[2009] Homesick [FLAC]\10 - You Already Know What You Are.wav

     Пиковый уровень 100.0 %
     Качество трека 100.0 %
     CRC теста A252499E
     CRC копии A252499E
     Копирование... OK

Трек 11

     Имя файла E:\muSIC\EmoCore\A Day To Remember\A Day To Remember [Lossless]\[2009] Homesick [FLAC]\11 - Another Song About The Weekend.wav

     Пиковый уровень 100.0 %
     Качество трека 100.0 %
     CRC теста 8AAB74CE
     CRC копии 8AAB74CE
     Копирование... OK

Трек 12

     Имя файла E:\muSIC\EmoCore\A Day To Remember\A Day To Remember [Lossless]\[2009] Homesick [FLAC]\12 - If It Means A Lot To You.wav

     Пиковый уровень 100.0 %
     Качество трека 100.0 %
     CRC теста DD0A8DD1
     CRC копии DD0A8DD1
     Копирование... OK

Ошибок не произошло

Конец отчёта

Код:
Код: Выделить всё
-----------------------

DON'T MODIFY THIS FILE

-----------------------

PERFORMER: auCDtect Task Manager, ver. 1.5.1RC4 build 1.5.1.5
Copyright (c) 2008-2010 y-soft. All rights reserved
http:/y-soft.org

ANALYZER: auCDtect: CD records authenticity detector, version 0.8.2
Copyright (c) 2004 Oleg Berngardt. All rights reserved.
Copyright (c) 2004 Alexander Djourik. All rights reserved.

FILE: 12 - If It Means A Lot To You.flac
  Size: 27965163 Hash: 71060069FBBC29A51244741B7B16D1E9 Accuracy: -m0
  Conclusion: CDDA 100%
  Signature: 6C8BC0FF2C036D091C1321B35CEE793C59B9E8F8
FILE: 11 - Another Song About The Weekend.flac
  Size: 29580378 Hash: BEF6AC10DEBDE1B9FA11ADD95DBDEB62 Accuracy: -m0
  Conclusion: CDDA 100%
  Signature: 4F3923AD0FBB6E605CF80B6F9D9EF722BCA87243
FILE: 10 - You Already Know What You Are.flac
  Size: 11356847 Hash: 1E209241AF328CAD60AA914AE0B7189C Accuracy: -m0
  Conclusion: CDDA 100%
  Signature: 0B79103C1B9E8A49F3CE3D21E760F7A91DDD02AF
FILE: 09 - Holdin' It Down For The Underground.flac
  Size: 26237300 Hash: D65694D1F7ED82B937830D6447939A5C Accuracy: -m0
  Conclusion: CDDA 100%
  Signature: B33BEE9106DCD445F7E3F23224EC112D7CBAA2AA
FILE: 08 - Homesick.flac
  Size: 31662793 Hash: C632C4B1EBAF7F8AD653B75E19D287B6 Accuracy: -m0
  Conclusion: CDDA 100%
  Signature: C6E186A816C27150ADA48642E0DDC224D5FA6DBD
FILE: 07 - Welcome To The Family.flac
  Size: 23005847 Hash: 904F6B9BFF41740A9F1D6443EC1BC83E Accuracy: -m0
  Conclusion: CDDA 100%
  Signature: 83135D7086985A729422435F276378DF3F59E9D2
FILE: 06 - Have Faith In Me.flac
  Size: 25263672 Hash: 786754A6F9BAD5BDDA0D3CDAB1F19BEC Accuracy: -m0
  Conclusion: CDDA 100%
  Signature: 4822079294E86DFD4ED2015E72219DB531B340C5
FILE: 05 - Mr. Highway's Thinking About The End.flac
  Size: 31242971 Hash: D82E22D206D4981496453D9A48A45F11 Accuracy: -m0
  Conclusion: CDDA 100%
  Signature: 56B527E6573B8B55DE48CE0FDB7A8074567EC0F8
FILE: 04 - NJ Legion Iced Tea.flac
  Size: 27822149 Hash: C835A5894775ACC81E45FC3A319420A2 Accuracy: -m0
  Conclusion: CDDA 100%
  Signature: 8D1B7A94DD667B59893AE9EAB1F11BDE21F34E82
FILE: 03 - I'm Made Of Wax, Larry, What Are You Made Of.flac
  Size: 24113475 Hash: B1BCDDCD5350B7EE93CED40ACE1BAE1F Accuracy: -m0
  Conclusion: CDDA 100%
  Signature: A677260829ED25187F1489119900E69349757C17
FILE: 02 - My Life For Hire.flac
  Size: 29169732 Hash: FE4AF305481DAEFB4FDE84ED4D740A11 Accuracy: -m0
  Conclusion: CDDA 99%
  Signature: 2B195F0EFDF9A1543A3CD03ED56704FACF89AF1F
FILE: 01 - The Downfall Of Us All.flac
  Size: 28514679 Hash: 75BC907F19478913AB59427C5D8A0D94 Accuracy: -m0
  Conclusion: CDDA 100%
  Signature: 9AF23EE2E45107347E452A4A2D86C4DEEAD7D065
#777Продолжительность:00:48:26

Треклист:
01. The Downfall Of Us All (3:29)
02. My Life For Hire (3:34)
03. I'm Made Of Wax, Larry, Ware Are You Made Of? (3:01)
04. NJ Legion Iced Tea (3:31)
05. Mr. Highway's Thinking About The End (4:16)
06. Have Faith In Me (3:09)
07. Welcome To The Family (3:00)
08. Homesick (3:57)
09. Holdin' It Down For The Underground (3:24)
10. You Already Know What You Are (1:28)
11. Another Song About The Weekend (3:46)
12. If It Means Alot To You (4:03)
13. Homesick (Acoustic) (4:08)
14. Another Song About The Weekend (Acoustic) (3:43)
Код:
Код: Выделить всё
Exact Audio Copy V0.99 prebeta 5 from 4. May 2009

Отчёт EAC об извлечении, выполненном 2. ноября 2009, 20:36

A Day To Remember / Homesick [Special Edition]

Дисковод: Optiarc DVD RW AD-7170A   Adapter: 0  ID: 0

Режим чтения                 : Достоверность
Использование точного потока : Да
Отключение кэша аудио        : Да
Использование указателей C2  : Нет

Коррекция смещения при чтении                     : 48
Способность читать области Lead-in и Lead-out     : Нет
Заполнение пропущенных сэмплов тишиной            : Да
Удаление блоков с тишиной в начале и конце        : Нет
При вычислениях CRC использовались нулевые сэмплы : Да
Интерфейс                                         : Установленный внешний ASPI-интерфейс
Обработка зазоров                                 : Добавлено к предыдущему треку

Выходной формат          : Пользовательский кодировщик
Выбранный битрейт        : 320 kBit/s
Качество                 : Высокий
Добавление ID3-тэга      : Нет
Утилита сжатия           : C:\Program Files\Exact Audio Copy\Flac\flac.exe
Дополнительные параметры : -V -8 -T "artist=%a" -T "title=%t" -T "album=%g" -T "date=%y" -T "tracknumber=%n" -T "genre=%m" %s

TOC извлечённого CD

     Трек |   Старт  | Длительность | Начальный сектор | Конечный сектор
    ---------------------------------------------------------------------
       1  |  0:00.00 |    3:29.12   |           0      |      15686
       2  |  3:29.12 |    3:33.66   |       15687      |      31727
       3  |  7:03.03 |    3:00.69   |       31728      |      45296
       4  | 10:03.72 |    3:31.15   |       45297      |      61136
       5  | 13:35.12 |    4:15.67   |       61137      |      80328
       6  | 17:51.04 |    3:08.66   |       80329      |      94494
       7  | 20:59.70 |    3:00.00   |       94495      |     107994
       8  | 23:59.70 |    3:56.52   |      107995      |     125746
       9  | 27:56.47 |    3:23.72   |      125747      |     141043
      10  | 31:20.44 |    1:27.44   |      141044      |     147612
      11  | 32:48.13 |    3:45.54   |      147613      |     164541
      12  | 36:33.67 |    4:03.22   |      164542      |     182788
      13  | 40:37.14 |    4:07.53   |      182789      |     201366
      14  | 44:44.67 |    3:42.67   |      201367      |     218083

Трек  1

     Имя файла E:\muSIC\EmoCore\A Day To Remember\A Day To Remember [Lossless]\[2009] Homesick [Special Edition] [FLAC]\01 - The Downfall Of Us All.wav

     Длина предзазора  0:00:02.00

     Пиковый уровень 100.0 %
     Качество трека 100.0 %
     CRC теста 6CBDF3C0
     CRC копии 6CBDF3C0
     Копирование... OK

Трек  2

     Имя файла E:\muSIC\EmoCore\A Day To Remember\A Day To Remember [Lossless]\[2009] Homesick [Special Edition] [FLAC]\02 - My Life For Hire.wav

     Пиковый уровень 100.0 %
     Качество трека 100.0 %
     CRC теста 698A9DFB
     CRC копии 698A9DFB
     Копирование... OK

Трек  3

     Имя файла E:\muSIC\EmoCore\A Day To Remember\A Day To Remember [Lossless]\[2009] Homesick [Special Edition] [FLAC]\03 - I'm Made Of Wax, Larry, Ware Are You Made Of.wav

     Пиковый уровень 100.0 %
     Качество трека 100.0 %
     CRC теста 4613CD90
     CRC копии 4613CD90
     Копирование... OK

Трек  4

     Имя файла E:\muSIC\EmoCore\A Day To Remember\A Day To Remember [Lossless]\[2009] Homesick [Special Edition] [FLAC]\04 - NJ Legion Iced Tea.wav

     Пиковый уровень 100.0 %
     Качество трека 99.9 %
     CRC теста 0E163F2B
     CRC копии 0E163F2B
     Копирование... OK

Трек  5

     Имя файла E:\muSIC\EmoCore\A Day To Remember\A Day To Remember [Lossless]\[2009] Homesick [Special Edition] [FLAC]\05 - Mr. Highway's Thinking About The End.wav

     Пиковый уровень 100.0 %
     Качество трека 100.0 %
     CRC теста 7868A093
     CRC копии 7868A093
     Копирование... OK

Трек  6

     Имя файла E:\muSIC\EmoCore\A Day To Remember\A Day To Remember [Lossless]\[2009] Homesick [Special Edition] [FLAC]\06 - Have Faith In Me.wav

     Пиковый уровень 100.0 %
     Качество трека 100.0 %
     CRC теста 2E236405
     CRC копии 2E236405
     Копирование... OK

Трек  7

     Имя файла E:\muSIC\EmoCore\A Day To Remember\A Day To Remember [Lossless]\[2009] Homesick [Special Edition] [FLAC]\07 - Welcome To The Family.wav

     Пиковый уровень 100.0 %
     Качество трека 99.9 %
     CRC теста 77F0BE80
     CRC копии 77F0BE80
     Копирование... OK

Трек  8

     Имя файла E:\muSIC\EmoCore\A Day To Remember\A Day To Remember [Lossless]\[2009] Homesick [Special Edition] [FLAC]\08 - Homesick.wav

     Пиковый уровень 100.0 %
     Качество трека 100.0 %
     CRC теста 5C5387BC
     CRC копии 5C5387BC
     Копирование... OK

Трек  9

     Имя файла E:\muSIC\EmoCore\A Day To Remember\A Day To Remember [Lossless]\[2009] Homesick [Special Edition] [FLAC]\09 - Holdin' It Down For The Underground.wav

     Пиковый уровень 100.0 %
     Качество трека 100.0 %
     CRC теста 5BFBECC0
     CRC копии 5BFBECC0
     Копирование... OK

Трек 10

     Имя файла E:\muSIC\EmoCore\A Day To Remember\A Day To Remember [Lossless]\[2009] Homesick [Special Edition] [FLAC]\10 - You Already Know What You Are.wav

     Пиковый уровень 100.0 %
     Качество трека 100.0 %
     CRC теста 2F731FB6
     CRC копии 2F731FB6
     Копирование... OK

Трек 11

     Имя файла E:\muSIC\EmoCore\A Day To Remember\A Day To Remember [Lossless]\[2009] Homesick [Special Edition] [FLAC]\11 - Another Song About The Weekend.wav

     Пиковый уровень 100.0 %
     Качество трека 100.0 %
     CRC теста 8BE7C38C
     CRC копии 8BE7C38C
     Копирование... OK

Трек 12

     Имя файла E:\muSIC\EmoCore\A Day To Remember\A Day To Remember [Lossless]\[2009] Homesick [Special Edition] [FLAC]\12 - If It Means Alot To You.wav

     Пиковый уровень 100.0 %
     Качество трека 100.0 %
     CRC теста FF7AE05E
     CRC копии FF7AE05E
     Копирование... OK

Трек 13

     Имя файла E:\muSIC\EmoCore\A Day To Remember\A Day To Remember [Lossless]\[2009] Homesick [Special Edition] [FLAC]\13 - Homesick (Acoustic).wav

     Пиковый уровень 100.0 %
     Качество трека 99.9 %
     CRC теста 0B5DA3D3
     CRC копии 0B5DA3D3
     Копирование... OK

Трек 14

     Имя файла E:\muSIC\EmoCore\A Day To Remember\A Day To Remember [Lossless]\[2009] Homesick [Special Edition] [FLAC]\14 - Another Song About The Weekend (Acoustic).wav

     Пиковый уровень 100.0 %
     Качество трека 100.0 %
     CRC теста 4C294786
     CRC копии 4C294786
     Копирование... OK

Ошибок не произошло

Конец отчёта

Код:
Код: Выделить всё
-----------------------

DON'T MODIFY THIS FILE

-----------------------

PERFORMER: auCDtect Task Manager, ver. 1.5.1RC4 build 1.5.1.5
Copyright (c) 2008-2010 y-soft. All rights reserved
http:/y-soft.org

ANALYZER: auCDtect: CD records authenticity detector, version 0.8.2
Copyright (c) 2004 Oleg Berngardt. All rights reserved.
Copyright (c) 2004 Alexander Djourik. All rights reserved.

FILE: 14 - Another Song About The Weekend (Acoustic).flac
  Size: 27258857 Hash: F447794AD7D813A500E5827A9F18C861 Accuracy: -m0
  Conclusion: CDDA 100%
  Signature: 6A61099FE96577B8AD18F039C2D5ABD415B42CA0
FILE: 13 - Homesick (Acoustic).flac
  Size: 30046369 Hash: 68FF25FFAC1654F65E9366268D1B669A Accuracy: -m0
  Conclusion: CDDA 100%
  Signature: 449DD550C02C7EEF329BD2C7122FCE0A6521B6A5
FILE: 12 - If It Means Alot To You.flac
  Size: 27965152 Hash: C385F630C84F6EF3F624B2B675D7F22D Accuracy: -m0
  Conclusion: CDDA 100%
  Signature: 95367407104F68E0B3C13F331CFB9BE12503FC7E
FILE: 11 - Another Song About The Weekend.flac
  Size: 29579319 Hash: D7448B1A122FD17E69B55627B405C02B Accuracy: -m0
  Conclusion: CDDA 100%
  Signature: 36564DE75D936D4B4B96E56B0331B3A1D2947B10
FILE: 10 - You Already Know What You Are.flac
  Size: 11357222 Hash: 48B96BF3CA382B2EF580F43CC2795411 Accuracy: -m0
  Conclusion: CDDA 100%
  Signature: 66C13D0F37BC4FDF94B4F43494CAA6853B65DB93
FILE: 09 - Holdin' It Down For The Underground.flac
  Size: 26236829 Hash: 3D39FDAE530F6F935961A6BA53C22EB1 Accuracy: -m0
  Conclusion: CDDA 100%
  Signature: AE72D31F835160D84EBE34B48DCE693FADE648F0
FILE: 08 - Homesick.flac
  Size: 31662848 Hash: F093D3A1020974D3EF6C0FEA13E5A4B8 Accuracy: -m0
  Conclusion: CDDA 100%
  Signature: D7C7A8B12DF9CD6A48A40D6DC7583B50184610CF
FILE: 07 - Welcome To The Family.flac
  Size: 23005288 Hash: 154CADB957989639C682F7AD07FCE611 Accuracy: -m0
  Conclusion: CDDA 100%
  Signature: 768E2D52316FD07A9254577FC0A4EE37C7D1EC13
FILE: 06 - Have Faith In Me.flac
  Size: 25263852 Hash: 208A82F8B238DF4FE5CFC1F82DF4415D Accuracy: -m0
  Conclusion: CDDA 100%
  Signature: 36652FFAFF611F0F25BDCB680CB370893530116F
FILE: 05 - Mr. Highway's Thinking About The End.flac
  Size: 31243030 Hash: EB634EE124FEC4FA036AF63E25E2F114 Accuracy: -m0
  Conclusion: CDDA 100%
  Signature: E4CD29236E5A270BF935382CA6114E1DB2F44226
FILE: 04 - NJ Legion Iced Tea.flac
  Size: 27821840 Hash: 70A4578A8341BCF95846AB6DAF42D59B Accuracy: -m0
  Conclusion: CDDA 100%
  Signature: E37EEF39D0C4EE608BECD50758C42AD0F12B5514
FILE: 03 - I'm Made Of Wax, Larry, Ware Are You Made Of.flac
  Size: 24113510 Hash: 9455D6F529919F1791F1A412B5E17C57 Accuracy: -m0
  Conclusion: CDDA 100%
  Signature: 617C9C516D02D3C0605587AE69B82A10BA55741D
FILE: 02 - My Life For Hire.flac
  Size: 29169702 Hash: 4D433834FA79346069C5985CBA454116 Accuracy: -m0
  Conclusion: CDDA 100%
  Signature: AA9432C2DD1E187A7E38A7D237C3C4E662415EB3
FILE: 01 - The Downfall Of Us All.flac
  Size: 28514713 Hash: 112D796A4389DE93E132AE21EAB04FBF Accuracy: -m0
  Conclusion: CDDA 100%
  Signature: 1EB4B6FC97C50220F78AA2B84C020E038AF09144
#777Продолжительность:00:32:56

Треклист:
01. Sticks & Bricks (3:17)
02. All I Want (3:23)
03. It's Complicated (2:57)
04. This Is The House That Doubt Built (3:30)
05. 2nd Sucks (2:28)
06. Better Off This Way (3:26)
07. All Signs Point To Lauderdale (3:17)
08. You Be Tails, I'll Be Sonic (3:48)
09. Out Of Time (3:27)
10. If I Leave (3:24)
Код:
Код: Выделить всё
Exact Audio Copy V0.99 prebeta 5 from 4. May 2009

EAC extraction logfile from 11. November 2010, 0:54

A Day To Remember / What Separates Me From You

Used drive  : TSSTcorpCDDVDW SH-S223B   Adapter: 3  ID: 0

Read mode               : Secure
Utilize accurate stream : Yes
Defeat audio cache      : Yes
Make use of C2 pointers : No

Read offset correction                      : 6
Overread into Lead-In and Lead-Out          : No
Fill up missing offset samples with silence : Yes
Delete leading and trailing silent blocks   : No
Null samples used in CRC calculations       : Yes
Used interface                              : Native Win32 interface for Win NT & 2000
Gap handling                                : Appended to previous track

Used output format              : User Defined Encoder
Selected bitrate                : 1024 kBit/s
Quality                         : High
Add ID3 tag                     : No
Command line compressor         : C:\Program Files (x86)\Exact Audio Copy\FLAC\FLAC.EXE
Additional command line options : -V -8 -T "artist=%a" -T "title=%t" -T "album=%g" -T "date=%y" -T "tracknumber=%n" -T "genre=%m" %s

TOC of the extracted CD

     Track |   Start  |  Length  | Start sector | End sector
    ---------------------------------------------------------
        1  |  0:00.00 |  3:16.49 |         0    |    14748
        2  |  3:16.49 |  3:22.48 |     14749    |    29946
        3  |  6:39.22 |  2:57.18 |     29947    |    43239
        4  |  9:36.40 |  3:30.25 |     43240    |    59014
        5  | 13:06.65 |  2:27.47 |     59015    |    70086
        6  | 15:34.37 |  3:26.27 |     70087    |    85563
        7  | 19:00.64 |  3:17.15 |     85564    |   100353
        8  | 22:18.04 |  3:47.67 |    100354    |   117445
        9  | 26:05.71 |  3:26.40 |    117446    |   132935
       10  | 29:32.36 |  3:24.14 |    132936    |   148249

Track  1

     Filename C:\Users\John\Desktop\A Day To Remember\What Separates Me From You\01. Sticks & Bricks.wav

     Pre-gap length  0:00:02.00

     Peak level 100.0 %
     Track quality 100.0 %
     Test CRC 93681E77
     Copy CRC 93681E77
     Track not present in AccurateRip database
     Copy OK

Track  2

     Filename C:\Users\John\Desktop\A Day To Remember\What Separates Me From You\02. All I Want.wav

     Peak level 100.0 %
     Track quality 100.0 %
     Test CRC 05BA6392
     Copy CRC 05BA6392
     Track not present in AccurateRip database
     Copy OK

Track  3

     Filename C:\Users\John\Desktop\A Day To Remember\What Separates Me From You\03. It's Complicated.wav

     Peak level 100.0 %
     Track quality 100.0 %
     Test CRC 76DF1FFF
     Copy CRC 76DF1FFF
     Track not present in AccurateRip database
     Copy OK

Track  4

     Filename C:\Users\John\Desktop\A Day To Remember\What Separates Me From You\04. This Is The House That Doubt Built.wav

     Peak level 100.0 %
     Track quality 100.0 %
     Test CRC 9F75BC96
     Copy CRC 9F75BC96
     Track not present in AccurateRip database
     Copy OK

Track  5

     Filename C:\Users\John\Desktop\A Day To Remember\What Separates Me From You\05. 2nd Sucks.wav

     Peak level 100.0 %
     Track quality 100.0 %
     Test CRC 53D1663B
     Copy CRC 53D1663B
     Track not present in AccurateRip database
     Copy OK

Track  6

     Filename C:\Users\John\Desktop\A Day To Remember\What Separates Me From You\06. Better Off This Way.wav

     Peak level 100.0 %
     Track quality 100.0 %
     Test CRC 0A8EF464
     Copy CRC 0A8EF464
     Track not present in AccurateRip database
     Copy OK

Track  7

     Filename C:\Users\John\Desktop\A Day To Remember\What Separates Me From You\07. All Signs Point To Lauderdale.wav

     Peak level 100.0 %
     Track quality 100.0 %
     Test CRC 442ADB2C
     Copy CRC 442ADB2C
     Track not present in AccurateRip database
     Copy OK

Track  8

     Filename C:\Users\John\Desktop\A Day To Remember\What Separates Me From You\08. You Be Tails, I'll Be Sonic.wav

     Peak level 100.0 %
     Track quality 100.0 %
     Test CRC B3DE13E3
     Copy CRC B3DE13E3
     Track not present in AccurateRip database
     Copy OK

Track  9

     Filename C:\Users\John\Desktop\A Day To Remember\What Separates Me From You\09. Out Of Time.wav

     Peak level 100.0 %
     Track quality 99.9 %
     Test CRC 400F14E8
     Copy CRC 400F14E8
     Track not present in AccurateRip database
     Copy OK

Track 10

     Filename C:\Users\John\Desktop\A Day To Remember\What Separates Me From You\10. If I Leave.wav

     Peak level 100.0 %
     Track quality 100.0 %
     Test CRC 27FFA924
     Copy CRC 27FFA924
     Track not present in AccurateRip database
     Copy OK

None of the tracks are present in the AccurateRip database

No errors occurred

End of status report

Код:
Код: Выделить всё
-----------------------

DON'T MODIFY THIS FILE

-----------------------

PERFORMER: auCDtect Task Manager, ver. 1.5.1RC4 build 1.5.1.5
Copyright (c) 2008-2010 y-soft. All rights reserved
http:/y-soft.org

ANALYZER: auCDtect: CD records authenticity detector, version 0.8.2
Copyright (c) 2004 Oleg Berngardt. All rights reserved.
Copyright (c) 2004 Alexander Djourik. All rights reserved.

FILE: 10. If I Leave.flac
  Size: 25840252 Hash: B67A27914FAF103F1D670E7A3C28DF19 Accuracy: -m0
  Conclusion: CDDA 100%
  Signature: CCF68BFF77C4BA1FEA4107DFA09EF19036DE35B1
FILE: 09. Out Of Time.flac
  Size: 26839881 Hash: DD5A41D97C88DED6E579DDB0393D0769 Accuracy: -m0
  Conclusion: CDDA 100%
  Signature: 39CF44A43FBD4A544C4233800553D55B85F23C0A
FILE: 08. You Be Tails, I'll Be Sonic.flac
  Size: 29369944 Hash: 722D598C0FA3CAA012710E24A32DAE99 Accuracy: -m0
  Conclusion: CDDA 100%
  Signature: 764C2A7EEBBC004ED6FE51CC1B2DEBF134FC42DD
FILE: 07. All Signs Point To Lauderdale.flac
  Size: 25606401 Hash: 55C32065F74B746E525F99792F76E0AA Accuracy: -m0
  Conclusion: CDDA 100%
  Signature: 876D3E6494A3BD480D567F9E3BBBB3400BA9E2FF
FILE: 06. Better Off This Way.flac
  Size: 26487456 Hash: 94419D05D4FFEC25DD4C56D76C40E78A Accuracy: -m0
  Conclusion: CDDA 100%
  Signature: 7D7BE7C318AD76B9D0D61EA83740E68E83FE744C
FILE: 05. 2nd Sucks.flac
  Size: 18467843 Hash: DC5F5F9B90E62D60247B641CB709FC2B Accuracy: -m0
  Conclusion: CDDA 100%
  Signature: FF74775C8F8449C38441940EFB3F96B500246678
FILE: 04. This Is The House That Doubt Built.flac
  Size: 27551629 Hash: A3BA53B5BDC90BF5CE9BC22A29A0288A Accuracy: -m0
  Conclusion: CDDA 100%
  Signature: 7F875C1990BE4C9E3F4CD3448F309FB2AB40AF59
FILE: 03. It's Complicated.flac
  Size: 23247175 Hash: E7FB77201D82CA5C5E1D422027AC73E2 Accuracy: -m0
  Conclusion: CDDA 100%
  Signature: 69FC52AFFDE699691D5D4A4630A93F3E52C52583
FILE: 02. All I Want.flac
  Size: 26609993 Hash: 9F1AD9735A0A3CFE564D6E6FBC237709 Accuracy: -m0
  Conclusion: CDDA 100%
  Signature: 587BDCA0C978BFB35EEFDCF0934B27120B21379B
FILE: 01. Sticks & Bricks.flac
  Size: 25873891 Hash: E2B43A6BD022F4D505910FD1A4B13F68 Accuracy: -m0
  Conclusion: CDDA 100%
  Signature: BBD332F3CDC31608E51485D84EFDB47EB38DD06D
Правила, инструкции, FAQ!!!
Торрент  Добавлен [16 мар 2014, 01:03] Скачать торрент Магнет ссылка
Скачать торрент
24.07 КБ

Статус
Проверен 
 
Размер  2.05 ГБ
Приватный: Нет (DHT включён)
.torrent скачан  0
Как залить торрент? | Как скачать Torrent? | Как смотреть и слушать онлайн?  
Гость
 



Вернуться в Дискографии (Зарубежные)

Кто сейчас на конференции

Сейчас этот форум просматривают: нет зарегистрированных пользователей и гости: 0