48. NDR Jazzworkshop 1966 • Fun, Sense - and Humor..! [2019, Jazz, HDTV, 720p]


Статистика раздачи
Размер: 3.6 ГБ | Добавлен: 08 июн 2019, 10:49 | Скачали: 0
Сидеров: 6  [0 байт/сек]    Личеров: 2  [0 байт/сек]

Сообщение Гость » 08 июн 2019, 10:49

48. NDR Jazzworkshop 1966

Fun, Sense - and Humor..!


Жанр: Jazz
Продолжительность: 01:10:44
Год выпуска: March 4, 2019
Качество: HDTV
Разрешение видео/развертка: 720p
Контейнер: TS
Видео кодек: H.264
Аудио кодек: AC3, MP2
Видео: MPEG4 Video (H264) 1280x720 50fps 6 092 kb/s
Аудио 1: MPEG Audio 48000Hz stereo 192kbps
Аудио 2: Dolby AC3 48000Hz stereo 448kbps
Günter Ehrig (tp), William McKay (tp), Hans Thomas (tp), Manfred Schoof (tp, fl-h), Horst Gmeinwieser (tb), Gerd Hoffmann (tb), Harald Rosenstein (fl, cl, tb, sax), Erhard Kröger (tb, conga), Gernot Lemaire (tb), Thomas Weisweiler (tuba), Manfred Lindner (cl, b-cl, as, ts), Gerd Dudek (cl, ts), Niels Unbehagen (cl, as), Frank Lemaire (fl, ts, bar), Ingo Schmid-Neuhaus (fl, bar), Volker Kriegel (g), Ingfried Hoffmann (p, org, vib, tp), Helmut Kandelberger (b), Erich Bachträgl (dr)
"Studio 10/ Funkhaus Hamburg", Hamburg (Germany), November 25, 1966.
01. Fun (theme)
02. Why Not
03. For Bud Only
04. Bossa
05. Favelas
06. Carnival
07. Crazy Cats
08. Strings On Wings
09. In A Blue Mood
10. Rendezvous with Pan
11. Beat Bop
12. Fun (theme)
Код: Выделить всё
General
ID                             : 1039 (0x40F)
Complete name                  : F:\48. NDR Jazzworkshop  - Fun, Sense - and Humor..! 1966.ts
Format                         : MPEG-TS
File size                      : 3.60 GiB
Duration                       : 1 h 10 min
Overall bit rate mode          : Variable
Overall bit rate               : 7 293 kb/s
Video
ID                             : 5421 (0x152D)
Menu ID                        : 10377 (0x2889)
Format                         : AVC
Format/Info                    : Advanced Video Codec
Format profile                 : High@L4
Format settings                : CABAC / 4 Ref Frames
Format settings, CABAC         : Yes
Format settings, ReFrames      : 4 frames
Format settings, GOP           : M=6, N=32
Codec ID                       : 27
Duration                       : 1 h 10 min
Bit rate                       : 6 092 kb/s
Width                          : 1 280 pixels
Height                         : 720 pixels
Display aspect ratio           : 16:9
Frame rate                     : 50.000 FPS
Color space                    : YUV
Chroma subsampling             : 4:2:0
Bit depth                      : 8 bits
Scan type                      : Progressive
Bits/(Pixel*Frame)             : 0.132
Stream size                    : 3.01 GiB (84%)
Audio #1
ID                             : 5422 (0x152E)
Menu ID                        : 10377 (0x2889)
Format                         : MPEG Audio
Format version                 : Version 1
Format profile                 : Layer 2
Codec ID                       : 3
Duration                       : 1 h 10 min
Bit rate mode                  : Constant
Bit rate                       : 192 kb/s
Channel(s)                     : 2 channels
Sampling rate                  : 48.0 kHz
Frame rate                     : 41.667 FPS (1152 SPF)
Compression mode               : Lossy
Delay relative to video        : -40 ms
Stream size                    : 97.1 MiB (3%)
Language                       : German
Audio #2
ID                             : 5423 (0x152F)
Menu ID                        : 10377 (0x2889)
Format                         : MPEG Audio
Format version                 : Version 1
Format profile                 : Layer 2
Codec ID                       : 3
Duration                       : 1 h 10 min
Bit rate mode                  : Constant
Bit rate                       : 192 kb/s
Channel(s)                     : 2 channels
Sampling rate                  : 48.0 kHz
Frame rate                     : 41.667 FPS (1152 SPF)
Compression mode               : Lossy
Delay relative to video        : -40 ms
Stream size                    : 97.1 MiB (3%)
Audio #3
ID                             : 5426 (0x1532)
Menu ID                        : 10377 (0x2889)
Format                         : AC-3
Format/Info                    : Audio Coding 3
Commercial name                : Dolby Digital
Codec ID                       : 6
Duration                       : 1 h 10 min
Bit rate mode                  : Constant
Bit rate                       : 448 kb/s
Channel(s)                     : 2 channels
Channel layout                 : L R
Sampling rate                  : 48.0 kHz
Frame rate                     : 31.250 FPS (1536 SPF)
Bit depth                      : 16 bits
Compression mode               : Lossy
Delay relative to video        : -26 ms
Stream size                    : 227 MiB (6%)
Language                       : German
Service kind                   : Complete Main
Other
ID                             : 5424 (0x1530)-100
Menu ID                        : 10377 (0x2889)
Format                         : Teletext
Language                       : German
Правила, инструкции, FAQ!!!
Торрент  Добавлен [08 июн 2019, 10:49] Скачать торрент Магнет ссылка
Скачать торрент
18.5 КБ

Статус
Проверен 
 
Размер  3.6 ГБ
Приватный: Нет (DHT включён)
.torrent скачан  0
Как залить торрент? | Как скачать Torrent? | Как смотреть и слушать онлайн?  
Гость
 



Вернуться в Концерты (HD-Video)

Кто сейчас на конференции

Сейчас этот форум просматривают: нет зарегистрированных пользователей и гости: 0